VERSION	0.00.00	1.05.00
FES_MODE	0
BPM_DEF	185.000	185.000	185.000	185.000
MET_DEF	4	4
RESOLUTION	384
CLK_DEF	384
COMPATIBLE_CODE	MA2

BPM	0	0	185.000
MET	0	0	4	4

NMHLD	2	0	2	384
NMHLD	3	0	3	384
NMHLD	4	0	4	384
NMSTR	5	0	5
NMSCL	5	0	5	96	288	2
NMHLD	6	0	1	384
NMHLD	7	0	3	384
NMHLD	8	0	4	384
NMSTR	9	0	6
NMSUL	9	0	6	96	288	2
NMHLD	10	0	1	768
NMTTP	10	192	1	E	0	M1
NMTTP	11	192	3	E	0	M1
NMHLD	12	0	5	768
NMTTP	12	192	5	E	0	M1
NMTTP	13	192	7	E	0	M1
NMHLD	14	0	0	768
NMTTP	14	192	1	E	0	M1
NMTTP	15	192	3	E	0	M1
NMHLD	16	0	4	576
NMTHO	16	192	0	384	C	1	M1
NMTAP	18	0	7
NMTAP	18	96	7
NMTAP	18	192	0
NMTAP	18	192	6
NMTAP	19	0	5
NMTAP	19	96	5
NMTAP	19	192	4
NMTAP	19	192	6
NMTAP	20	0	5
NMTAP	20	96	5
NMTAP	20	192	4
NMTAP	20	192	5
NMTAP	20	288	4
NMTAP	20	288	5
NMTAP	21	0	3
NMTAP	21	96	3
NMTAP	21	192	3
NMTAP	21	192	4
NMTAP	22	0	2
NMTAP	22	96	2
NMTAP	22	192	1
NMTAP	22	192	3
NMTAP	23	0	0
NMTAP	23	96	0
NMTAP	23	192	1
NMTAP	23	192	7
NMTAP	24	0	1
NMTAP	24	96	1
NMTAP	24	192	1
NMTAP	24	192	3
NMTAP	24	288	1
NMTAP	24	288	3
NMTAP	25	0	4
NMTAP	25	96	4
NMTAP	25	192	3
NMTAP	25	192	5
NMTAP	26	0	6
NMHLD	26	96	6	480
NMTAP	26	192	4
NMTAP	26	288	4
NMTAP	27	0	5
NMTAP	27	96	5
NMTAP	27	192	4
NMTAP	28	0	1
NMHLD	28	96	1	480
NMTAP	28	192	3
NMTAP	28	288	3
NMTAP	29	0	2
NMTAP	29	96	2
NMTAP	29	192	3
NMTAP	30	0	2
NMTAP	30	0	4
NMTAP	30	96	2
NMTAP	30	96	4
NMTAP	30	192	3
NMTAP	30	192	5
NMTAP	30	288	3
NMTAP	30	288	5
NMTAP	31	0	2
NMTAP	31	0	6
NMTAP	31	96	2
NMTAP	31	96	6
NMTAP	31	192	1
NMTAP	31	192	7
NMTAP	31	288	1
NMTAP	31	288	7
NMTHO	32	0	0	384	C	1	M1
NMTTP	32	0	2	B	0	M1
NMTTP	32	0	6	B	0	M1
BRTAP	34	0	1
NMTAP	34	96	0
NMTAP	34	96	2
NMTAP	34	192	6
NMTAP	34	288	5
NMTAP	34	288	7
NMTAP	35	0	2
NMTAP	35	96	1
NMTAP	35	96	3
NMTAP	35	192	5
NMTAP	35	288	4
NMTAP	35	288	6
NMTAP	36	0	2
NMTAP	36	96	0
NMTAP	36	96	1
NMTAP	36	192	6
NMTAP	36	192	7
NMTAP	36	288	5
NMHLD	36	336	5	96
NMHLD	37	48	7	96
NMHLD	37	144	0	96
NMTAP	37	240	2
NMTAP	37	288	2
NMTAP	38	0	1
NMTAP	38	96	0
NMTAP	38	96	2
NMTAP	38	192	5
NMTAP	38	288	4
NMTAP	38	288	6
NMTAP	39	0	2
NMTAP	39	96	1
NMTAP	39	96	3
NMTAP	39	192	6
NMTAP	39	288	5
NMTAP	39	288	7
NMTAP	40	0	1
NMTAP	40	96	2
NMTAP	40	96	3
NMTAP	40	192	4
NMTAP	40	192	5
NMTAP	40	288	6
NMHLD	40	336	6	96
NMHLD	41	48	4	96
NMHLD	41	144	3	96
NMTAP	41	240	1
NMSTR	41	288	1
NMSI_	41	288	1	96	96	4
NMSI_	41	288	1	96	96	5
NMTAP	42	192	6
NMTAP	42	192	7
NMTAP	42	288	0
NMTAP	42	288	5
NMTAP	43	0	0
NMTAP	43	0	1
NMTAP	43	96	2
NMTAP	43	96	7
NMTAP	43	192	4
NMTAP	43	192	5
NMTAP	43	288	3
NMTAP	43	288	6
NMTAP	44	0	2
NMTAP	44	0	3
NMTAP	44	96	1
NMTAP	44	96	4
NMTAP	44	192	2
NMTAP	44	192	3
NMTAP	44	288	2
NMHLD	44	336	2	96
NMHLD	45	48	0	96
NMHLD	45	144	7	96
NMTAP	45	240	5
NMTAP	45	288	5
NMTAP	46	0	4
NMTAP	46	0	5
NMTAP	46	96	3
NMTAP	46	96	6
NMTAP	46	192	2
NMTAP	46	192	3
NMTAP	46	288	1
NMTAP	46	288	4
NMTAP	47	0	6
NMTAP	47	0	7
NMTAP	47	96	0
NMTAP	47	96	5
NMTAP	47	192	0
NMTAP	47	192	1
NMTAP	47	288	2
NMTAP	47	288	7
NMTAP	48	0	4
NMTAP	48	0	5
NMTAP	48	96	2
NMTAP	48	96	6
NMTAP	48	192	0
NMTAP	48	192	1
NMTAP	48	288	2
NMTAP	48	336	2
NMTAP	49	48	3
NMTAP	49	48	4
NMTAP	49	144	6
NMTAP	49	144	7
NMTAP	49	240	0
NMTAP	49	240	4
BRTAP	49	288	0
BRTAP	49	288	4
NMSTR	50	0	1
NMSI_	50	0	1	96	48	3
NMSTR	50	0	5
NMSI_	50	0	5	96	48	7
NMTAP	50	192	4
NMTAP	50	192	6
NMTAP	50	288	3
NMTAP	50	288	4
NMTAP	50	336	3
NMTAP	50	336	4
NMTAP	51	48	1
NMTAP	51	48	3
NMTAP	51	144	0
NMTAP	51	144	7
NMTAP	51	192	0
NMTAP	51	192	7
NMTAP	51	288	4
NMTAP	51	288	6
NMSTR	52	0	3
NMSCR	52	0	3	96	192	1
NMTAP	52	0	7
NMTAP	53	0	3
NMTAP	53	96	2
NMTAP	53	96	3
NMTAP	53	192	0
NMTAP	53	192	7
NMTAP	53	288	1
NMTAP	53	288	6
NMTAP	54	0	4
NMTAP	54	0	5
NMTAP	54	96	6
NMTAP	54	96	7
NMTAP	54	192	1
NMTAP	54	240	1
NMTAP	54	288	0
NMTAP	54	288	2
NMTAP	55	0	3
NMTAP	55	0	7
NMTAP	55	96	4
NMTAP	55	96	5
NMSTR	55	192	2
NMSXR	55	192	2	96	288	7
NMSTR	55	192	3
NMSXL	55	192	3	96	288	6
NMTAP	56	288	0
NMTAP	56	288	5
NMTAP	57	0	1
NMTAP	57	0	4
NMTAP	57	96	1
NMTAP	57	96	4
NMTAP	57	192	5
NMTAP	57	240	5
NMTAP	57	288	5
NMSTR	58	0	4
NMSI_	58	0	4	96	48	2
NMSTR	58	0	6
NMSI_	58	0	6	96	48	4
NMTAP	58	192	1
NMTAP	58	192	3
NMTAP	58	288	3
NMTAP	58	288	4
NMTAP	58	336	3
NMTAP	58	336	4
NMTAP	59	48	4
NMTAP	59	48	6
NMTAP	59	144	0
NMTAP	59	144	7
NMTAP	59	192	0
NMTAP	59	192	7
NMTAP	59	288	1
NMTAP	59	288	3
NMSTR	60	0	0
NMSXL	60	0	0	96	288	3
NMSTR	60	0	4
NMSXL	60	0	4	96	288	7
NMTAP	61	96	2
NMTAP	61	96	6
NMTAP	61	192	1
NMSTR	61	288	0
NMSCL	61	288	0	96	96	5
NMSTR	61	288	2
NMSI_	61	288	2	96	96	5
NMTAP	62	192	4
NMTAP	62	192	6
NMSTR	62	288	3
NMSCL	62	288	3	96	96	0
NMSTR	62	288	7
NMSUR	62	288	7	96	96	4
EXTAP	63	192	5
EXTAP	63	192	7
NMTAP	63	288	0
NMTAP	63	288	7
NMTAP	64	0	1
NMTAP	64	48	1
NMTAP	64	96	4
NMTAP	64	144	4
NMTAP	64	192	3
NMTAP	64	240	3
NMTAP	64	288	6
NMSTR	65	0	0
NMSCR	65	0	0	96	192	3
NMSTR	65	0	7
NMSCL	65	0	7	96	192	4
BRTAP	66	0	1
BRTAP	66	0	6
NMTTP	67	0	1	E	0	M1
NMTTP	68	0	2	E	0	M1
NMTTP	69	0	3	E	0	M1
NMTTP	70	0	3	A	0	M1
NMTTP	70	0	4	E	0	M1
NMTTP	70	0	4	A	0	M1
NMTTP	71	0	5	E	0	M1
NMTTP	72	0	6	E	0	M1
NMTTP	73	0	0	C	0	M1
NMTTP	73	0	2	B	0	M1
NMTTP	73	0	5	B	0	M1
NMHLD	74	0	6	672
NMTAP	74	288	5
NMTAP	75	0	4
NMTAP	75	288	2
NMHLD	76	0	1	672
NMTAP	76	288	2
NMTAP	77	0	3
NMTAP	77	288	4
NMTAP	78	0	5
NMTAP	78	96	5
NMTAP	78	192	4
NMTAP	78	192	5
NMTAP	79	0	6
NMTAP	79	96	6
NMTAP	79	192	6
NMTAP	79	192	7
NMTAP	80	0	0
NMTAP	80	48	0
NMTAP	80	96	7
NMTAP	80	144	7
NMTAP	80	192	2
NMTAP	80	240	2
NMTAP	80	288	5
NMHLD	81	0	3	192
NMHLD	81	0	4	192
NMTTP	82	0	4	B	0	M1
NMTTP	82	96	5	B	0	M1
NMTTP	82	192	6	B	0	M1
NMTTP	82	288	7	B	0	M1
NMTTP	83	0	0	B	0	M1
NMTTP	83	96	1	B	0	M1
NMTTP	83	192	2	B	0	M1
NMTTP	83	288	3	B	0	M1
NMTTP	84	0	4	A	0	M1
NMTTP	84	96	5	A	0	M1
NMTTP	84	192	6	A	0	M1
NMTTP	84	288	7	A	0	M1
NMTTP	85	0	0	C	1	M1
NMTTP	85	0	2	B	0	M1
NMTTP	85	0	3	B	0	M1
NMTTP	85	0	4	B	0	M1
NMTTP	85	0	5	B	0	M1
NMHLD	86	0	0	48
NMHLD	86	0	1	48
NMHLD	86	96	0	48
NMHLD	86	96	1	48
NMHLD	86	192	6	48
NMHLD	86	192	7	48
NMHLD	86	288	6	48
NMHLD	86	288	7	48
NMHLD	87	0	0	48
NMHLD	87	0	5	48
NMHLD	87	96	1	48
NMHLD	87	96	6	48
NMHLD	87	192	2	48
NMHLD	87	192	7	48
NMHLD	87	288	0	48
NMHLD	87	288	1	48
NMTAP	88	0	1
NMTAP	88	48	1
NMTAP	88	96	0
NMTAP	88	192	6
NMTAP	88	240	6
NMTAP	88	288	7
NMTAP	89	0	1
NMTAP	89	48	1
NMTAP	89	96	4
NMTAP	89	144	4
NMTAP	89	192	3
NMTAP	89	240	3
NMTAP	89	288	6
NMHLD	90	0	6	48
NMHLD	90	0	7	48
NMHLD	90	96	6	48
NMHLD	90	96	7	48
NMHLD	90	192	0	48
NMHLD	90	192	1	48
NMHLD	90	288	0	48
NMHLD	90	288	1	48
NMHLD	91	0	2	48
NMHLD	91	0	7	48
NMHLD	91	96	1	48
NMHLD	91	96	6	48
NMHLD	91	192	0	48
NMHLD	91	192	5	48
NMHLD	91	288	6	48
NMHLD	91	288	7	48
NMTAP	92	0	6
NMTAP	92	48	6
NMTAP	92	96	7
NMTAP	92	192	1
NMTAP	92	240	1
NMTAP	92	288	0
NMTAP	93	0	2
NMTAP	93	48	2
NMTAP	93	96	4
NMTAP	93	144	4
NMSTR	93	192	3
NMSI_	93	192	3	96	48	7
NMHLD	94	0	0	48
NMHLD	94	0	6	48
NMHLD	94	96	0	48
NMHLD	94	96	6	48
NMHLD	94	192	1	48
NMHLD	94	192	7	48
NMHLD	94	288	1	48
NMHLD	94	288	7	48
NMHLD	95	0	0	48
NMHLD	95	0	2	48
NMHLD	95	96	0	48
NMHLD	95	96	7	48
NMHLD	95	192	5	48
NMHLD	95	192	7	48
NMHLD	95	288	0	48
NMHLD	95	288	7	48
NMTAP	96	0	1
NMTAP	96	48	1
NMTAP	96	96	0
NMTAP	96	96	2
NMTAP	96	192	7
NMTAP	96	240	7
NMSTR	96	288	0
NMSUL	96	288	0	96	192	3
NMSTR	96	288	6
NMSUR	96	288	6	96	192	3
NMTAP	97	288	2
NMTAP	97	288	4
BRTAP	98	0	2
BRTAP	98	0	4
NMTAP	98	96	1
NMTAP	98	96	3
NMTAP	98	192	0
NMTAP	98	192	7
NMTAP	98	288	6
NMTAP	98	336	6
NMTAP	99	0	7
NMTAP	99	48	7
NMTAP	99	96	5
NMTAP	99	144	5
NMTAP	99	192	0
NMTAP	99	288	1
NMTAP	99	288	3
BRSTR	100	0	0
NMSI_	100	0	0	96	48	4
BRSTR	100	0	1
NMSI_	100	0	1	96	48	4
NMSTR	100	192	6
NMSI_	100	192	6	96	48	3
NMSTR	100	192	7
NMSI_	100	192	7	96	48	3
NMSTR	101	0	0
NMSI_	101	0	0	96	48	4
NMSTR	101	0	1
NMSI_	101	0	1	96	48	4
NMTAP	101	192	6
NMTAP	101	192	7
NMTAP	101	288	6
NMTAP	101	288	7
NMHLD	102	0	6	96
NMTAP	102	96	4
NMTAP	102	192	1
NMTAP	102	240	1
NMTAP	102	288	3
NMHLD	103	0	5	96
NMTAP	103	96	7
NMTAP	103	192	0
NMTAP	103	192	6
NMTAP	103	288	1
NMTAP	103	288	7
NMTAP	103	336	1
NMTAP	103	336	7
NMTAP	104	0	1
NMTAP	104	0	7
NMTAP	104	96	0
NMTAP	104	96	2
NMTAP	104	192	2
NMTAP	104	192	4
NMTAP	104	288	4
NMTAP	104	288	6
NMTAP	105	0	2
NMTAP	105	0	5
NMTAP	105	96	2
NMTAP	105	96	5
EXTAP	105	192	3
EXTAP	105	216	4
EXTAP	105	240	3
EXTAP	105	288	2
EXTAP	105	288	5
BRTAP	106	0	1
BRTAP	106	0	3
NMTAP	106	96	0
NMTAP	106	96	4
NMTAP	106	192	6
NMTAP	106	192	7
NMTAP	106	288	5
NMTAP	106	336	5
NMTAP	107	0	4
NMTAP	107	48	4
NMTAP	107	96	6
NMTAP	107	144	6
NMTAP	107	192	3
NMTAP	107	288	4
NMTAP	107	288	5
BRSTR	108	0	6
NMSI_	108	0	6	96	48	3
BRSTR	108	0	7
NMSI_	108	0	7	96	48	3
NMSTR	108	192	0
NMSI_	108	192	0	96	48	4
NMSTR	108	192	1
NMSI_	108	192	1	96	48	4
NMSTR	109	0	6
NMSI_	109	0	6	96	48	3
NMSTR	109	0	7
NMSI_	109	0	7	96	48	3
NMTAP	109	192	0
NMTAP	109	192	1
NMTAP	109	288	0
NMTAP	109	288	1
NMTAP	110	0	1
NMTAP	110	48	1
NMTAP	110	96	3
NMTAP	110	144	3
NMTAP	110	192	4
NMTAP	110	240	4
NMTAP	110	288	6
NMTAP	111	0	5
NMTAP	111	48	5
NMTAP	111	96	7
NMTAP	111	144	7
NMTAP	111	192	0
NMTAP	111	240	0
NMTAP	111	288	2
NMTAP	112	0	1
NMTAP	112	48	2
NMTAP	112	96	3
NMTAP	112	96	4
NMTAP	112	144	5
NMTAP	112	192	2
NMTAP	112	192	6
NMSTR	112	240	2
NMSI_	112	240	2	96	48	5
NMSTR	112	240	6
BRSI_	112	240	6	96	48	1

T_REC_TAP	354
T_REC_BRK	9
T_REC_XTP	7
T_REC_BXX	0
T_REC_HLD	75
T_REC_XHO	0
T_REC_BHO	0
T_REC_BXH	0
T_REC_STR	31
T_REC_BST	4
T_REC_XST	0
T_REC_XBS	0
T_REC_TTP	36
T_REC_THO	2
T_REC_SLD	35
T_REC_BSL	1
T_REC_ALL	554
T_NUM_TAP	428
T_NUM_BRK	14
T_NUM_HLD	77
T_NUM_SLD	35
T_NUM_ALL	554
T_JUDGE_TAP	441
T_JUDGE_HLD	250
T_JUDGE_SLD	36
T_JUDGE_ALL	727
TTM_EACHPAIRS	153
TTM_SCR_TAP	214000
TTM_SCR_BRK	36400
TTM_SCR_HLD	77000
TTM_SCR_SLD	52500
TTM_SCR_ALL	379900
TTM_SCR_S	367150
TTM_SCR_SS	378500
TTM_RAT_ACV	10036

