VERSION	0.00.00	1.05.00
FES_MODE	0
BPM_DEF	185.000	185.000	185.000	185.000
MET_DEF	4	4
RESOLUTION	384
CLK_DEF	384
COMPATIBLE_CODE	MA2

BPM	0	0	185.000
MET	0	0	4	4

NMHLD	2	0	5	384
NMHLD	3	0	4	384
NMHLD	4	0	3	384
NMTAP	5	0	2
NMHLD	6	0	2	384
NMHLD	7	0	3	384
NMHLD	8	0	4	384
NMTAP	9	0	5
NMHLD	10	0	6	384
NMHLD	11	0	5	384
NMHLD	12	0	4	384
NMTAP	13	0	3
NMHLD	14	0	1	384
NMHLD	15	0	2	384
NMHLD	16	0	3	384
NMTAP	17	0	4
NMTAP	18	0	2
NMTAP	18	96	2
NMTAP	18	192	2
NMTAP	18	192	3
NMTAP	19	0	1
NMTAP	19	96	1
NMTAP	19	192	0
NMTAP	19	192	1
NMTAP	20	0	7
NMTAP	20	96	7
NMTAP	20	192	6
NMTAP	20	192	7
NMTAP	21	0	4
NMTAP	21	0	5
NMTAP	21	96	4
NMTAP	21	96	5
NMTAP	21	192	4
NMTAP	21	192	5
NMTAP	22	0	5
NMTAP	22	96	5
NMTAP	22	192	4
NMTAP	22	192	5
NMTAP	23	0	6
NMTAP	23	96	6
NMTAP	23	192	6
NMTAP	23	192	7
NMTAP	24	0	0
NMTAP	24	96	0
NMTAP	24	192	0
NMTAP	24	192	1
NMTAP	25	0	2
NMTAP	25	0	3
NMTAP	25	96	2
NMTAP	25	96	3
NMTAP	25	192	2
NMTAP	25	192	3
NMTTP	26	0	1	B	0	L1
NMTTP	26	96	2	B	0	L1
NMTTP	26	192	3	B	0	L1
NMTTP	27	0	6	B	0	L1
NMTTP	27	96	5	B	0	L1
NMTTP	27	192	4	B	0	L1
NMTTP	28	0	1	B	0	L1
NMTTP	28	96	2	B	0	L1
NMTTP	28	192	3	B	0	L1
NMTTP	28	288	4	B	0	L1
NMTTP	29	0	0	C	0	L1
NMTTP	30	0	7	B	0	L1
NMTTP	30	96	6	B	0	L1
NMTTP	30	192	4	B	0	L1
NMTTP	30	192	5	B	0	L1
NMTTP	31	0	0	B	0	L1
NMTTP	31	96	1	B	0	L1
NMTTP	31	192	2	B	0	L1
NMTTP	31	192	3	B	0	L1
NMTTP	32	0	6	B	0	L1
NMTTP	32	96	5	B	0	L1
NMTTP	32	192	4	B	0	L1
NMTTP	32	288	3	B	0	L1
NMTTP	33	0	0	C	1	L1
NMTAP	34	0	6
NMTAP	34	96	6
NMTAP	34	192	7
NMTAP	34	288	7
NMTAP	35	0	0
NMTAP	35	96	0
NMTAP	35	192	0
NMTAP	35	192	1
NMTAP	36	0	1
NMTAP	36	96	1
NMTAP	36	192	0
NMTAP	36	288	0
NMTAP	37	0	7
NMTAP	37	96	7
NMTAP	37	192	6
NMTAP	37	192	7
NMTAP	38	0	6
NMTAP	38	96	6
NMTAP	38	192	5
NMTAP	38	288	5
NMTAP	39	0	4
NMTAP	39	96	4
NMTAP	39	192	2
NMTAP	39	192	3
NMTAP	40	0	1
NMTAP	40	96	1
NMTAP	40	192	2
NMTAP	40	288	2
NMTAP	41	0	3
NMTAP	41	96	3
BXTAP	41	192	4
BXTAP	41	192	5
NMHLD	42	0	6	192
NMTAP	42	192	7
NMTAP	43	0	6
NMTAP	43	0	7
NMTAP	43	96	6
NMTAP	43	96	7
NMTAP	43	192	6
NMTAP	43	192	7
NMHLD	44	0	5	192
NMTAP	44	192	4
NMTAP	45	0	4
NMTAP	45	0	5
NMTAP	45	96	4
NMTAP	45	96	5
NMTAP	45	192	4
NMTAP	45	192	5
NMHLD	46	0	2	192
NMTAP	46	192	3
NMTAP	47	0	2
NMTAP	47	0	3
NMTAP	47	96	2
NMTAP	47	96	3
NMTAP	47	192	2
NMTAP	47	192	3
NMHLD	48	0	1	192
NMTAP	48	192	0
NMTAP	49	0	0
NMTAP	49	0	1
NMTAP	49	96	0
NMTAP	49	96	1
NMTAP	49	192	0
NMTAP	49	192	1
NMTAP	50	0	2
NMTAP	50	96	2
NMTAP	50	192	0
NMTAP	50	192	1
NMTAP	50	288	0
NMTAP	50	288	1
NMTAP	51	0	7
NMTAP	51	96	7
NMTAP	51	192	6
NMTAP	51	192	7
NMTAP	52	0	5
NMTAP	52	96	5
NMTAP	52	192	6
NMTAP	52	192	7
NMTAP	52	288	6
NMTAP	52	288	7
NMTAP	53	0	0
NMTAP	53	96	0
NMTAP	53	192	0
NMTAP	53	192	1
NMTAP	54	0	1
NMTAP	54	96	1
NMTAP	54	192	2
NMTAP	54	192	3
NMTAP	54	288	2
NMTAP	54	288	3
NMTAP	55	0	4
NMTAP	55	96	4
NMTAP	55	192	4
NMTAP	55	192	5
NMTAP	56	0	6
NMTAP	56	96	6
NMTAP	56	192	4
NMTAP	56	192	5
NMTAP	56	288	4
NMTAP	56	288	5
NMTAP	57	0	3
NMTAP	57	96	3
NMTAP	57	192	2
NMTAP	57	192	3
NMTAP	58	0	2
NMTAP	58	96	2
NMTAP	58	192	0
NMTAP	58	192	1
NMTAP	58	288	0
NMTAP	58	288	1
NMTAP	59	0	7
NMTAP	59	96	7
NMTAP	59	192	6
NMTAP	59	192	7
NMTAP	59	288	6
NMTAP	59	288	7
NMTAP	60	0	5
NMTAP	60	96	5
NMTAP	60	192	6
NMTAP	60	192	7
NMTAP	60	288	6
NMTAP	60	288	7
NMTAP	61	0	0
NMTAP	61	96	0
NMTAP	61	192	0
NMTAP	61	192	1
NMTAP	62	0	1
NMTAP	62	96	1
NMTAP	62	192	2
NMTAP	62	192	3
NMTAP	62	288	2
NMTAP	62	288	3
NMTAP	63	0	4
NMTAP	63	96	4
NMTAP	63	192	4
NMTAP	63	192	5
NMTAP	63	288	4
NMTAP	63	288	5
NMTAP	64	0	6
NMTAP	64	96	6
NMTAP	64	192	4
NMTAP	64	192	5
NMTAP	64	288	4
NMTAP	64	288	5
NMTAP	65	0	3
NMTAP	65	96	3
BXTAP	65	192	2
BXTAP	65	192	3
NMSTR	66	0	2
NMSI_	66	0	2	96	192	5
NMSTR	67	0	6
NMSI_	67	0	6	96	192	3
NMSTR	68	0	1
NMSI_	68	0	1	96	192	4
NMTAP	69	0	5
NMTAP	69	192	4
NMTAP	69	192	5
NMSTR	70	0	6
NMSI_	70	0	6	96	192	2
NMSTR	71	0	1
NMSI_	71	0	1	96	192	5
NMSTR	72	0	7
NMSI_	72	0	7	96	192	3
NMTAP	73	0	2
NMTAP	73	192	2
NMTAP	73	192	3
NMTTP	74	0	1	B	0	L1
NMTTP	74	96	2	B	0	L1
NMTTP	74	192	3	B	0	L1
NMTTP	75	0	6	B	0	L1
NMTTP	75	96	5	B	0	L1
NMTTP	75	192	4	B	0	L1
NMTTP	76	0	2	E	0	L1
NMTTP	76	96	3	E	0	L1
NMTTP	76	192	4	E	0	L1
NMTTP	76	288	5	E	0	L1
NMTTP	77	0	0	C	0	L1
NMTTP	78	0	7	B	0	L1
NMTTP	78	96	6	B	0	L1
NMTTP	78	192	4	B	0	L1
NMTTP	78	192	5	B	0	L1
NMTTP	79	0	0	B	0	L1
NMTTP	79	96	1	B	0	L1
NMTTP	79	192	2	B	0	L1
NMTTP	79	192	3	B	0	L1
NMTTP	80	0	6	E	0	L1
NMTTP	80	96	5	E	0	L1
NMTTP	80	192	4	E	0	L1
NMTTP	80	288	3	E	0	L1
NMTTP	81	0	0	C	1	L1
EXSTR	82	0	6
NMSI_	82	0	6	96	288	3
EXSTR	82	0	7
NMSI_	82	0	7	96	288	2
NMTAP	83	192	2
NMTAP	83	192	3
EXSTR	84	0	0
NMSI_	84	0	0	96	288	5
EXSTR	84	0	1
NMSI_	84	0	1	96	288	4
NMTAP	85	192	4
NMTAP	85	192	5
BXTAP	86	0	5
NMTAP	86	48	5
NMTAP	86	96	5
NMTAP	86	192	6
NMTAP	86	192	7
NMTAP	86	288	6
NMTAP	86	288	7
NMTAP	87	0	0
NMTAP	87	48	0
NMTAP	87	96	0
NMTAP	87	192	0
NMTAP	87	192	1
NMTAP	88	0	2
NMTAP	88	48	2
NMTAP	88	96	2
NMTAP	88	192	0
NMTAP	88	192	1
NMTAP	88	288	0
NMTAP	88	288	1
NMTAP	89	0	7
NMTAP	89	48	7
NMTAP	89	96	7
NMTAP	89	192	6
NMTAP	89	192	7
NMTAP	90	0	6
NMTAP	90	48	6
NMTAP	90	96	6
NMTAP	90	192	4
NMTAP	90	192	5
NMTAP	90	288	4
NMTAP	90	288	5
NMTAP	91	0	3
NMTAP	91	48	3
NMTAP	91	96	3
NMTAP	91	192	2
NMTAP	91	192	3
NMTAP	92	0	1
NMTAP	92	48	1
NMTAP	92	96	1
NMTAP	92	192	2
NMTAP	92	192	3
NMTAP	92	288	2
NMTAP	92	288	3
NMTAP	93	0	4
NMTAP	93	48	4
NMTAP	93	96	4
NMTAP	93	192	4
NMTAP	93	192	5
NMTAP	94	0	5
NMTAP	94	48	5
NMTAP	94	96	5
NMTAP	94	192	6
NMTAP	94	192	7
NMTAP	94	288	6
NMTAP	94	288	7
NMTAP	95	0	0
NMTAP	95	48	0
NMTAP	95	96	0
NMTAP	95	192	0
NMTAP	95	192	1
NMTAP	95	288	0
NMTAP	95	288	1
NMTAP	96	0	2
NMTAP	96	48	2
NMTAP	96	96	2
NMTAP	96	192	0
NMTAP	96	192	1
NMTAP	96	288	0
NMTAP	96	288	1
NMTAP	97	0	7
NMTAP	97	48	7
NMTAP	97	96	7
BRTAP	97	192	0
BRTAP	97	192	7
NMTAP	98	0	1
NMTAP	98	96	1
NMTAP	98	192	1
NMTAP	98	288	0
NMTAP	98	288	1
NMTAP	99	0	2
NMTAP	99	96	2
NMTAP	99	192	2
NMTAP	99	288	2
NMTAP	99	288	3
NMTAP	100	0	4
NMTAP	100	96	4
NMTAP	100	192	4
NMTAP	100	288	4
NMTAP	100	288	5
NMTAP	101	0	6
NMTAP	101	96	6
NMTAP	101	192	6
NMTAP	101	192	7
NMTAP	102	0	6
NMTAP	102	96	6
NMTAP	102	192	6
NMTAP	102	288	6
NMTAP	102	288	7
NMTAP	103	0	5
NMTAP	103	96	5
NMTAP	103	192	5
NMTAP	103	288	4
NMTAP	103	288	5
NMTAP	104	0	3
NMTAP	104	96	3
NMTAP	104	192	3
NMTAP	104	288	2
NMTAP	104	288	3
NMTAP	105	0	1
NMTAP	105	96	1
NMTAP	105	192	0
NMTAP	105	192	1
NMTAP	106	0	0
NMTAP	106	96	1
NMTAP	106	192	2
NMTAP	106	288	3
NMTAP	107	0	4
NMTAP	107	96	5
NMTAP	107	192	6
NMTAP	107	192	7
NMTAP	108	0	7
NMTAP	108	96	6
NMTAP	108	192	5
NMTAP	108	288	4
NMTAP	109	0	3
NMTAP	109	96	2
NMTAP	109	192	0
NMTAP	109	192	1
NMTAP	110	0	0
NMTAP	110	96	1
NMTAP	110	192	2
NMTAP	110	288	3
NMTAP	111	0	4
NMTAP	111	96	5
NMTAP	111	192	6
NMTAP	111	288	7
NMTAP	112	0	0
NMSTR	112	96	1
NMSI_	112	96	1	96	144	5

T_REC_TAP	324
T_REC_BRK	2
T_REC_XTP	0
T_REC_BXX	5
T_REC_HLD	16
T_REC_XHO	0
T_REC_BHO	0
T_REC_BXH	0
T_REC_STR	7
T_REC_BST	0
T_REC_XST	4
T_REC_XBS	0
T_REC_TTP	48
T_REC_THO	0
T_REC_SLD	11
T_REC_BSL	0
T_REC_ALL	417
T_NUM_TAP	383
T_NUM_BRK	7
T_NUM_HLD	16
T_NUM_SLD	11
T_NUM_ALL	417
T_JUDGE_TAP	390
T_JUDGE_HLD	112
T_JUDGE_SLD	11
T_JUDGE_ALL	513
TTM_EACHPAIRS	89
TTM_SCR_TAP	191500
TTM_SCR_BRK	18200
TTM_SCR_HLD	16000
TTM_SCR_SLD	16500
TTM_SCR_ALL	242200
TTM_SCR_S	234300
TTM_SCR_SS	241500
TTM_RAT_ACV	10028

