VERSION	0.00.00	1.05.00
FES_MODE	0
BPM_DEF	264.000	132.000	264.000	132.000
MET_DEF	4	4
RESOLUTION	384
CLK_DEF	672
COMPATIBLE_CODE	MA2

BPM	0	0	264.000
BPM	1	288	132.000
MET	0	0	8	7
MET	37	240	8	4
MET	38	48	8	7
MET	45	48	8	6
MET	56	144	8	9
MET	57	192	8	6
MET	66	192	8	7

NMHLD	1	288	3	576
NMSTR	1	288	4
NMSCR	1	288	4	96	576	3
NMTTP	3	192	1	B	0	M1
NMTTP	3	192	1	E	0	M1
CNSCL	3	192	3	0	672	4
NMTTP	4	24	6	B	0	M1
NMTTP	4	24	7	E	0	M1
NMTHO	4	144	0	168	C	1	M1
BXSTR	5	96	0
NMSI_	5	96	0	96	24	3
BXHLD	5	168	0	1104
NMTAP	7	0	3
NMTAP	7	48	3
NMHLD	7	96	4	24
NMTAP	7	168	3
NMTAP	7	216	3
NMHLD	7	264	4	24
NMTAP	7	336	3
NMTAP	8	0	3
NMHLD	8	48	4	24
NMTAP	8	120	4
NMTTP	8	144	5	D	0	M1
NMTTP	8	152	5	A	0	M1
NMTTP	8	160	6	D	0	M1
NMTTP	8	168	6	A	0	M1
NMTTP	8	176	7	D	0	M1
NMTTP	8	184	7	A	0	M1
NMTTP	8	192	0	D	0	M1
NMTTP	8	200	0	A	0	M1
NMTTP	8	208	1	D	0	M1
NMTTP	8	216	1	A	0	M1
NMTTP	8	224	2	D	0	M1
NMTTP	8	232	2	A	0	M1
NMTTP	8	240	3	D	0	M1
NMTTP	8	248	3	A	0	M1
NMTTP	8	256	4	D	0	M1
NMTTP	8	264	4	A	0	M1
NMTTP	8	272	5	D	0	M1
NMTTP	8	280	5	A	0	M1
NMTTP	8	288	6	E	1	M1
NMTTP	8	288	6	A	0	M1
NMTTP	8	288	6	D	0	M1
BXTAP	8	360	1
BXHLD	8	360	7	216
NMTAP	9	72	3
NMTAP	9	120	3
NMHLD	9	168	4	24
NMTAP	9	240	3
NMTAP	9	240	6
NMTAP	9	288	3
NMTAP	9	288	6
NMHLD	9	336	4	24
NMHLD	9	336	6	192
NMTAP	10	24	3
NMTAP	10	72	3
NMHLD	10	120	4	24
NMTAP	10	192	3
NMTAP	10	192	5
NMTAP	10	240	3
NMTAP	10	240	5
NMHLD	10	288	4	24
NMHLD	10	288	5	192
NMTAP	10	360	3
NMTAP	11	24	3
NMHLD	11	72	4	24
NMTAP	11	144	2
NMTAP	11	144	4
NMTAP	11	192	3
NMTAP	11	192	5
NMHLD	11	240	4	24
NMHLD	11	240	6	24
BRTAP	11	312	3
BRSTR	11	312	7
BRSI_	11	312	7	96	24	3
BRTAP	11	360	1
BRTAP	11	360	5
BRTAP	12	24	3
BRTAP	12	24	7
NMTTP	12	96	1	B	1	M1
NMTTP	12	96	1	A	0	M1
NMTTP	12	96	2	B	0	M1
NMTTP	12	96	2	E	0	M1
NMTTP	12	96	2	A	0	M1
NMTTP	12	96	2	D	0	M1
NMTAP	12	144	6
NMTAP	12	168	6
NMTAP	12	192	7
NMHLD	12	216	5	48
NMTAP	12	264	0
NMTAP	12	288	3
NMTAP	12	312	1
NMTAP	12	336	1
NMTAP	12	360	0
NMHLD	13	0	2	48
NMTAP	13	48	3
NMTAP	13	72	3
NMTAP	13	96	1
NMTAP	13	120	1
NMTAP	13	144	7
EXTAP	13	168	0
NMTAP	13	192	5
NMTAP	13	216	5
NMTAP	13	240	3
NMTAP	13	264	3
NMHLD	13	288	7	48
BRTAP	13	336	4
NMTTP	14	0	2	A	0	M1
NMTTP	14	0	3	E	1	M1
NMTTP	14	0	3	A	0	M1
NMTTP	14	0	3	D	0	M1
NMTTP	14	0	5	A	0	M1
NMTTP	14	0	6	E	0	M1
NMTTP	14	0	6	A	0	M1
NMTTP	14	0	6	D	0	M1
NMTAP	14	48	1
NMTAP	14	72	1
NMTAP	14	96	0
NMHLD	14	120	2	48
NMTAP	14	168	7
NMTAP	14	192	4
NMTAP	14	216	6
NMTAP	14	240	6
NMTAP	14	264	7
NMHLD	14	288	5	48
NMTAP	14	336	3
NMTAP	14	360	3
NMTAP	15	0	4
EXTAP	15	24	2
NMTAP	15	48	6
NMTAP	15	72	0
EXHLD	15	96	7	48
BRHLD	15	144	5	48
NMHLD	15	192	3	48
NMTAP	15	240	0
NMTTP	15	288	1	A	0	M1
NMTTP	15	288	2	E	0	M1
NMTTP	15	288	2	A	0	M1
NMTTP	15	288	2	D	0	M1
NMTTP	15	288	4	A	0	M1
NMTTP	15	288	5	E	1	M1
NMTTP	15	288	5	A	0	M1
NMTTP	15	288	5	D	0	M1
NMTAP	15	336	6
NMTAP	15	360	6
NMTAP	16	0	7
NMHLD	16	24	5	48
NMTAP	16	72	1
NMTAP	16	96	4
NMTAP	16	120	2
NMTAP	16	144	2
NMTAP	16	168	3
NMHLD	16	192	1	48
NMTAP	16	240	7
NMTAP	16	264	7
NMTAP	16	288	0
NMTAP	16	312	5
NMTAP	16	336	3
NMTAP	16	360	4
NMTAP	17	0	1
NMTAP	17	24	1
NMTAP	17	48	0
NMTAP	17	72	2
NMHLD	17	96	7	48
BRTAP	17	144	4
NMTTP	17	192	2	A	0	M1
NMTTP	17	192	3	E	1	M1
NMTTP	17	192	3	A	0	M1
NMTTP	17	192	3	D	0	M1
NMTTP	17	192	5	A	0	M1
NMTTP	17	192	6	E	0	M1
NMTTP	17	192	6	A	0	M1
NMTTP	17	192	6	D	0	M1
NMTAP	17	240	1
NMTAP	17	264	1
NMTAP	17	288	0
NMHLD	17	312	2	48
NMTAP	17	360	7
NMTAP	18	0	1
NMTAP	18	24	5
NMTAP	18	48	5
NMTAP	18	72	3
NMHLD	18	96	4	48
EXTAP	18	144	2
EXTAP	18	156	3
EXTAP	18	168	2
NMTAP	18	192	4
NMTAP	18	216	1
NMTAP	18	240	5
NMTAP	18	264	0
NMHLD	18	288	6	48
BRTAP	18	336	7
EXTAP	19	0	0
EXTAP	19	0	6
EXTAP	19	24	0
EXTAP	19	24	6
EXTAP	19	72	1
EXTAP	19	72	5
NMTAP	19	120	2
NMTAP	19	132	3
NMTAP	19	144	2
NMTAP	19	168	4
NMTAP	19	192	0
NMTAP	19	216	6
NMTAP	19	240	3
NMHLD	19	264	7	48
NMTAP	19	312	1
NMTAP	19	324	0
NMTAP	19	336	1
NMTAP	19	360	6
NMTAP	20	0	0
NMHLD	20	24	4	48
NMTAP	20	72	2
NMTAP	20	84	3
NMTAP	20	96	2
NMTAP	20	120	4
NMTAP	20	144	0
NMTAP	20	168	6
NMTAP	20	192	2
NMHLD	20	216	4	56
NMTAP	20	272	1
NMTAP	20	288	3
NMTAP	20	304	2
NMTAP	20	320	6
NMTAP	20	336	4
NMTAP	20	352	5
NMTAP	20	368	0
BRSTR	21	0	7
NMSI_	21	0	7	96	24	4
BRHLD	21	72	7	432
NMTAP	22	240	6
NMTAP	22	252	4
NMTAP	22	264	6
NMTAP	22	276	4
NMHLD	22	288	6	348
NMTAP	23	240	4
NMTAP	23	264	4
NMTAP	23	288	5
NMTAP	23	312	5
NMTAP	23	336	3
NMTAP	23	360	3
NMSTR	24	0	4
BRSI_	24	0	4	96	24	7
NMTAP	24	24	2
NMTAP	24	48	3
NMTAP	24	72	2
EXTAP	24	96	4
BRTAP	24	192	3
BRTAP	24	192	6
NMTAP	24	240	3
NMTAP	24	240	6
NMTAP	24	256	2
NMTAP	24	256	5
NMTAP	24	272	1
NMTAP	24	272	4
NMHLD	24	288	0	48
NMTAP	24	288	3
NMTAP	24	336	2
NMHLD	24	360	2	48
NMTAP	25	24	4
NMHLD	25	48	4	48
NMTAP	25	96	6
NMHLD	25	120	6	48
NMTAP	25	168	7
NMTAP	25	192	7
NMTAP	25	240	0
NMTAP	25	256	1
NMTAP	25	272	2
NMTAP	25	288	4
NMTAP	25	304	5
NMTAP	25	320	6
NMSTR	25	336	1
NMSI_	25	336	1	96	24	7
NMTAP	25	336	7
NMTAP	26	0	3
NMTAP	26	24	3
NMSTR	26	48	1
NMSI_	26	48	1	96	24	4
NMTAP	26	96	4
NMTAP	26	120	4
NMTAP	26	144	1
NMTAP	26	192	5
NMTAP	26	216	5
NMTAP	26	264	6
NMTAP	26	264	7
NMTAP	26	288	6
NMSTR	26	288	7
BRSI_	26	288	7	96	24	3
NMTAP	26	336	0
NMTAP	26	336	1
NMTAP	27	0	3
NMTAP	27	0	7
NMTAP	27	48	2
NMHLD	27	72	2	48
NMTAP	27	120	3
NMTAP	27	144	1
NMTAP	27	160	4
NMTAP	27	176	2
NMTAP	27	192	3
NMTAP	27	216	2
NMTAP	27	240	4
NMTAP	27	256	1
NMTAP	27	272	3
NMTAP	27	288	2
NMTAP	27	312	3
NMTAP	27	336	0
BRTAP	28	0	1
BRTAP	28	0	4
NMTAP	28	48	1
NMTAP	28	48	4
NMTAP	28	64	2
NMTAP	28	64	5
NMTAP	28	80	3
NMTAP	28	80	6
NMTAP	28	96	4
NMHLD	28	96	7	48
NMTAP	28	144	5
NMHLD	28	168	5	48
NMTAP	28	216	3
NMHLD	28	240	3	48
NMTAP	28	288	1
NMHLD	28	312	1	48
NMTAP	28	360	0
NMTAP	29	0	0
NMTAP	29	48	7
NMTAP	29	64	6
NMTAP	29	80	5
NMTAP	29	96	3
NMTAP	29	112	2
NMTAP	29	128	1
NMTAP	29	144	0
NMSTR	29	144	6
NMSI_	29	144	6	96	24	0
NMTAP	29	192	4
NMTAP	29	216	4
NMSTR	29	240	6
NMSI_	29	240	6	96	24	3
NMTAP	29	288	3
NMTAP	29	312	3
NMTAP	29	336	6
NMTAP	30	0	2
NMTAP	30	24	2
NMTAP	30	72	0
NMTAP	30	72	1
NMSTR	30	96	0
BRSI_	30	96	0	96	24	4
NMTAP	30	96	1
NMTAP	30	144	6
NMTAP	30	144	7
NMTAP	30	192	0
NMTAP	30	192	4
NMTAP	30	240	5
NMHLD	30	264	5	48
NMTAP	30	312	4
NMTAP	30	336	6
NMTAP	30	352	3
NMTAP	30	368	5
NMTAP	31	0	4
NMTAP	31	24	5
NMTAP	31	48	3
NMTAP	31	64	6
NMTAP	31	80	4
NMTAP	31	96	5
NMTAP	31	120	3
NMTTP	31	144	0	C	1	M1
BRSTR	31	192	0
NMSLR	31	192	0	96	64	4
BRTAP	31	192	7
NMTAP	31	288	6
NMTAP	31	312	6
NMTAP	31	360	5
NMTAP	32	0	5
NMTAP	32	48	4
NMTAP	32	48	7
NMSTR	32	96	3
NMSI_	32	96	3	96	24	0
NMTAP	32	96	6
NMTAP	32	144	2
NMSTR	32	192	3
NMSI_	32	192	3	96	24	5
NMTAP	32	192	7
NMTAP	32	216	7
NMTAP	32	264	6
NMSTR	32	288	3
BRSCL	32	288	3	96	24	0
NMTAP	32	288	6
NMTAP	32	336	0
NMTAP	33	0	3
NMTAP	33	48	7
NMTAP	33	60	6
NMTAP	33	72	5
NMTAP	33	84	4
BRTAP	33	96	3
BRTAP	33	96	7
NMTAP	33	168	1
NMTAP	33	168	5
NMTAP	33	192	1
NMTAP	33	192	5
NMHLD	33	240	2	48
NMTAP	33	288	3
NMTAP	33	312	3
NMTAP	33	336	0
NMTAP	33	360	6
NMHLD	34	0	2	48
NMSTR	34	48	4
NMSLL	34	48	4	96	48	0
NMTAP	34	96	3
NMTAP	34	120	5
BRTAP	34	144	4
BRTAP	34	192	6
NMTAP	34	216	6
NMTAP	34	240	7
BRTAP	34	288	0
BRTAP	34	288	5
NMTAP	34	336	2
NMTAP	34	336	3
BRTAP	35	0	0
BRSTR	35	0	6
NMSLL	35	0	6	96	48	2
NMTAP	35	96	7
NMTAP	35	120	7
NMTAP	35	168	1
NMTAP	35	192	1
NMTAP	35	240	0
NMTAP	35	240	3
NMTAP	35	288	1
NMSTR	35	288	4
NMSI_	35	288	4	96	24	7
NMTAP	35	336	5
NMTAP	36	0	0
NMSTR	36	0	4
NMSI_	36	0	4	96	24	2
NMTAP	36	24	0
NMTAP	36	72	1
NMTAP	36	96	1
NMSTR	36	96	4
BRSCR	36	96	4	96	24	7
NMTAP	36	144	7
NMTAP	36	168	7
NMTAP	36	192	4
NMTAP	36	240	0
NMTAP	36	252	1
NMTAP	36	264	2
NMTAP	36	276	3
BRTAP	36	288	4
NMTTP	36	288	5	B	0	M1
NMTTP	36	288	6	B	0	M1
NMTTP	36	288	6	E	1	M1
NMTAP	37	0	1
BRTAP	37	24	0
BRTAP	37	24	2
NMTAP	37	72	3
NMTAP	37	72	4
NMTAP	37	120	6
BRTAP	37	144	5
BRTAP	37	144	7
NMHLD	37	192	4	48
NMHLD	37	192	6	48
NMHLD	37	264	1	48
NMHLD	37	264	7	48
NMHLD	37	336	2	48
NMHLD	37	336	4	48
NMHLD	38	24	0	48
NMHLD	38	24	6	48
NMTAP	38	96	1
NMSTR	38	96	5
NMSCR	38	96	5	96	48	1
NMTAP	38	144	2
NMTAP	38	144	4
NMTTP	38	192	2	E	0	M1
NMTTP	38	204	3	E	0	M1
NMTTP	38	216	4	E	0	M1
NMTTP	38	228	5	E	0	M1
NMTTP	38	240	6	E	0	M1
NMTTP	38	252	7	E	0	M1
NMTTP	38	264	0	E	0	M1
NMTTP	38	276	1	E	0	M1
NMTTP	38	288	2	E	0	M1
NMTTP	38	300	3	E	0	M1
NMTTP	38	312	4	E	0	M1
NMTTP	38	324	5	E	0	M1
NMTTP	38	336	6	E	0	M1
NMTTP	38	348	7	E	0	M1
NMTTP	38	360	0	E	0	M1
NMTTP	38	372	1	E	0	M1
BXHLD	39	0	1	96
BXHLD	39	0	4	96
NMTAP	39	144	2
NMTAP	39	168	2
NMTAP	39	180	3
NMTAP	39	192	2
NMTAP	39	216	4
NMTAP	39	240	4
NMTAP	39	252	3
NMTAP	39	264	4
NMTAP	39	288	2
NMTAP	39	312	2
NMTAP	39	324	3
NMTAP	39	336	2
NMTAP	39	360	4
NMTAP	40	0	4
NMTAP	40	12	3
NMTAP	40	24	4
NMTAP	40	48	2
NMTAP	40	72	2
NMTAP	40	84	3
NMTAP	40	96	2
NMTAP	40	120	5
NMTAP	40	144	5
NMTAP	40	156	4
NMTAP	40	168	5
NMTAP	40	192	2
NMTAP	40	216	2
NMTAP	40	228	3
NMTAP	40	240	2
NMTAP	40	264	4
NMTTP	40	288	1	B	1	M1
NMTTP	40	288	1	E	0	M1
NMTTP	40	288	1	A	0	M1
NMTTP	40	288	1	D	0	M1
NMTTP	40	288	2	E	0	M1
NMTTP	40	288	2	D	0	M1
NMTAP	41	48	5
NMTAP	41	72	5
NMTAP	41	84	4
NMTAP	41	96	5
NMTAP	41	120	3
NMTAP	41	144	3
NMTAP	41	156	4
NMTAP	41	168	3
NMTAP	41	192	5
NMTAP	41	216	5
NMTAP	41	228	4
NMTAP	41	240	5
NMTAP	41	264	3
NMTAP	41	288	3
NMTAP	41	300	4
NMTAP	41	312	3
NMTAP	41	336	5
NMTAP	41	360	5
NMTAP	41	372	4
NMTAP	42	0	5
NMTAP	42	24	2
NMTAP	42	48	2
NMTAP	42	60	3
NMTAP	42	72	2
NMTAP	42	96	5
NMTAP	42	120	5
NMTAP	42	132	4
NMTAP	42	144	5
NMTAP	42	168	3
NMTTP	42	192	6	B	1	M1
NMTTP	42	192	6	E	0	M1
NMTTP	42	192	6	A	0	M1
NMTTP	42	192	6	D	0	M1
NMTTP	42	192	7	E	0	M1
NMTTP	42	192	7	D	0	M1
NMTAP	42	336	1
NMTAP	42	360	1
NMTAP	42	372	0
NMTAP	43	0	1
NMTAP	43	24	7
NMTAP	43	48	7
NMTAP	43	60	0
NMTAP	43	72	7
NMTAP	43	96	1
NMTAP	43	120	1
NMTAP	43	132	0
NMTAP	43	144	1
NMTAP	43	168	7
NMTAP	43	192	7
NMTAP	43	204	0
NMTAP	43	216	7
NMTAP	43	240	1
NMTAP	43	264	1
NMTAP	43	276	0
NMTAP	43	288	1
NMTAP	43	312	6
NMTAP	43	336	6
NMTAP	43	348	7
NMTAP	43	360	6
NMTAP	44	0	1
NMTAP	44	24	1
NMTAP	44	36	0
NMTAP	44	48	1
NMTAP	44	72	7
NMTTP	44	96	2	B	1	M1
NMTTP	44	96	2	E	0	M1
NMTTP	44	96	2	A	0	M1
NMTTP	44	96	2	D	0	M1
NMTTP	44	96	3	E	0	M1
NMTTP	44	96	3	D	0	M1
NMTAP	44	240	6
NMTAP	44	264	6
NMTAP	44	276	7
NMTAP	44	288	6
NMTAP	44	312	0
NMTAP	44	336	0
NMTAP	44	348	7
NMTAP	44	360	0
NMTAP	45	0	6
NMTAP	45	24	6
NMTAP	45	36	7
NMTAP	45	48	6
NMTAP	45	72	0
NMTAP	45	96	0
NMTAP	45	108	7
NMTAP	45	120	0
NMTAP	45	144	6
NMTAP	45	168	6
NMTAP	45	180	7
NMTAP	45	192	6
NMTAP	45	216	1
NMTAP	45	240	1
NMTAP	45	252	0
NMTAP	45	264	1
NMTAP	45	288	6
NMTAP	45	312	6
NMTAP	45	324	7
NMTAP	45	336	6
NMTAP	45	360	0
BRSTR	46	0	0
NMSSL	46	0	0	96	384	4
NMTAP	46	6	1
NMTAP	46	6	7
NMTAP	46	12	2
NMTAP	46	12	6
NMTAP	46	18	3
NMTAP	46	18	5
NMTTP	46	24	4	A	1	M1
NMTTP	46	24	4	D	0	M1
NMTTP	46	24	5	D	0	M1
CNSCL	47	96	4	0	48	3
CNSSR	47	144	3	0	432	7
NMTAP	49	0	6
NMTTP	49	48	6	E	0	M1
NMTTP	49	64	5	B	0	M1
NMTTP	49	80	4	B	0	M1
NMTTP	49	96	4	E	0	M1
NMHLD	49	168	2	72
NMHLD	49	240	1	72
NMHLD	49	312	0	72
BXHLD	50	0	7	192
NMTTP	50	48	0	E	0	M1
NMTTP	50	64	0	B	0	M1
NMTTP	50	80	1	B	0	M1
NMTTP	50	96	2	E	0	M1
NMTTP	50	112	2	B	0	M1
NMTTP	50	128	3	B	0	M1
NMTTP	50	144	4	E	0	M1
NMHLD	50	192	5	72
NMHLD	50	264	6	72
NMTAP	50	336	4
NMTAP	51	24	3
NMTAP	51	96	2
NMTTP	51	96	4	E	0	M1
NMTAP	51	168	3
NMTAP	51	240	4
NMTAP	51	312	3
NMTAP	51	312	5
NMTAP	52	0	6
NMTAP	52	48	6
NMTAP	52	96	6
NMTAP	52	120	4
NMTAP	52	168	4
NMHLD	52	168	5	72
NMTAP	52	216	4
NMTAP	52	264	4
NMTAP	52	312	4
NMHLD	52	312	6	72
NMTAP	52	360	4
NMTAP	53	24	4
NMTAP	53	48	7
NMTAP	53	72	4
NMTAP	53	96	7
NMTAP	53	120	4
NMTAP	53	144	6
NMTAP	53	168	4
NMHLD	53	192	5	96
NMTAP	53	216	4
NMTAP	53	264	4
NMTAP	53	312	4
NMTAP	53	336	6
NMTAP	53	360	4
NMTAP	54	0	5
NMTAP	54	24	4
NMTAP	54	48	6
NMTAP	54	96	3
NMTAP	54	96	7
NMTAP	54	144	6
NMTAP	54	168	6
NMTAP	54	192	4
NMTAP	54	216	4
NMTAP	54	240	5
NMTAP	54	264	5
NMTAP	54	288	2
NMTAP	54	312	2
NMTAP	54	336	3
NMTAP	54	360	3
NMHLD	55	0	0	48
BRTAP	55	48	6
NMTAP	55	60	7
NMTAP	55	72	5
NMTAP	55	96	5
NMHLD	55	120	5	48
BRTAP	55	168	1
NMTAP	55	180	0
NMTAP	55	192	2
NMTAP	55	216	2
NMHLD	55	240	2	48
BRTAP	55	288	5
NMTAP	55	300	4
NMTAP	55	312	6
NMTAP	55	336	6
NMHLD	55	360	6	48
BRTAP	56	24	2
NMTAP	56	36	3
NMTAP	56	48	1
NMTAP	56	72	1
NMHLD	56	96	1	48
BRTAP	56	144	6
NMTAP	56	156	7
NMTAP	56	168	5
NMTAP	56	192	5
NMHLD	56	216	5	48
BRTAP	56	264	3
NMTAP	56	276	4
NMTAP	56	288	2
NMTAP	56	312	2
NMHLD	56	336	2	48
BRTAP	57	0	4
NMTAP	57	12	3
NMTAP	57	24	5
NMTAP	57	48	5
NMHLD	57	72	5	56
NMTAP	57	128	2
NMTAP	57	144	4
NMTAP	57	160	2
NMTAP	57	176	4
NMTAP	57	192	2
NMTAP	57	208	4
NMTAP	57	224	3
NMTAP	57	240	5
NMTAP	57	256	3
NMTAP	57	272	5
NMTAP	57	288	3
NMTAP	57	304	5
NMTAP	57	320	4
NMTAP	57	336	4
NMTAP	57	352	4
NMTAP	57	368	4
BRTAP	58	0	4
NMSTR	58	96	0
NMSCR	58	96	0	96	24	3
NMTAP	58	96	6
BRTAP	58	144	5
BRTAP	58	144	7
NMTAP	58	192	3
NMTAP	58	208	4
NMTAP	58	224	5
NMTAP	58	240	6
NMTAP	58	256	7
NMTAP	58	272	0
BRHLD	58	288	1	48
NMSTR	58	336	5
BRSI_	58	336	5	96	48	1
NMTAP	58	352	0
NMTAP	58	352	4
NMTAP	58	368	3
NMTAP	58	368	7
NMTAP	59	0	2
NMTAP	59	0	6
BRTAP	59	48	0
BRTAP	59	48	5
CNSI_	59	96	1	0	24	3
CNSI_	59	120	3	0	48	7
NMTAP	59	192	0
NMTAP	59	216	0
NMTAP	59	240	6
NMTAP	59	264	6
NMSTR	59	288	3
NMSCL	59	288	3	96	24	0
BRTAP	59	336	4
BRTAP	59	336	5
NMTAP	60	0	0
NMTAP	60	16	7
NMTAP	60	32	6
NMTAP	60	48	5
NMTAP	60	64	4
NMTAP	60	80	3
BRHLD	60	96	2	48
NMSTR	60	144	5
BRSCL	60	144	5	96	24	3
NMTAP	60	160	6
NMTAP	60	176	7
NMTAP	60	192	0
NMTAP	60	208	1
NMTAP	60	224	2
NMTAP	60	240	3
BRTAP	60	240	5
NMSTR	60	288	7
BRSCL	60	288	7	96	24	5
NMTAP	60	304	0
NMTAP	60	320	1
NMTAP	60	336	2
NMTAP	60	352	3
NMTAP	60	368	4
NMTAP	61	0	5
BRTAP	61	0	7
NMSTR	61	48	0
BRSI_	61	48	0	96	24	4
NMTAP	61	64	7
NMTAP	61	80	6
NMTAP	61	96	5
NMTAP	61	112	4
NMTAP	61	128	3
BRTAP	61	144	0
NMTAP	61	144	2
NMTAP	61	240	6
NMSTR	61	264	6
NMSI_	61	264	6	96	24	3
NMTAP	61	288	0
NMTAP	61	312	5
NMTAP	61	336	0
BRTAP	61	360	6
NMTAP	62	24	1
NMSTR	62	48	1
BRSCR	62	48	1	96	24	4
NMTAP	62	72	0
NMTAP	62	96	2
NMTAP	62	120	5
BRSTR	62	144	1
BRSF_	62	144	1	96	24	5
BRTAP	62	168	7
BRTAP	62	240	1
NMTAP	62	336	6
NMTAP	62	336	7
NMTAP	63	0	4
NMTAP	63	0	5
NMTAP	63	48	2
NMTAP	63	64	3
NMTAP	63	80	1
NMHLD	63	96	4	48
NMHLD	63	144	0	48
NMTAP	63	192	7
NMTAP	63	208	1
NMTAP	63	224	6
NMHLD	63	240	4	48
NMHLD	63	288	3	48
NMTAP	63	336	2
NMTAP	63	352	4
NMTAP	63	368	1
NMTAP	64	0	3
NMTAP	64	48	0
NMTAP	64	48	6
NMSTR	64	96	7
NMSCL	64	96	7	96	24	4
BRTAP	64	144	0
BRTAP	64	144	2
NMTAP	64	192	4
NMTAP	64	208	3
NMTAP	64	224	2
NMTAP	64	240	1
NMTAP	64	256	0
NMTAP	64	272	7
BRHLD	64	288	6	48
NMSTR	64	336	2
BRSI_	64	336	2	96	48	6
NMTAP	64	352	3
NMTAP	64	352	7
NMTAP	64	368	0
NMTAP	64	368	4
NMTAP	65	0	1
NMTAP	65	0	5
BRTAP	65	48	2
BRTAP	65	48	7
CNSI_	65	96	6	0	48	4
CNSI_	65	144	4	0	24	0
NMTAP	65	192	7
NMTAP	65	216	7
NMTAP	65	240	1
NMTAP	65	264	1
NMSTR	65	288	4
NMSCR	65	288	4	96	24	7
BRTAP	65	336	2
BRTAP	65	336	3
NMTAP	66	0	7
NMTAP	66	16	0
NMTAP	66	32	1
NMTAP	66	48	2
NMTAP	66	64	3
NMTAP	66	80	4
BRHLD	66	96	5	48
NMSTR	66	144	1
BRSI_	66	144	1	96	24	5
NMTAP	66	192	7
NMSTR	66	216	7
BRSI_	66	216	7	96	24	3
BRTAP	66	240	1
BRTAP	66	264	4
BRTAP	66	312	7
BRTAP	67	0	0
NMSTR	67	48	0
NMSI_	67	48	0	96	24	5
NMSTR	67	48	4
NMSI_	67	48	4	96	24	1
NMTAP	67	64	1
NMTAP	67	64	5
NMTAP	67	80	2
NMTAP	67	80	6
NMTAP	67	96	3
NMTAP	67	96	7
BRTAP	67	144	0
BRTAP	67	144	4
NMTAP	67	240	1
NMSTR	67	264	1
NMSI_	67	264	1	96	24	4
NMTAP	67	288	7
NMTAP	67	312	2
NMTAP	67	336	5
BRTAP	67	360	1
NMTAP	68	24	6
NMSTR	68	48	6
BRSCL	68	48	6	96	24	3
NMTAP	68	72	7
NMTAP	68	96	5
NMTAP	68	120	2
BRSTR	68	144	6
BRSF_	68	144	6	96	24	2
BRTAP	68	168	0
BRTAP	68	240	6
NMTAP	68	336	1
NMTAP	68	336	7
NMTAP	69	0	3
NMTAP	69	0	5
NMTAP	69	48	0
NMSTR	69	48	1
NMSCR	69	48	1	96	24	4
NMTAP	69	96	2
NMTAP	69	96	7
NMSTR	69	144	0
NMSI_	69	144	0	96	24	4
NMTAP	69	144	1
NMTAP	69	160	7
NMTAP	69	176	6
NMTAP	69	192	5
NMTAP	69	240	0
NMTAP	69	240	4
NMTAP	69	256	5
NMTAP	69	272	6
NMTAP	69	288	7
NMTAP	69	336	3
NMTAP	69	336	7
NMTAP	70	0	0
NMTAP	70	0	1
BRTAP	70	24	0
BRTAP	70	24	1
NMTAP	70	72	6
NMTAP	70	72	7
BRTAP	70	96	6
BRTAP	70	96	7
NMTAP	70	144	1
NMTAP	70	144	4
BRHLD	70	168	1	48
BRTAP	70	168	4
NMTAP	70	240	5
NMTAP	70	252	4
NMTAP	70	264	3
NMTAP	70	276	2
NMTAP	70	288	1
NMTAP	70	300	0
NMTAP	70	312	7
NMTAP	70	324	6
BXHLD	70	336	0	96
BXHLD	70	336	5	96
NMTAP	71	96	1
NMTAP	71	120	1
NMTAP	71	132	3
NMTAP	71	144	2
NMTAP	71	168	5
NMTAP	71	192	5
NMTAP	71	204	3
NMTAP	71	216	4
NMTAP	71	240	1
NMTAP	71	264	1
NMTAP	71	276	3
NMTAP	71	288	2
NMTAP	71	312	6
NMTAP	71	336	6
NMTAP	71	348	4
NMTAP	71	360	5
NMTAP	72	0	2
NMTAP	72	24	2
NMTAP	72	36	4
NMTAP	72	48	3
NMTAP	72	72	5
NMTAP	72	96	5
NMTAP	72	108	7
NMTAP	72	120	6
NMTAP	72	144	2
NMTAP	72	168	2
NMTAP	72	180	0
NMTAP	72	192	1
NMTAP	72	216	6
NMTAP	72	240	0
NMTAP	72	252	7
NMTAP	72	264	0
NMTAP	72	276	7
NMTAP	72	288	0
NMTAP	72	300	7
NMTAP	72	312	0
NMTAP	72	324	7
NMTAP	72	336	0
NMTAP	72	348	7
NMTAP	72	360	0
NMTAP	72	372	7
NMHLD	73	0	0	0
EXTAP	73	12	1
BRTAP	73	24	6
EXTAP	73	36	5
NMTAP	73	48	0
EXTAP	73	60	1
BRTAP	73	72	6
EXTAP	73	84	5
NMTAP	73	96	1
EXTAP	73	108	2
BRTAP	73	120	7
EXTAP	73	132	6
NMTAP	73	144	2
EXTAP	73	156	3
NMTAP	73	168	7
EXTAP	73	180	6
NMTTP	73	192	0	C	1	M1
NMSTR	73	288	6
NMSI_	73	288	6	96	24	2
NMTAP	73	312	7
NMTAP	73	336	5
NMTAP	73	360	7
NMTAP	74	0	6
NMTAP	74	48	0
NMTAP	74	96	1
NMTAP	74	96	3
NMSTR	74	144	2
BRSCL	74	144	2	96	24	7
NMTAP	74	168	4
NMTAP	74	192	3
NMTAP	74	216	5
NMTAP	74	240	2
NMTAP	74	288	6
NMTAP	74	312	6
NMTAP	74	336	0
NMTAP	74	360	7
NMTAP	75	0	1
NMTAP	75	24	1
NMTAP	75	48	3
NMTAP	75	72	2
BRTAP	75	96	1
BRTAP	75	96	4
NMTAP	75	144	0
NMTAP	75	144	7
NMTAP	75	192	6
NMTAP	75	216	0
NMSTR	75	240	7
NMSI_	75	240	7	96	24	3
NMTAP	75	264	1
NMTAP	75	288	6
NMTAP	75	312	0
NMTTP	75	336	7	A	1	M1
BRTAP	76	0	2
NMTAP	76	48	0
NMTAP	76	48	1
BRTAP	76	72	2
BRTAP	76	72	7
NMTAP	76	120	6
NMTAP	76	120	7
BRTAP	76	144	0
BRTAP	76	144	5
NMTAP	76	192	1
NMTAP	76	208	3
NMTAP	76	224	2
NMTAP	76	240	5
NMTAP	76	256	3
NMTAP	76	272	4
BRHLD	76	288	0	48
NMTAP	76	336	7
NMTAP	77	0	4
NMTAP	77	0	6
BRSTR	77	48	0
NMSI_	77	48	0	96	24	4
NMTAP	77	48	7
NMTAP	77	96	1
NMTAP	77	120	1
NMTAP	77	144	0
BRSTR	77	144	7
NMSI_	77	144	7	96	24	3
NMTAP	77	192	5
BRSTR	77	240	1
NMSI_	77	240	1	96	24	5
NMTAP	77	240	7
NMTAP	77	288	2
NMTAP	77	312	2
NMTAP	77	336	1
BRSTR	77	336	6
NMSI_	77	336	6	96	24	2
NMTAP	78	0	7
BRSTR	78	48	1
NMSI_	78	48	1	96	24	4
NMTAP	78	48	6
NMTAP	78	96	0
NMTAP	78	120	0
NMTAP	78	144	1
BRSTR	78	144	5
NMSI_	78	144	5	96	24	0
NMTAP	78	192	7
BRTAP	78	240	1
NMTAP	78	240	5
NMTAP	78	288	2
NMTAP	78	288	7
BRTAP	78	336	0
BRSTR	78	336	6
NMSI_	78	336	6	96	24	0
NMTAP	79	0	4
NMTAP	79	24	3
BRSTR	79	48	2
NMSI_	79	48	2	96	24	4
BRTAP	79	48	6
NMTAP	79	96	1
BRTAP	79	144	2
BRSTR	79	144	7
NMSI_	79	144	7	96	24	3
NMTAP	79	192	5
NMTAP	79	216	6
BRTAP	79	240	0
BRTAP	79	240	7
NMTAP	79	288	0
BRTAP	79	336	2
BRTAP	79	336	4
NMTAP	80	0	6
NMTAP	80	12	4
NMTAP	80	24	6
NMTAP	80	36	4
NMTAP	80	48	6
NMTAP	80	72	1
NMTAP	80	84	3
NMTAP	80	96	1
NMTAP	80	108	3
NMTAP	80	120	1
NMTAP	80	144	0
NMTAP	80	144	7
NMTAP	80	168	0
NMTAP	80	168	7
NMTAP	80	216	1
NMTAP	80	228	3
NMTAP	80	240	2
NMTAP	80	264	2
NMTAP	80	288	2
NMTAP	80	312	2
NMTAP	80	336	2
BRTAP	80	360	1
BRTAP	80	360	3
NMTAP	81	24	6
NMTAP	81	36	7
NMTAP	81	48	5
NMTAP	81	72	5
NMTAP	81	96	5
BRTAP	81	120	4
BRTAP	81	120	6
NMTAP	81	168	1
NMTAP	81	180	0
NMTAP	81	192	2
NMTAP	81	216	2
NMTAP	81	240	2
NMTAP	81	264	2
NMTAP	81	288	2
BRTAP	81	312	1
BRTAP	81	312	3
NMTAP	81	360	0
NMTAP	81	376	4
NMTAP	82	8	1
NMTAP	82	24	4
NMTAP	82	40	2
NMTAP	82	56	4
NMTAP	82	72	3
NMTAP	82	88	4
BRTAP	82	96	3
BRTAP	82	96	5
NMTAP	82	104	2
NMTAP	82	104	6
NMTAP	82	112	1
NMTAP	82	112	7
NMTAP	82	120	0
BRTAP	82	168	6
BRTAP	82	168	7
BRTAP	82	176	0
BRTAP	82	176	5
BRTAP	82	184	1
BRTAP	82	184	4
BRTAP	82	192	2
BRTAP	82	192	3

T_REC_TAP	765
T_REC_BRK	99
T_REC_XTP	20
T_REC_BXX	1
T_REC_HLD	70
T_REC_XHO	1
T_REC_BHO	8
T_REC_BXH	7
T_REC_STR	38
T_REC_BST	16
T_REC_XST	0
T_REC_XBS	1
T_REC_TTP	110
T_REC_THO	1
T_REC_SLD	37
T_REC_BSL	18
T_REC_ALL	1192
T_NUM_TAP	933
T_NUM_BRK	150
T_NUM_HLD	72
T_NUM_SLD	37
T_NUM_ALL	1192
T_JUDGE_TAP	1050
T_JUDGE_HLD	165
T_JUDGE_SLD	55
T_JUDGE_ALL	1270
TTM_EACHPAIRS	140
TTM_SCR_TAP	466500
TTM_SCR_BRK	390000
TTM_SCR_HLD	72000
TTM_SCR_SLD	55500
TTM_SCR_ALL	984000
TTM_SCR_S	939950
TTM_SCR_SS	969000
TTM_RAT_ACV	10154

