VERSION	0.00.00	1.05.00
FES_MODE	0
BPM_DEF	264.000	132.000	264.000	132.000
MET_DEF	4	4
RESOLUTION	384
CLK_DEF	672
COMPATIBLE_CODE	MA2

BPM	0	0	264.000
BPM	1	288	132.000
MET	0	0	8	7
MET	37	240	8	4
MET	38	48	8	7
MET	45	48	8	6
MET	56	144	8	9
MET	57	192	8	6
MET	66	192	8	7

NMTTP	1	288	1	E	0	M1
NMTTP	2	48	5	B	0	M1
NMTTP	2	192	6	B	0	M1
NMTTP	2	336	2	B	0	M1
NMTTP	3	96	5	B	0	M1
EXSTR	3	192	2
NMSUR	3	192	2	96	384	5
NMTAP	5	96	1
NMTAP	5	96	7
EXHLD	5	168	1	1032
EXTAP	5	168	7
NMTAP	5	264	3
NMTAP	5	312	3
NMTAP	5	360	3
NMTAP	6	48	4
NMTAP	6	96	4
NMTAP	6	144	4
NMTAP	6	216	2
NMTAP	6	264	2
NMTAP	6	312	2
NMTAP	7	0	3
NMTAP	7	48	3
NMTAP	7	96	3
NMTAP	7	168	4
NMTAP	7	216	4
NMTAP	7	264	4
NMTAP	7	336	3
NMTAP	8	0	3
NMTAP	8	48	3
NMTAP	8	144	2
NMTAP	8	144	3
NMTAP	8	192	2
NMTAP	8	192	3
NMTAP	8	288	0
NMTAP	8	288	6
EXTAP	8	360	0
EXHLD	8	360	6	1032
NMTAP	9	72	4
NMTAP	9	120	4
NMTAP	9	168	4
NMTAP	9	240	3
NMTAP	9	288	3
NMTAP	9	336	3
NMTAP	10	24	5
NMTAP	10	72	5
NMTAP	10	120	5
NMTAP	10	192	4
NMTAP	10	240	4
NMTAP	10	288	4
NMTAP	10	360	3
NMTAP	11	24	3
NMTAP	11	72	3
NMTAP	11	144	4
NMTAP	11	192	4
NMTAP	11	240	4
EXTAP	11	312	0
EXTAP	11	312	7
EXTAP	11	360	0
EXTAP	11	360	7
EXTAP	12	24	0
EXTAP	12	24	7
NMTAP	12	96	1
NMTAP	12	144	1
NMTAP	12	192	0
NMTAP	12	192	2
NMTAP	12	216	0
NMHLD	12	216	2	72
NMTAP	12	288	4
NMTAP	12	336	3
NMTAP	12	336	5
NMTAP	12	360	3
NMHLD	12	360	5	72
NMTAP	13	48	7
NMTAP	13	96	0
NMTAP	13	96	6
NMHLD	13	120	0	72
NMTAP	13	120	6
NMTAP	13	192	2
NMTAP	13	240	1
NMTAP	13	240	3
NMTAP	13	264	1
NMTAP	13	264	3
EXTAP	13	336	3
EXTAP	13	336	4
NMTAP	14	0	6
NMTAP	14	48	6
NMTAP	14	96	5
NMTAP	14	96	7
NMHLD	14	120	5	72
NMTAP	14	120	7
NMTAP	14	192	3
NMTAP	14	240	2
NMTAP	14	240	4
NMHLD	14	264	2	72
NMTAP	14	264	4
NMTAP	14	336	0
NMTAP	15	0	1
NMTAP	15	0	7
NMTAP	15	24	1
NMTAP	15	24	7
NMTAP	15	96	2
NMTAP	15	96	6
NMTAP	15	144	3
NMTAP	15	144	6
NMTAP	15	192	4
NMTAP	15	192	6
NMTAP	15	240	5
NMTAP	15	240	6
NMTAP	15	288	6
NMTAP	15	336	6
NMTAP	16	0	5
NMTAP	16	0	7
NMHLD	16	24	5	72
NMTAP	16	24	7
NMTAP	16	96	3
NMTAP	16	144	2
NMTAP	16	144	4
NMHLD	16	168	2	72
NMTAP	16	168	4
NMTAP	16	240	0
NMTAP	16	288	1
NMTAP	16	288	7
NMTAP	16	312	1
NMHLD	16	312	7	72
NMTAP	17	0	5
NMTAP	17	48	4
NMTAP	17	48	6
NMTAP	17	72	4
NMTAP	17	72	6
EXTAP	17	144	3
EXTAP	17	144	4
NMTAP	17	192	1
NMTAP	17	240	1
NMTAP	17	288	0
NMTAP	17	288	2
NMTAP	17	312	0
NMHLD	17	312	2	72
NMTAP	18	0	4
NMTAP	18	48	3
NMTAP	18	48	5
NMTAP	18	72	3
NMHLD	18	72	5	72
NMTAP	18	144	7
NMTAP	18	192	0
NMTAP	18	192	6
NMTAP	18	216	0
NMTAP	18	216	6
NMTAP	18	288	1
NMTAP	18	288	3
NMTAP	18	336	4
NMTAP	18	336	6
NMTAP	19	0	5
NMTAP	19	24	4
NMTAP	19	48	3
NMTAP	19	72	2
EXTAP	19	120	0
EXTAP	19	120	7
NMTAP	19	168	1
NMTAP	19	192	0
NMTAP	19	216	1
NMTAP	19	264	2
NMTAP	19	264	3
NMTAP	19	312	5
NMTAP	19	336	4
NMTAP	19	360	5
NMTAP	20	24	6
NMTAP	20	24	7
NMTAP	20	72	5
NMTAP	20	96	4
NMTAP	20	120	5
NMTAP	20	168	2
NMTAP	20	168	3
NMTAP	20	216	1
NMTAP	20	240	0
NMTAP	20	264	1
NMTAP	20	312	2
NMTAP	20	312	3
EXSTR	20	360	4
NMSCR	20	360	4	96	504	2
EXHLD	20	360	6	600
NMTAP	22	288	3
NMTAP	22	336	3
NMTAP	23	0	3
NMTAP	23	72	4
NMTAP	23	120	4
NMTAP	23	168	4
NMTAP	23	240	5
NMTAP	23	288	5
NMTAP	23	336	5
NMTAP	24	0	3
NMTAP	24	24	4
NMTAP	24	48	3
NMTAP	24	72	4
EXTAP	24	96	2
EXTAP	24	96	5
BRTAP	24	192	0
BRTAP	24	192	5
NMTAP	24	240	4
NMTAP	24	264	4
NMHLD	24	288	2	48
NMHLD	24	336	0	48
NMHLD	25	0	7	48
NMTAP	25	48	5
NMTAP	25	72	5
NMHLD	25	96	3	48
NMTAP	25	144	7
NMTAP	25	168	7
NMHLD	25	192	3	48
NMTAP	25	240	4
NMTAP	25	264	4
NMHLD	25	288	2	48
NMTAP	25	336	0
NMTAP	25	360	0
NMHLD	26	0	2	48
NMTAP	26	48	3
NMTAP	26	72	3
NMTAP	26	96	1
NMTAP	26	144	0
NMTAP	26	144	4
NMTAP	26	192	1
NMTAP	26	216	3
NMTAP	26	240	2
NMTAP	26	264	4
NMTAP	26	288	3
NMTAP	26	312	5
NMTAP	26	336	4
NMTAP	26	360	6
NMSTR	27	0	5
NMSI_	27	0	5	96	48	1
EXTAP	27	48	7
EXSTR	27	96	7
NMSI_	27	96	7	96	48	3
NMSTR	27	192	0
NMSF_	27	192	0	96	48	4
BRTAP	28	0	2
BRTAP	28	0	7
NMTAP	28	48	3
NMTAP	28	72	3
NMHLD	28	96	5	48
NMHLD	28	144	7	48
NMHLD	28	192	0	48
NMTAP	28	240	2
NMTAP	28	264	2
NMHLD	28	288	4	48
NMTAP	28	336	0
NMTAP	28	360	0
NMHLD	29	0	4	48
NMTAP	29	48	3
NMTAP	29	72	3
NMHLD	29	96	5	48
NMTAP	29	144	7
NMTAP	29	168	7
NMHLD	29	192	5	48
NMTAP	29	240	4
NMTAP	29	264	4
NMTAP	29	288	6
NMTAP	29	336	3
NMTAP	29	336	7
NMTAP	30	0	6
NMTAP	30	24	4
NMTAP	30	48	5
NMTAP	30	72	3
NMTAP	30	96	4
NMTAP	30	120	2
NMTAP	30	144	3
NMTAP	30	168	1
NMSTR	30	192	2
NMSI_	30	192	2	96	48	6
EXTAP	30	240	0
EXSTR	30	288	0
NMSI_	30	288	0	96	48	4
NMTAP	31	0	7
NMTAP	31	48	7
BRTAP	31	96	3
BRTAP	31	96	7
NMTAP	31	192	1
NMTAP	31	192	4
NMTAP	31	240	2
NMTAP	31	264	3
NMSTR	31	288	1
NMSI_	31	288	1	96	48	4
NMTAP	31	336	0
NMSTR	32	0	7
NMSCL	32	0	7	96	48	4
NMTAP	32	96	0
NMTAP	32	144	0
NMTAP	32	192	1
NMTAP	32	192	3
NMTAP	32	240	2
NMTAP	32	264	3
NMSTR	32	288	2
NMSI_	32	288	2	96	48	5
NMTAP	32	336	0
NMSTR	33	0	7
NMSCL	33	0	7	96	72	2
NMHLD	33	96	4	192
EXTAP	33	216	0
EXTAP	33	264	7
EXHLD	33	288	7	288
NMTAP	34	0	5
NMTAP	34	48	4
NMTAP	34	96	3
NMTAP	34	144	2
NMSTR	34	192	1
NMSI_	34	192	1	96	48	4
NMSI_	34	192	1	96	48	5
NMTAP	35	0	3
NMTAP	35	0	6
NMTAP	35	48	5
NMTAP	35	72	4
NMSTR	35	96	6
NMSI_	35	96	6	96	48	3
NMTAP	35	144	7
NMSTR	35	192	0
NMSCR	35	192	0	96	48	3
NMTAP	35	288	7
NMTAP	35	336	7
NMTAP	36	0	4
NMTAP	36	0	6
NMTAP	36	48	5
NMTAP	36	72	4
NMSTR	36	96	5
NMSI_	36	96	5	96	48	2
NMTAP	36	144	7
NMSTR	36	192	0
NMSCR	36	192	0	96	72	5
NMHLD	36	288	3	192
EXTAP	37	24	7
EXTAP	37	72	0
EXHLD	37	96	0	336
NMTTP	37	216	2	B	0	M1
NMTTP	37	216	3	E	0	M1
NMTTP	37	288	4	E	0	M1
NMTTP	37	288	4	D	0	M1
NMTTP	37	360	5	B	0	M1
NMTTP	37	360	5	E	0	M1
NMTTP	38	48	0	E	0	M1
NMTTP	38	48	0	D	0	M1
EXSTR	38	120	0
NMSCR	38	120	0	96	120	6
EXHLD	38	120	1	264
BRTAP	39	0	0
NMTAP	39	144	1
NMHLD	39	168	1	48
NMTAP	39	216	2
NMHLD	39	240	2	48
NMTAP	39	288	3
NMHLD	39	312	3	48
NMTAP	39	360	4
NMHLD	40	0	4	48
NMTAP	40	48	5
NMHLD	40	72	5	48
NMTAP	40	120	7
NMHLD	40	144	7	48
NMTAP	40	192	1
NMTAP	40	216	1
NMTAP	40	264	3
NMTTP	40	288	0	B	0	M1
NMTTP	40	288	0	E	1	M1
NMTTP	40	288	7	B	0	M1
NMTAP	41	48	6
NMHLD	41	72	6	48
NMTAP	41	120	5
NMHLD	41	144	5	48
NMTAP	41	192	4
NMHLD	41	216	4	48
NMTAP	41	264	3
NMHLD	41	288	3	48
NMTAP	41	336	2
NMHLD	41	360	2	48
NMTAP	42	24	0
NMHLD	42	48	0	48
NMTAP	42	96	6
NMTAP	42	120	6
NMTAP	42	168	4
NMTTP	42	192	0	B	0	M1
NMTTP	42	192	0	E	1	M1
NMTTP	42	192	7	B	0	M1
NMTAP	42	336	2
NMHLD	42	360	2	48
NMTAP	43	24	3
NMHLD	43	48	3	48
NMTAP	43	96	4
NMHLD	43	120	4	48
NMTAP	43	168	5
NMHLD	43	192	5	48
NMTAP	43	240	6
NMHLD	43	264	6	48
NMTAP	43	312	0
NMHLD	43	336	0	48
NMTAP	44	0	2
NMTAP	44	24	2
NMTAP	44	72	4
NMTTP	44	96	0	B	0	M1
NMTTP	44	96	0	E	1	M1
NMTTP	44	96	7	B	0	M1
NMTAP	44	240	5
NMHLD	44	264	5	48
NMTAP	44	312	4
NMHLD	44	336	4	48
NMTAP	45	0	3
NMHLD	45	24	3	48
NMTAP	45	72	2
NMHLD	45	96	2	48
NMTAP	45	144	1
NMHLD	45	168	1	48
NMTAP	45	216	7
NMHLD	45	240	7	48
NMTAP	45	288	5
NMTAP	45	312	5
NMTAP	45	360	3
BRSTR	46	0	0
NMSSL	46	0	0	96	72	4
CNSCR	46	168	4	0	504	3
NMHLD	48	48	0	336
NMSTR	49	0	6
NMSSL	49	0	6	96	72	2
CNSLR	49	168	2	0	360	7
NMTTP	50	264	1	B	0	M1
NMTTP	50	336	2	B	0	M1
NMTTP	51	24	5	B	0	M1
NMTTP	51	96	6	B	0	M1
NMTTP	51	168	0	B	0	M1
NMTTP	51	168	7	B	0	M1
NMTTP	51	240	4	E	0	M1
NMTTP	51	240	4	D	0	M1
EXTAP	52	0	4
EXTAP	52	0	5
NMTAP	52	48	2
NMTAP	52	72	3
NMHLD	52	96	2	72
NMSTR	52	168	1
NMSSR	52	168	1	96	72	5
CNSCL	52	336	5	0	480	6
NMTAP	54	192	3
NMTAP	54	216	4
NMTAP	54	240	3
NMTAP	54	264	4
NMTAP	54	288	3
NMTAP	54	312	4
NMTAP	54	336	3
NMTAP	54	360	4
EXTAP	55	48	1
NMTAP	55	72	1
NMTAP	55	96	1
NMTAP	55	120	1
EXTAP	55	168	4
NMTAP	55	192	4
NMTAP	55	216	4
NMTAP	55	240	4
EXTAP	55	288	7
NMTAP	55	312	7
NMTAP	55	336	7
NMTAP	55	360	7
EXTAP	56	24	3
NMTAP	56	48	3
NMTAP	56	72	3
NMTAP	56	96	3
EXTAP	56	144	2
NMTAP	56	168	2
NMTAP	56	192	2
NMTAP	56	216	2
EXTAP	56	264	0
NMTAP	56	288	0
NMTAP	56	312	0
NMTAP	56	336	0
EXTAP	57	0	1
NMTAP	57	24	1
NMTAP	57	48	1
NMTAP	57	72	1
EXTAP	57	120	7
EXTAP	57	144	7
EXTAP	57	168	0
EXTAP	57	192	0
EXTAP	57	216	7
EXTAP	57	240	7
EXTAP	57	264	0
EXTAP	57	288	0
NMSTR	57	312	6
NMSF_	57	312	6	96	72	2
BRTAP	58	144	0
BRTAP	58	144	7
NMTAP	58	192	6
NMTAP	58	216	7
NMTAP	58	240	0
NMTAP	58	264	1
NMTAP	58	288	2
NMTAP	58	312	3
NMTAP	58	336	4
NMTAP	59	0	6
NMTAP	59	0	7
NMTAP	59	48	5
NMTAP	59	72	4
NMTAP	59	96	5
NMTAP	59	120	4
NMHLD	59	144	3	96
NMTAP	59	144	6
NMTAP	59	192	7
NMTAP	59	240	0
NMTAP	59	288	1
NMTAP	59	288	2
NMTAP	59	336	0
NMTAP	59	336	3
NMTAP	60	0	4
NMTAP	60	0	7
NMTAP	60	48	5
NMTAP	60	48	6
NMTAP	60	96	0
NMTAP	60	96	7
NMTAP	60	144	1
NMTAP	60	168	0
NMTAP	60	192	7
NMTAP	60	216	6
NMTAP	60	240	5
NMTAP	60	264	4
NMTAP	60	312	2
NMTAP	60	312	3
NMTAP	60	360	1
NMTAP	60	360	6
NMTAP	61	0	1
NMTAP	61	0	6
NMTAP	61	48	1
NMTAP	61	72	0
NMTAP	61	96	1
NMTAP	61	120	0
NMTAP	61	144	2
NMTAP	61	192	6
NMTAP	61	216	7
NMTAP	61	240	6
NMTAP	61	264	7
NMTAP	61	288	5
NMTAP	61	336	2
NMTAP	61	360	3
NMTAP	62	0	2
NMTAP	62	24	3
NMTAP	62	48	1
NMTAP	62	72	4
NMTAP	62	96	1
NMTAP	62	120	4
NMHLD	62	144	0	48
NMHLD	62	192	7	48
NMHLD	62	240	6	48
NMHLD	62	288	5	48
NMTAP	62	336	4
NMTAP	63	0	3
NMTAP	63	0	4
NMTAP	63	48	2
NMTAP	63	72	3
NMTAP	63	96	2
NMTAP	63	144	0
NMTAP	63	144	1
NMTAP	63	192	6
NMTAP	63	192	7
NMTAP	63	240	5
NMTAP	63	264	4
NMTAP	63	288	5
NMTAP	63	312	4
NMTTP	63	336	0	E	0	M1
NMTTP	64	0	2	E	0	M1
NMTTP	64	48	4	E	0	M1
NMTTP	64	96	6	E	0	M1
BRTAP	64	144	0
BRTAP	64	144	7
NMTAP	64	192	1
NMTAP	64	216	0
NMTAP	64	240	7
NMTAP	64	264	6
NMTAP	64	288	5
NMTAP	64	312	4
NMTAP	64	336	3
NMTAP	65	0	0
NMTAP	65	0	1
NMTAP	65	48	2
NMTAP	65	72	3
NMTAP	65	96	2
NMTAP	65	120	3
NMTAP	65	144	1
NMHLD	65	144	4	96
NMTAP	65	192	0
NMTAP	65	240	7
NMTAP	65	288	5
NMTAP	65	288	6
NMTAP	65	336	4
NMTAP	65	336	7
NMTAP	66	0	0
NMTAP	66	0	3
NMTAP	66	48	1
NMTAP	66	48	2
NMTAP	66	96	0
NMTAP	66	96	7
NMTAP	66	144	6
NMTAP	66	168	7
NMTAP	66	192	0
NMTAP	66	216	1
NMTAP	66	240	2
NMTAP	66	264	3
EXTAP	66	312	4
EXTAP	66	312	6
NMTAP	66	360	2
EXTAP	67	0	1
EXTAP	67	0	3
NMTAP	67	48	5
EXTAP	67	72	4
EXTAP	67	72	6
NMTAP	67	120	0
NMTAP	67	120	7
BRTAP	67	144	1
BRTAP	67	144	6
NMTAP	67	192	5
NMTAP	67	216	5
NMTAP	67	240	3
NMTAP	67	264	3
NMTAP	67	288	7
NMTAP	67	336	1
NMTAP	67	360	1
NMTAP	68	0	4
NMTAP	68	24	4
NMTAP	68	48	0
NMTAP	68	96	6
NMTAP	68	120	6
NMTAP	68	144	4
NMTAP	68	168	4
NMTAP	68	192	7
NMTAP	68	240	1
NMTAP	68	264	1
NMTAP	68	288	3
NMTAP	68	312	3
NMTAP	68	336	0
EXTAP	69	0	0
EXTAP	69	0	7
NMHLD	69	48	6	72
NMTAP	69	48	7
NMTAP	69	96	5
NMTAP	69	120	5
NMTAP	69	192	0
NMHLD	69	192	1	72
NMTAP	69	240	2
NMTAP	69	264	2
NMHLD	69	336	6	72
NMTAP	69	336	7
NMTAP	70	0	5
NMSTR	70	24	5
BRSCL	70	24	5	96	120	6
CNSXL	70	240	6	0	96	3
NMHLD	71	96	1	384
NMTAP	71	96	7
NMTAP	71	120	7
NMTAP	71	168	0
NMTAP	71	192	0
NMTAP	71	240	7
NMTAP	71	264	7
NMTAP	71	312	2
NMTAP	71	336	2
NMTAP	72	0	7
NMTAP	72	24	7
NMTAP	72	72	3
NMTAP	72	96	3
NMTAP	72	144	0
NMTAP	72	144	2
NMTAP	72	168	0
NMTAP	72	168	2
BXTAP	72	216	1
EXTAP	72	228	2
EXTAP	72	240	3
EXTAP	72	252	4
EXTAP	72	264	5
EXTAP	72	276	6
EXTAP	72	288	7
EXTAP	72	300	0
EXTAP	72	312	1
EXTAP	72	324	2
EXTAP	72	336	3
EXTAP	72	348	4
EXTAP	72	360	5
EXTAP	72	372	6
EXTAP	73	0	7
BRTAP	73	192	2
BRTAP	73	192	7
NMTAP	73	240	0
NMTAP	73	240	1
NMTAP	73	288	2
NMTAP	73	312	3
NMHLD	73	336	4	48
NMTAP	74	0	7
NMTAP	74	48	5
NMTAP	74	72	4
NMHLD	74	96	3	48
NMTAP	74	144	0
NMTAP	74	192	1
NMTAP	74	216	1
NMTAP	74	240	3
NMTAP	74	264	3
NMTAP	74	288	4
NMTAP	74	312	4
NMTAP	74	336	6
NMTAP	74	360	6
NMTAP	75	0	0
NMTAP	75	24	1
NMTAP	75	48	2
NMTAP	75	72	3
BRTAP	75	96	7
NMTAP	75	144	6
NMTAP	75	144	7
NMTAP	75	192	5
NMTAP	75	216	5
NMTAP	75	240	4
NMTAP	75	264	4
NMTAP	75	288	6
NMTAP	75	336	2
NMTAP	75	360	2
NMTAP	76	0	3
NMTAP	76	24	3
NMTAP	76	48	1
NMTAP	76	96	5
NMTAP	76	120	5
NMTAP	76	144	4
NMTAP	76	168	4
NMTAP	76	192	6
NMTAP	76	240	5
NMTAP	76	240	7
NMTAP	76	288	0
NMTAP	76	312	7
NMTAP	76	336	0
NMTAP	76	360	7
BRTAP	77	0	1
BRTAP	77	0	6
NMTAP	77	48	2
NMTAP	77	72	2
NMTAP	77	96	0
NMTAP	77	120	0
NMTAP	77	144	3
NMTAP	77	168	3
NMTAP	77	192	4
NMTAP	77	192	5
NMTAP	77	240	6
NMTAP	77	240	7
NMTAP	77	288	0
NMTAP	77	288	2
NMTAP	77	336	3
NMTAP	77	336	5
NMTAP	78	0	0
NMTAP	78	0	6
NMTAP	78	48	1
NMTAP	78	72	1
NMTAP	78	96	3
NMTAP	78	120	3
NMTAP	78	144	4
NMTAP	78	168	4
NMTAP	78	192	5
NMTAP	78	192	6
NMTAP	78	240	0
NMTAP	78	240	7
BRTAP	78	288	1
BRTAP	78	288	3
NMTAP	78	336	5
NMTAP	78	360	5
NMTAP	79	0	7
NMTAP	79	24	7
NMTAP	79	48	4
NMTAP	79	72	4
NMTAP	79	96	2
NMTAP	79	96	3
NMTAP	79	144	0
NMTAP	79	144	1
NMTAP	79	192	5
NMTAP	79	192	7
NMTAP	79	240	2
NMTAP	79	240	4
NMTAP	79	288	1
NMTAP	79	288	7
NMTAP	79	336	6
NMTAP	79	360	6
NMTAP	80	0	4
NMTAP	80	24	4
NMTAP	80	48	3
NMTAP	80	72	3
NMTAP	80	96	1
NMTAP	80	96	2
EXTAP	80	144	0
EXTAP	80	144	7
EXTAP	80	168	0
EXTAP	80	168	7
BRTAP	80	216	1
BRTAP	80	216	6
NMTAP	80	264	5
NMTAP	80	288	5
NMTAP	80	312	4
NMTAP	80	336	4
NMTAP	80	360	4
NMTAP	80	360	6
NMTAP	81	24	2
NMTAP	81	48	2
NMTAP	81	72	3
NMTAP	81	96	3
NMTAP	81	120	1
NMTAP	81	120	3
NMTAP	81	168	6
NMTAP	81	192	6
NMTAP	81	216	4
NMTAP	81	240	4
NMTAP	81	264	5
NMTAP	81	288	5
NMTAP	81	312	3
NMTAP	81	312	5
NMTAP	81	360	2
NMTAP	82	0	2
NMTAP	82	24	3
NMTAP	82	48	3
EXTAP	82	72	0
EXSTR	82	96	0
BRSF_	82	96	0	96	48	4
BXTAP	82	168	0

T_REC_TAP	567
T_REC_BRK	22
T_REC_XTP	66
T_REC_BXX	2
T_REC_HLD	64
T_REC_XHO	6
T_REC_BHO	0
T_REC_BXH	0
T_REC_STR	16
T_REC_BST	1
T_REC_XST	6
T_REC_XBS	0
T_REC_TTP	34
T_REC_THO	0
T_REC_SLD	22
T_REC_BSL	2
T_REC_ALL	808
T_NUM_TAP	689
T_NUM_BRK	27
T_NUM_HLD	70
T_NUM_SLD	22
T_NUM_ALL	808
T_JUDGE_TAP	714
T_JUDGE_HLD	175
T_JUDGE_SLD	24
T_JUDGE_ALL	913
TTM_EACHPAIRS	122
TTM_SCR_TAP	344500
TTM_SCR_BRK	70200
TTM_SCR_HLD	70000
TTM_SCR_SLD	33000
TTM_SCR_ALL	517700
TTM_SCR_S	499550
TTM_SCR_SS	515000
TTM_RAT_ACV	10052

