VERSION	0.00.00	1.05.00
FES_MODE	0
BPM_DEF	264.000	132.000	264.000	132.000
MET_DEF	4	4
RESOLUTION	384
CLK_DEF	672
COMPATIBLE_CODE	MA2

BPM	0	0	264.000
BPM	1	288	132.000
MET	0	0	8	7
MET	37	240	8	4
MET	38	48	8	7
MET	45	48	8	6
MET	56	144	8	9
MET	57	192	8	6
MET	66	192	8	7

NMSTR	5	96	1
NMSUR	5	96	1	96	384	4
EXSTR	7	0	6
NMSUL	7	0	6	96	384	3
NMSTR	8	288	1
NMSXR	8	288	1	96	384	4
NMSTR	10	192	6
NMSXL	10	192	6	96	384	3
NMTAP	12	96	2
NMTAP	12	192	2
NMTAP	12	288	2
NMTAP	13	0	2
NMTAP	13	0	3
NMTAP	13	96	2
NMTAP	13	96	3
NMTAP	13	192	2
NMTAP	13	192	3
NMTAP	14	0	1
NMTAP	14	96	1
NMTAP	14	192	1
NMTAP	14	288	0
NMTAP	14	288	1
NMTAP	15	0	0
NMTAP	15	0	1
NMTAP	15	96	0
NMTAP	15	96	1
NMTAP	15	288	7
NMTAP	16	0	7
NMTAP	16	96	7
NMTAP	16	192	6
NMTAP	16	192	7
NMTAP	16	288	6
NMTAP	16	288	7
NMTAP	17	0	6
NMTAP	17	0	7
NMTAP	17	192	5
NMTAP	17	288	5
NMTAP	18	0	5
NMTAP	18	96	4
NMTAP	18	96	5
NMTAP	18	192	4
NMTAP	18	192	5
NMTAP	18	288	4
NMTAP	18	288	5
NMTAP	19	96	3
NMTAP	19	144	3
NMTAP	19	192	3
EXTAP	19	288	2
EXTAP	19	288	3
EXTAP	19	336	2
EXTAP	19	336	3
EXTAP	20	0	2
EXTAP	20	0	3
NMTAP	20	96	4
NMTAP	20	144	4
NMTAP	20	192	4
NMTAP	20	288	4
NMTAP	20	288	5
NMHLD	21	0	6	192
NMHLD	21	192	5	192
NMHLD	22	0	4	192
NMHLD	22	192	3	192
NMHLD	23	0	2	192
NMHLD	23	192	1	192
NMTAP	24	0	0
NMTAP	24	192	2
NMTAP	24	240	2
NMTAP	24	288	2
NMTAP	25	0	1
NMTAP	25	48	1
NMTAP	25	96	1
NMTAP	25	192	0
NMTAP	25	240	0
NMTAP	25	288	0
NMTAP	26	0	6
NMTAP	26	0	7
NMTAP	26	96	5
NMTAP	26	144	5
NMTAP	26	192	5
NMTAP	26	288	6
NMTAP	26	336	6
NMTAP	27	0	6
NMTAP	27	96	7
NMTAP	27	144	7
NMTAP	27	192	7
NMTAP	27	288	0
NMTAP	27	288	1
NMTAP	28	0	1
NMTAP	28	48	1
NMTAP	28	96	1
NMTAP	28	192	2
NMTAP	28	240	2
NMTAP	28	288	2
NMTAP	29	0	3
NMTAP	29	48	3
NMTAP	29	96	3
NMTAP	29	192	4
NMTAP	29	192	5
NMTAP	29	288	6
NMTAP	29	336	6
NMTAP	30	0	6
NMTAP	30	96	5
NMTAP	30	144	5
NMTAP	30	192	5
NMTAP	30	288	3
NMTAP	30	288	4
NMTAP	30	336	3
NMTAP	30	336	4
NMTAP	31	0	3
NMTAP	31	0	4
NMTAP	31	192	2
NMTAP	31	240	2
NMTAP	31	288	2
NMTAP	32	0	0
NMTAP	32	0	1
NMTAP	32	96	0
NMTAP	32	96	1
NMTAP	32	192	0
NMTAP	32	192	7
NMTAP	32	288	0
NMTAP	32	288	7
NMTAP	33	0	6
NMTAP	33	0	7
NMTAP	33	96	5
NMTAP	33	144	5
NMTAP	33	192	5
NMTAP	33	288	6
NMTAP	33	288	7
NMTAP	34	0	6
NMTAP	34	0	7
NMTAP	34	96	0
NMTAP	34	96	7
NMTAP	34	192	1
NMTAP	34	192	6
NMTAP	35	0	1
NMTAP	35	48	1
NMTAP	35	96	1
NMTAP	35	192	2
NMTAP	35	192	3
NMTAP	35	288	2
NMTAP	35	288	3
NMTAP	36	0	3
NMTAP	36	0	4
NMTAP	36	96	3
NMTAP	36	96	4
NMTAP	36	192	4
NMTAP	36	192	5
NMTAP	36	288	6
NMTAP	36	336	6
NMTAP	37	0	6
NMTAP	37	96	4
NMTAP	37	96	5
NMTAP	37	192	4
NMTAP	37	192	5
NMTAP	37	288	3
NMTAP	37	288	4
NMTAP	38	0	3
NMTAP	38	0	4
NMTAP	38	96	2
NMTAP	38	96	3
NMTAP	38	192	1
NMTAP	38	192	4
EXTAP	39	0	2
EXTAP	39	0	3
NMTAP	39	144	1
NMTAP	39	192	1
NMTAP	39	240	1
NMTAP	39	336	0
NMTAP	39	336	7
NMTAP	40	0	0
NMTAP	40	0	7
NMTAP	40	48	0
NMTAP	40	48	7
NMTAP	40	144	6
EXTAP	40	288	4
EXTAP	40	288	5
NMTAP	41	48	6
NMTAP	41	96	6
NMTAP	41	144	6
NMTAP	41	240	0
NMTAP	41	240	7
NMTAP	41	288	0
NMTAP	41	288	7
NMTAP	41	336	0
NMTAP	41	336	7
NMTAP	42	48	1
EXTAP	42	192	0
EXTAP	42	192	1
NMTAP	42	336	2
NMTAP	43	0	2
NMTAP	43	48	2
NMTAP	43	144	3
NMTAP	43	144	4
NMTAP	43	192	3
NMTAP	43	192	4
NMTAP	43	240	3
NMTAP	43	240	4
NMTAP	43	336	5
EXTAP	44	96	6
EXTAP	44	96	7
NMTAP	44	240	5
NMTAP	44	288	5
NMTAP	44	336	5
NMTAP	45	48	3
NMTAP	45	48	4
NMTAP	45	96	3
NMTAP	45	96	4
NMHLD	45	144	3	96
NMHLD	45	144	4	96
NMTTP	46	0	1	B	0	L1
NMTTP	46	0	2	B	0	L1
NMTTP	46	192	0	B	0	L1
NMTTP	46	192	7	B	0	L1
NMTTP	47	0	5	B	0	L1
NMTTP	47	0	6	B	0	L1
NMTHO	47	192	0	336	C	1	L1
NMTTP	49	0	5	B	0	L1
NMTTP	49	0	6	B	0	L1
NMTTP	49	192	0	B	0	L1
NMTTP	49	192	7	B	0	L1
NMTTP	50	0	1	B	0	L1
NMTTP	50	0	2	B	0	L1
NMTHO	50	192	0	384	C	1	L1
EXSTR	52	0	1
NMSI_	52	0	1	96	144	4
NMTAP	53	0	5
NMTAP	53	96	5
NMSTR	53	192	6
NMSI_	53	192	6	96	144	3
NMTAP	54	192	2
NMTAP	54	288	2
NMSTR	55	0	1
NMSUR	55	0	1	96	336	4
NMSTR	56	144	6
NMSXL	56	144	6	96	336	3
NMTAP	58	144	2
NMTAP	58	192	2
NMTAP	58	240	1
NMTAP	58	288	1
NMTAP	58	336	0
NMTAP	59	0	0
NMTAP	59	48	6
NMTAP	59	48	7
NMTAP	59	144	0
NMTAP	59	144	5
NMTAP	59	336	5
NMTAP	60	0	5
NMTAP	60	48	6
NMTAP	60	96	6
NMTAP	60	144	7
NMTAP	60	192	7
NMTAP	60	240	0
NMTAP	60	240	1
NMTAP	60	336	2
NMTAP	60	336	7
NMTAP	61	144	1
NMTAP	61	192	1
NMTAP	61	240	2
NMTAP	61	288	2
NMTAP	61	336	3
NMTAP	62	0	3
NMTAP	62	48	4
NMTAP	62	48	5
NMTAP	62	144	3
NMTAP	62	144	6
NMTAP	62	336	6
NMTAP	63	0	6
NMTAP	63	48	5
NMTAP	63	96	5
NMTAP	63	144	4
NMTAP	63	192	4
NMTAP	63	240	2
NMTAP	63	240	3
NMTAP	63	336	1
NMTAP	63	336	4
NMTAP	64	144	2
NMTAP	64	192	2
NMTAP	64	240	2
NMTAP	64	288	2
NMTAP	64	336	2
NMTAP	65	48	0
NMTAP	65	48	1
NMTAP	65	144	0
NMTAP	65	144	7
NMTAP	65	240	6
NMTAP	65	240	7
NMTAP	65	336	5
NMTAP	66	0	5
NMTAP	66	48	5
NMTAP	66	96	5
NMTAP	66	144	5
NMTAP	66	240	6
NMTAP	66	240	7
NMTAP	66	336	0
NMTAP	66	336	7
NMTAP	67	48	0
NMTAP	67	48	1
NMTAP	67	144	1
NMTAP	67	192	1
NMTAP	67	240	1
NMTAP	67	288	1
NMTAP	67	336	1
NMTAP	68	48	2
NMTAP	68	48	3
NMTAP	68	144	3
NMTAP	68	144	4
NMTAP	68	240	4
NMTAP	68	240	5
NMTAP	68	336	6
NMTAP	69	0	6
NMTAP	69	48	6
NMTAP	69	96	6
NMTAP	69	144	6
NMTAP	69	240	5
NMTAP	69	336	4
NMTAP	70	48	3
NMTAP	70	144	2
NMTAP	70	240	1
BRTAP	70	336	0
BRTAP	70	336	7
NMTAP	71	96	1
NMTAP	71	144	1
NMTAP	71	192	2
NMTAP	71	240	2
NMTAP	71	288	3
NMTAP	71	336	3
NMTAP	72	0	4
NMTAP	72	48	4
NMTAP	72	96	5
NMTAP	72	144	5
NMTAP	72	192	6
NMTAP	72	240	6
NMTAP	72	288	7
NMTAP	72	336	7
EXHLD	73	0	0	96
EXHLD	73	0	1	96
NMTAP	73	192	2
NMTAP	73	240	2
NMTAP	73	288	2
NMTAP	74	0	0
NMTAP	74	0	1
NMTAP	74	48	0
NMTAP	74	48	1
NMTAP	74	96	0
NMTAP	74	96	1
NMTAP	74	192	6
NMTAP	74	192	7
NMTAP	74	240	6
NMTAP	74	240	7
NMTAP	74	288	6
NMTAP	74	288	7
NMTAP	75	0	0
NMTAP	75	0	5
NMTAP	75	96	5
NMTAP	75	144	5
NMTAP	75	192	5
NMTAP	75	288	6
NMTAP	75	288	7
NMTAP	75	336	6
NMTAP	75	336	7
NMTAP	76	0	6
NMTAP	76	0	7
NMTAP	76	96	0
NMTAP	76	96	1
NMTAP	76	144	0
NMTAP	76	144	1
NMTAP	76	192	0
NMTAP	76	192	1
NMTAP	76	288	2
NMTAP	76	288	7
NMTAP	77	0	1
NMTAP	77	48	1
NMTAP	77	96	0
NMTAP	77	96	1
NMTAP	77	144	0
NMTAP	77	144	1
NMTAP	77	192	2
NMTAP	77	240	2
NMTAP	77	288	2
NMTAP	77	288	3
NMTAP	77	336	2
NMTAP	77	336	3
NMTAP	78	0	4
NMTAP	78	48	4
NMTAP	78	96	4
NMTAP	78	96	5
NMTAP	78	144	4
NMTAP	78	144	5
NMTAP	78	192	4
NMTAP	78	192	5
NMTAP	78	288	6
NMTAP	78	336	6
NMTAP	79	0	6
NMTAP	79	0	7
NMTAP	79	48	6
NMTAP	79	48	7
NMTAP	79	96	5
NMTAP	79	144	5
NMTAP	79	192	4
NMTAP	79	192	5
NMTAP	79	240	4
NMTAP	79	240	5
NMTAP	79	288	3
NMTAP	79	336	3
NMTAP	80	0	2
NMTAP	80	0	3
NMTAP	80	48	2
NMTAP	80	48	3
NMTAP	80	96	2
NMTAP	80	96	3
NMTAP	80	192	4
NMTAP	80	240	4
NMTAP	80	288	5
NMTAP	80	336	5
NMTAP	81	0	6
NMTAP	81	48	6
NMTAP	81	96	7
NMTAP	81	144	7
NMTAP	81	192	0
NMTAP	81	240	0
NMTAP	81	288	1
NMTAP	81	336	1
NMTAP	82	0	2
NMTAP	82	48	2
NMSTR	82	96	3
NMSI_	82	96	3	96	96	7
NMSTR	82	96	4
NMSI_	82	96	4	96	96	0

T_REC_TAP	368
T_REC_BRK	2
T_REC_XTP	14
T_REC_BXX	0
T_REC_HLD	8
T_REC_XHO	2
T_REC_BHO	0
T_REC_BXH	0
T_REC_STR	8
T_REC_BST	0
T_REC_XST	2
T_REC_XBS	0
T_REC_TTP	12
T_REC_THO	2
T_REC_SLD	10
T_REC_BSL	0
T_REC_ALL	428
T_NUM_TAP	404
T_NUM_BRK	2
T_NUM_HLD	12
T_NUM_SLD	10
T_NUM_ALL	428
T_JUDGE_TAP	406
T_JUDGE_HLD	47
T_JUDGE_SLD	10
T_JUDGE_ALL	463
TTM_EACHPAIRS	106
TTM_SCR_TAP	202000
TTM_SCR_BRK	5200
TTM_SCR_HLD	12000
TTM_SCR_SLD	15000
TTM_SCR_ALL	234200
TTM_SCR_S	227000
TTM_SCR_SS	234000
TTM_RAT_ACV	10008

