VERSION	0.00.00	1.05.00
FES_MODE	0
BPM_DEF	292.000	292.000	292.000	146.000
MET_DEF	4	4
RESOLUTION	384
CLK_DEF	384
COMPATIBLE_CODE	MA2

BPM	0	0	292.000
BPM	58	0	146.000
BPM	66	0	292.000
BPM	154	0	146.000
BPM	155	0	292.000
MET	0	0	4	4

NMTTP	2	0	1	E	0	M1
NMTTP	2	48	2	E	0	M1
NMTTP	2	96	3	E	0	M1
NMTTP	2	144	4	E	0	M1
NMTTP	2	192	5	E	0	M1
NMTTP	2	240	6	E	0	M1
NMTTP	2	288	1	D	0	M1
NMTTP	2	336	2	D	0	M1
NMTTP	3	0	3	D	0	M1
NMTTP	3	48	4	D	0	M1
NMTTP	3	96	5	D	0	M1
NMTTP	3	144	6	D	0	M1
NMTTP	3	192	0	E	0	M1
NMTTP	3	192	7	D	0	M1
NMTTP	4	0	7	E	0	M1
NMTTP	4	48	6	E	0	M1
NMTTP	4	96	5	E	0	M1
NMTTP	4	144	4	E	0	M1
NMTTP	4	192	3	E	0	M1
NMTTP	4	240	2	E	0	M1
NMTTP	4	288	7	D	0	M1
NMTTP	4	336	6	D	0	M1
NMTTP	5	0	5	D	0	M1
NMTTP	5	48	4	D	0	M1
NMTTP	5	96	3	D	0	M1
NMTTP	5	144	2	D	0	M1
NMTHO	5	192	0	192	C	0	M1
NMTTP	5	192	1	D	0	M1
NMTTP	6	0	0	B	0	M1
NMTTP	6	0	0	E	1	M1
NMTTP	6	0	0	A	0	M1
NMTTP	6	0	0	D	0	M1
NMTTP	6	0	7	B	0	M1
NMTTP	6	0	7	A	0	M1
EXTAP	8	0	1
EXTAP	8	0	7
EXHLD	8	96	1	480
EXTAP	8	96	7
NMHLD	9	0	0	192
NMTHO	10	0	0	384	C	0	M1
NMTTP	10	0	2	B	0	M1
NMTTP	10	0	2	E	0	M1
NMTTP	10	0	2	A	1	M1
NMTTP	10	0	2	D	0	M1
EXTAP	12	0	0
EXTAP	12	0	7
EXHLD	12	96	0	96
EXHLD	12	96	7	96
EXTAP	12	240	0
EXTAP	12	240	7
EXHLD	12	336	1	96
EXHLD	12	336	6	96
EXTAP	13	96	1
EXTAP	13	96	6
EXTAP	13	192	2
EXTAP	13	192	5
EXSTR	13	288	3
NMSI_	13	288	3	96	96	0
EXTAP	14	0	4
CNSI_	14	96	0	0	96	6
NMTAP	14	192	5
NMSTR	14	288	5
NMSI_	14	288	5	96	96	0
EXTAP	15	0	4
CNSI_	15	96	0	0	96	2
NMTAP	15	192	3
NMSTR	15	288	3
NMSI_	15	288	3	96	96	0
EXTAP	16	0	4
CNSI_	16	96	0	0	96	6
NMTAP	16	192	5
NMSTR	16	288	5
NMSI_	16	288	5	96	96	0
EXTAP	17	0	4
CNSI_	17	96	0	0	96	2
CNSI_	17	192	2	0	96	7
NMTAP	17	192	3
NMTAP	17	288	3
NMHLD	18	0	4	48
NMHLD	18	0	6	48
NMTAP	18	96	4
NMTAP	18	96	6
NMHLD	18	192	2	48
NMHLD	18	192	3	48
NMTAP	18	288	2
NMTAP	18	288	3
NMHLD	19	0	4	48
NMHLD	19	0	5	48
BRTAP	19	96	4
BRTAP	19	96	5
NMHLD	19	192	1	48
NMHLD	19	192	3	48
NMTAP	19	288	1
NMTAP	19	288	3
NMTAP	20	0	0
NMTAP	20	48	0
NMTAP	20	96	4
NMTAP	20	144	4
NMTAP	20	192	1
NMTAP	20	240	1
NMTAP	20	288	3
NMTAP	20	336	3
NMTAP	21	0	2
NMTAP	21	48	2
NMTAP	21	96	7
NMTAP	21	144	7
NMTAP	21	192	3
NMTAP	21	240	3
NMSTR	21	288	6
BRSI_	21	288	6	96	96	0
NMTTP	22	0	4	B	0	M1
NMTTP	22	0	5	B	0	M1
NMTTP	22	0	5	E	1	M1
CNSI_	22	96	0	0	96	2
CNSI_	22	192	2	0	96	4
CNSCR	22	288	4	0	288	3
NMTAP	24	0	1
NMTAP	24	48	1
NMTAP	24	96	3
NMTAP	24	144	3
EXTAP	24	192	0
EXTAP	24	216	1
EXTAP	24	240	2
NMTAP	24	288	6
NMTAP	24	336	6
NMTAP	25	0	4
NMTAP	25	48	4
EXTAP	25	96	7
EXTAP	25	120	6
EXTAP	25	144	5
NMTAP	25	192	2
NMTAP	25	192	3
BRTAP	25	288	0
BRTAP	25	288	5
NMTAP	26	0	0
NMSTR	26	0	6
NMSI_	26	0	6	96	48	4
NMTAP	26	96	0
NMTAP	26	192	0
NMTAP	26	192	3
NMTAP	26	288	0
NMTAP	26	288	3
NMTAP	27	0	1
NMSTR	27	0	7
NMSI_	27	0	7	96	48	3
NMTAP	27	96	1
NMTAP	27	192	1
NMTAP	27	192	4
NMTAP	27	288	1
NMTAP	27	288	4
NMSTR	28	0	1
NMSI_	28	0	1	96	48	3
NMTAP	28	0	5
NMTAP	28	96	5
NMTAP	28	192	4
NMTAP	28	192	6
NMTAP	28	288	4
NMTAP	28	288	6
NMTAP	29	0	4
NMTAP	29	0	5
NMTAP	29	96	2
NMSTR	29	96	3
NMSF_	29	96	3	96	96	7
NMSTR	30	0	0
NMSI_	30	0	0	96	48	4
NMTAP	30	0	5
NMTAP	30	96	5
NMTAP	30	192	3
NMTAP	30	192	6
NMTAP	30	288	2
NMTAP	30	288	6
NMSTR	31	0	1
NMSI_	31	0	1	96	48	5
NMTAP	31	0	7
NMTAP	31	96	7
NMTAP	31	192	4
NMTAP	31	192	7
NMTAP	31	288	3
NMTAP	31	288	6
NMTAP	32	0	0
NMTAP	32	0	1
NMHLD	32	48	0	48
NMHLD	32	48	1	48
NMTAP	32	192	6
NMTAP	32	192	7
NMHLD	32	240	6	48
NMHLD	32	240	7	48
NMSTR	33	0	0
NMSI_	33	0	0	96	96	3
NMTAP	33	0	5
NMTAP	33	96	6
CNSCR	33	192	3	0	96	5
BRHLD	33	192	7	192
NMTTP	34	0	4	B	0	M1
NMTTP	34	96	6	B	0	M1
NMHLD	34	192	2	96
NMTAP	34	288	3
NMTTP	35	0	1	B	0	M1
NMTTP	35	0	1	A	0	M1
NMTTP	35	48	7	B	0	M1
NMTTP	35	48	7	A	0	M1
NMTTP	35	96	3	B	0	M1
NMTTP	35	96	3	A	0	M1
NMTTP	35	144	5	B	0	M1
NMTTP	35	144	5	A	0	M1
EXTAP	35	192	0
EXHLD	35	288	0	96
NMTTP	36	0	3	B	0	M1
NMTTP	36	96	1	B	0	M1
NMHLD	36	192	5	96
NMTAP	36	288	4
NMTAP	37	0	6
NMTAP	37	48	7
NMTAP	37	96	5
NMTAP	37	144	0
NMTTP	37	192	3	B	0	M1
NMTTP	37	192	4	B	0	M1
NMTTP	37	192	4	E	1	M1
NMSTR	38	0	1
BRSI_	38	0	1	96	48	3
NMTAP	38	48	1
NMTAP	38	96	7
NMTAP	38	144	7
NMSTR	38	192	0
BRSI_	38	192	0	96	48	4
NMTAP	38	240	0
NMTAP	38	288	6
NMTAP	38	336	6
NMSTR	39	0	1
BRSI_	39	0	1	96	48	3
NMTAP	39	48	1
NMTAP	39	96	5
NMTAP	39	144	5
BRTAP	39	192	0
BRTAP	39	288	1
BRTAP	39	288	4
NMTAP	40	0	2
NMTAP	40	24	3
NMHLD	40	48	2	48
NMTAP	40	144	4
NMTAP	40	168	3
NMHLD	40	192	4	48
NMSTR	40	288	3
NMSCR	40	288	3	96	192	0
NMTAP	40	288	5
NMTTP	41	0	4	B	1	M1
EXHLD	42	0	0	384
NMHLD	43	0	2	384
NMHLD	44	0	4	384
NMTAP	45	0	5
NMTAP	45	192	3
NMTAP	45	192	5
NMTAP	45	288	1
NMTAP	45	288	7
NMTAP	46	0	0
NMTAP	46	48	6
NMTAP	46	96	0
NMTAP	46	144	6
NMTAP	46	192	2
NMTAP	46	240	6
NMTAP	46	288	0
BRTAP	46	336	6
NMTAP	46	360	5
NMTAP	47	0	4
NMTAP	47	48	2
NMTAP	47	96	6
NMTAP	47	144	0
NMTAP	47	192	6
BRTAP	47	240	0
NMTAP	47	264	1
NMTAP	47	288	2
NMTAP	47	336	7
NMTAP	48	0	1
NMTAP	48	48	7
NMTAP	48	96	1
NMTAP	48	144	7
NMTAP	48	192	3
NMTAP	48	240	7
NMTAP	48	288	1
BRTAP	48	336	7
NMTAP	48	360	6
NMTAP	49	0	5
NMTAP	49	48	1
NMTAP	49	96	7
NMTAP	49	144	1
BRTAP	49	192	7
NMTAP	49	216	6
NMTAP	49	240	5
NMTAP	49	264	4
NMTTP	49	288	1	B	0	M1
NMTTP	49	288	2	B	0	M1
NMTTP	49	288	2	E	1	M1
BXTAP	49	288	3
NMHLD	50	0	0	288
NMHLD	51	0	1	96
NMHLD	51	0	7	96
NMTAP	51	192	2
NMTAP	51	192	6
NMHLD	51	288	3	96
NMHLD	51	288	5	96
NMTAP	52	96	4
NMTAP	52	96	6
NMTAP	52	192	4
NMTAP	52	192	6
NMTAP	52	288	3
NMTAP	52	336	5
NMTAP	53	0	3
NMHLD	53	48	4	96
NMTAP	53	144	2
NMTAP	53	192	3
NMTAP	53	288	1
NMTAP	53	288	4
NMTAP	54	0	0
NMTAP	54	48	6
NMTAP	54	96	2
NMTAP	54	144	6
NMTAP	54	192	0
BRTAP	54	240	6
NMTAP	54	264	5
NMHLD	54	288	4	48
BRTAP	54	336	0
NMTAP	54	360	1
NMHLD	55	0	2	48
NMTAP	55	48	7
NMTAP	55	96	1
NMTAP	55	144	5
NMTAP	55	192	1
BRTAP	55	240	5
NMTAP	55	264	6
NMHLD	55	288	7	48
NMTAP	55	336	1
NMTAP	56	0	2
NMTAP	56	48	2
NMTAP	56	96	7
NMTAP	56	120	6
NMHLD	56	144	5	48
NMTAP	56	192	1
NMTAP	56	240	1
NMTAP	56	288	4
NMTAP	56	312	5
NMHLD	56	336	6	48
NMTAP	57	0	0
NMTAP	57	24	1
NMTAP	57	48	2
NMTAP	57	72	3
NMTAP	57	96	4
NMTAP	57	120	5
NMTAP	57	144	6
NMTAP	57	168	7
NMTAP	57	192	0
NMTAP	57	216	1
NMTAP	57	240	2
NMTAP	57	264	3
BRTAP	57	288	4
BRSTR	57	288	7
NMSI_	57	288	7	96	96	4
CNSI_	58	96	4	0	96	1
CNSI_	58	192	1	0	96	6
CNSI_	58	288	6	0	96	3
CNSI_	59	0	3	0	96	0
CNSI_	59	96	0	0	96	5
NMHLD	59	288	3	12
NMHLD	59	288	4	12
NMTAP	60	0	2
NMHLD	60	48	2	96
NMTTP	60	96	2	B	0	M1
NMTTP	60	96	3	B	0	M1
NMTAP	60	192	5
NMHLD	60	240	5	96
NMTTP	60	288	4	B	0	M1
NMTTP	60	288	5	B	0	M1
NMTAP	61	0	1
NMHLD	61	48	1	96
NMTTP	61	96	0	B	0	M1
NMTTP	61	96	1	B	0	M1
NMTAP	61	192	6
NMHLD	61	240	6	96
NMTTP	61	288	6	B	0	M1
NMTTP	61	288	7	B	0	M1
NMSTR	62	0	0
NMSUR	62	0	0	96	96	4
NMSTR	62	96	4
BRSLL	62	96	4	96	96	0
NMTAP	62	120	5
NMTAP	62	144	6
NMTAP	62	168	7
BXTAP	62	192	0
NMTAP	62	288	6
NMSTR	63	0	5
NMSUR	63	0	5	96	96	1
NMSTR	63	96	1
BRSLL	63	96	1	96	96	5
NMTAP	63	120	2
NMTAP	63	144	3
NMTAP	63	168	4
BXSTR	63	192	5
NMSLL	63	192	5	96	96	1
NMTAP	63	288	1
BRHLD	64	0	0	384
NMTAP	64	192	1
NMTAP	64	288	1
NMTAP	65	0	2
NMTAP	65	48	1
NMTAP	65	48	7
NMTAP	65	96	0
NMTAP	65	96	6
NMTAP	65	144	5
NMTAP	65	144	7
NMTAP	65	192	6
NMTAP	65	216	0
NMTAP	65	240	6
NMTAP	65	264	0
NMTAP	65	288	7
NMTAP	65	300	0
NMTAP	65	300	6
NMTAP	65	312	1
NMTAP	65	312	5
NMTAP	65	324	2
NMTAP	65	324	4
NMTAP	65	336	3
BXSTR	66	0	0
NMSSL	66	0	0	96	288	4
BXTAP	66	0	1
CNSCR	67	0	4	0	384	7
CNSSR	68	0	7	0	288	3
NMTAP	69	48	2
NMTAP	69	72	3
NMTAP	69	96	2
NMTAP	69	192	3
NMTAP	69	192	4
NMTAP	69	288	4
NMTAP	69	288	5
NMHLD	70	0	6	672
NMTAP	71	288	5
EXHLD	72	0	4	96
EXHLD	72	0	7	96
EXHLD	72	192	3	96
EXHLD	72	192	6	96
EXTAP	72	336	3
EXTAP	72	336	6
NMTAP	73	48	5
NMTAP	73	72	4
NMTAP	73	96	5
NMTAP	73	192	6
NMTAP	73	192	7
NMTAP	73	288	0
NMTAP	73	288	7
NMHLD	74	0	0	192
NMSTR	74	0	1
NMSCR	74	0	1	96	192	5
NMSTR	75	0	6
NMSCL	75	0	6	96	192	2
NMHLD	75	0	7	192
NMSTR	76	0	0
NMSCL	76	0	0	96	192	4
NMHLD	76	0	1	192
NMHLD	77	0	2	192
NMSTR	77	0	3
NMSCR	77	0	3	96	192	7
NMTAP	78	0	3
NMTAP	78	0	6
NMTAP	78	96	2
NMTAP	78	96	5
NMTAP	78	192	1
NMTAP	78	192	4
NMTAP	78	288	2
NMTAP	78	288	5
NMTAP	79	0	4
NMTAP	79	0	6
NMTAP	79	96	3
NMTAP	79	96	4
NMTAP	79	192	1
NMTAP	79	192	3
NMTAP	79	288	0
NMSTR	79	288	4
NMSCR	79	288	4	96	96	7
NMSTR	80	0	7
NMSCR	80	0	7	96	96	2
NMTAP	80	96	2
NMTAP	80	192	4
NMSTR	80	240	4
NMSF_	80	240	4	96	48	0
NMTTP	80	336	4	A	1	M1
NMTTP	80	336	4	D	0	M1
NMTTP	80	336	5	D	0	M1
NMTAP	81	192	0
NMTAP	81	216	7
NMTAP	81	240	0
NMTAP	81	264	7
NMTAP	81	288	0
NMTAP	82	0	1
NMSTR	82	0	6
NMSCL	82	0	6	96	288	1
CNSCL	83	0	1	0	384	4
NMSTR	84	0	3
NMSI_	84	0	3	96	96	0
NMSTR	84	96	3
NMSI_	84	96	3	96	96	6
NMTHO	85	0	0	192	C	0	M1
NMTAP	86	0	6
NMTAP	86	48	7
NMTAP	86	96	6
NMTAP	86	144	7
NMTAP	86	192	5
NMTAP	86	240	0
NMHLD	86	288	5	96
NMTAP	87	0	2
NMTAP	87	48	3
NMTAP	87	96	2
NMTAP	87	144	3
NMTAP	87	192	1
NMTAP	87	240	4
NMTAP	87	288	1
NMTAP	88	0	0
NMTAP	88	0	2
NMTAP	88	96	3
NMTAP	88	96	7
NMTAP	88	192	4
NMTAP	88	192	6
NMSTR	88	240	4
BRSI_	88	240	4	96	96	0
NMSTR	88	240	6
BRSI_	88	240	6	96	96	2
BRTAP	89	192	1
BRTAP	89	192	7
NMTAP	89	288	2
NMTAP	89	288	6
NMTAP	90	0	3
NMTAP	90	48	3
NMTAP	90	96	4
NMTAP	90	144	4
NMTAP	90	192	2
NMTAP	90	216	3
NMTAP	90	240	2
NMTAP	90	264	3
BRTAP	90	288	2
NMTAP	91	0	4
NMTAP	91	48	4
NMTAP	91	96	3
NMTAP	91	144	3
NMTAP	91	192	5
NMTAP	91	216	4
NMTAP	91	240	5
NMTAP	91	264	4
BRTAP	91	288	5
NMTAP	92	0	3
NMTAP	92	48	3
NMTAP	92	96	4
NMTAP	92	144	4
NMTAP	92	192	1
NMTAP	92	216	3
NMTAP	92	240	1
NMTAP	92	264	3
BRTAP	92	288	1
NMTAP	93	0	4
NMTAP	93	48	4
NMTAP	93	96	3
NMTAP	93	144	3
NMTAP	93	192	6
NMTAP	93	216	4
NMTAP	93	240	6
NMTAP	93	264	4
BRTAP	93	288	6
NMTAP	94	0	3
NMTAP	94	0	5
NMTAP	94	96	2
NMTAP	94	144	2
NMTAP	94	144	4
NMTAP	94	240	5
NMTAP	94	288	3
NMTAP	94	288	5
NMTAP	95	0	1
NMTAP	95	48	1
NMTAP	95	48	3
NMTAP	95	144	5
NMTAP	95	192	3
NMTAP	95	192	5
NMTAP	95	288	2
NMTAP	95	336	2
NMTAP	95	336	4
NMTAP	96	48	1
NMTAP	96	48	3
NMHLD	96	96	1	48
NMHLD	96	96	3	48
NMHLD	96	192	2	48
NMHLD	96	192	4	48
NMHLD	96	288	3	48
NMHLD	96	288	5	48
NMHLD	97	0	4	48
NMHLD	97	0	6	48
NMHLD	97	96	5	48
NMHLD	97	96	7	48
EXTAP	97	192	0
EXTAP	97	192	6
EXTAP	97	240	0
EXTAP	97	240	6
BXTAP	97	336	1
BXTAP	97	336	5
NMTAP	97	360	2
NMTAP	98	0	3
NMTAP	98	24	4
NMTAP	98	48	5
NMTAP	98	72	6
NMTAP	98	96	7
NMTAP	98	120	0
NMTAP	98	144	1
NMTAP	98	168	2
NMTAP	98	192	3
NMTAP	98	216	4
NMTAP	98	240	5
NMTAP	98	264	6
NMTAP	98	288	7
NMTAP	98	312	0
NMTAP	98	336	1
NMTAP	98	360	2
NMTAP	99	0	3
NMTAP	99	24	4
NMTAP	99	48	5
NMTAP	99	72	6
NMTAP	99	96	7
NMTAP	99	120	0
NMTAP	99	144	1
NMTAP	99	168	2
NMTAP	99	192	3
NMTAP	99	216	4
NMTAP	99	240	5
NMTAP	99	264	6
NMTAP	99	288	7
NMTAP	99	312	0
NMTAP	99	336	1
NMTAP	99	360	2
NMSTR	100	0	3
NMSCR	100	0	3	96	144	0
NMTAP	101	0	1
NMTAP	101	0	6
NMSTR	101	96	0
NMSI_	101	96	0	96	48	3
NMSTR	101	96	5
NMSCL	101	96	5	96	48	3
BRTAP	101	192	0
BRTAP	101	192	5
BRTAP	102	0	1
NMTAP	102	48	1
NMSTR	102	96	7
NMSI_	102	96	7	96	48	3
NMTAP	102	144	7
NMTAP	102	192	2
NMTAP	102	216	1
NMTAP	102	240	0
NMTAP	102	288	4
NMTAP	102	312	5
NMTAP	102	336	6
NMTAP	103	0	2
NMTAP	103	48	2
NMSTR	103	96	4
NMSI_	103	96	4	96	48	0
NMTAP	103	144	4
NMTAP	103	192	1
NMTAP	103	216	2
NMTAP	103	240	3
NMTAP	103	288	7
NMTAP	103	312	6
NMTAP	103	336	5
NMTAP	104	0	1
NMTAP	104	48	1
NMSTR	104	96	7
NMSI_	104	96	7	96	48	3
NMTAP	104	144	7
NMTAP	104	192	2
NMTAP	104	216	1
NMTAP	104	240	0
NMTAP	104	288	4
NMTAP	104	312	5
NMTAP	104	336	6
NMTAP	105	0	0
NMTAP	105	48	0
NMTAP	105	96	6
NMTAP	105	144	6
NMTAP	105	192	4
NMTAP	105	240	3
NMTAP	105	288	2
NMSTR	105	288	7
NMSI_	105	288	7	96	48	3
BRTAP	106	0	0
BRTAP	106	0	7
NMTAP	106	96	2
NMTAP	106	192	1
NMSTR	106	240	1
NMSI_	106	240	1	96	48	4
NMSTR	106	336	1
NMSI_	106	336	1	96	48	6
NMTAP	107	48	1
NMTAP	107	144	5
NMTAP	107	192	5
NMTAP	107	288	6
NMTAP	107	288	7
NMTAP	108	0	0
NMTAP	108	0	1
NMTAP	108	96	2
NMTAP	108	96	3
NMTAP	108	192	4
NMTAP	108	192	6
NMSTR	108	240	4
NMSI_	108	240	4	96	48	0
NMSTR	108	240	6
NMSI_	108	240	6	96	48	2
BRTAP	108	336	4
BRTAP	108	336	6
EXTAP	109	48	1
EXTAP	109	96	1
EXTAP	109	96	3
NMTAP	109	192	2
NMTAP	109	216	4
NMTAP	109	240	2
NMTAP	109	288	1
NMTAP	109	288	5
BRTAP	110	0	6
NMTAP	110	48	6
NMSTR	110	96	0
NMSI_	110	96	0	96	48	4
NMTAP	110	144	0
NMTAP	110	192	5
NMTAP	110	216	6
NMTAP	110	240	7
NMTAP	110	288	3
NMTAP	110	312	2
NMTAP	110	336	1
NMTAP	111	0	5
NMTAP	111	48	5
NMSTR	111	96	3
NMSI_	111	96	3	96	48	7
NMTAP	111	144	3
NMTAP	111	192	6
NMTAP	111	216	5
NMTAP	111	240	4
NMTAP	111	288	0
NMTAP	111	312	1
NMTAP	111	336	2
NMTAP	112	0	6
NMTAP	112	48	6
NMSTR	112	96	0
NMSI_	112	96	0	96	48	4
NMTAP	112	144	0
NMTAP	112	192	5
NMTAP	112	216	6
NMTAP	112	240	7
NMTAP	112	288	3
NMTAP	112	312	2
NMTAP	112	336	1
NMTAP	113	0	6
NMTAP	113	48	6
NMTAP	113	96	0
NMTAP	113	144	0
NMTAP	113	192	2
NMTAP	113	240	2
NMSTR	113	288	0
NMSI_	113	288	0	96	48	4
NMSI_	113	288	0	96	48	5
NMTAP	113	288	1
BRTAP	114	0	0
NMTAP	114	192	6
NMTAP	114	192	7
NMTAP	114	240	6
NMTAP	114	240	7
NMHLD	114	336	0	96
NMSTR	114	336	1
NMSCR	114	336	1	96	48	4
NMTAP	115	48	1
NMTAP	115	144	7
NMTAP	115	192	7
NMTAP	115	288	0
NMTAP	115	288	6
NMTAP	116	0	4
NMTAP	116	0	5
NMTAP	116	96	1
NMTAP	116	96	3
NMTAP	116	192	0
NMTAP	116	192	5
NMSTR	116	240	0
NMSXL	116	240	0	96	240	3
NMSTR	116	240	5
NMSXL	116	240	5	96	240	0
BRTAP	116	336	0
BRTAP	116	336	5
NMHLD	118	0	1	288
NMTAP	118	192	3
NMHLD	118	288	3	288
NMTAP	119	96	4
NMHLD	119	192	4	288
NMTAP	120	0	6
NMHLD	120	96	6	288
NMTAP	120	288	0
NMHLD	121	0	0	192
NMTAP	121	192	2
NMHLD	121	288	2	288
NMTAP	122	96	3
NMTAP	122	192	3
NMTAP	122	288	1
NMTAP	122	288	4
NMHLD	123	0	2	96
BRHLD	123	0	3	96
BRHLD	123	144	2	96
NMHLD	123	144	3	96
NMHLD	123	288	5	96
BRHLD	123	288	7	96
BRHLD	124	48	5	96
NMHLD	124	48	7	96
BRTAP	124	192	0
NMTAP	124	192	4
NMTAP	124	288	0
BRTAP	124	288	4
NMTAP	125	0	1
NMTAP	125	32	2
NMTAP	125	64	3
NMTAP	125	96	1
NMTAP	125	128	2
NMTAP	125	160	3
NMTAP	125	192	1
NMTAP	125	224	2
NMTAP	125	256	3
NMTAP	125	288	1
NMTAP	125	320	2
NMTAP	125	352	3
NMTAP	126	0	6
NMTAP	126	32	5
NMTAP	126	64	4
NMTAP	126	96	6
NMTAP	126	128	5
NMTAP	126	160	4
NMTAP	126	192	6
NMTAP	126	224	5
NMTAP	126	256	4
NMTAP	126	288	6
NMTAP	126	320	5
NMTAP	126	352	4
NMTHO	127	0	0	1152	C	0	M1
NMSTR	130	192	0
BRSCR	130	192	0	96	48	3
NMSTR	130	192	7
BRSCL	130	192	7	96	48	4
BXTAP	131	0	2
BXTAP	131	0	5
NMSTR	131	96	6
NMSI_	131	96	6	96	48	2
NMTAP	131	144	6
NMSTR	131	192	1
NMSI_	131	192	1	96	48	5
NMTAP	131	240	1
NMSTR	131	288	7
NMSI_	131	288	7	96	48	3
NMTAP	131	336	7
NMSTR	132	0	0
NMSI_	132	0	0	96	48	4
NMTAP	132	48	0
NMSTR	132	96	6
NMSI_	132	96	6	96	48	2
NMTAP	132	144	6
NMSTR	132	192	1
NMSI_	132	192	1	96	48	5
NMTAP	132	240	1
NMTAP	132	288	7
NMTAP	132	336	7
NMTAP	133	0	4
NMTAP	133	0	6
NMTAP	133	96	2
NMTAP	133	96	3
NMTAP	133	192	0
NMTAP	133	192	5
NMTAP	133	240	0
NMTAP	133	240	5
NMTAP	133	336	3
NMTAP	133	336	7
NMTAP	134	48	5
NMTAP	134	72	4
NMTAP	134	96	5
NMTAP	134	144	3
NMTAP	134	192	6
NMTAP	134	216	7
NMTAP	134	240	6
NMTAP	134	288	0
NMTAP	134	288	5
BRSTR	135	0	6
BRSI_	135	0	6	96	48	3
NMTAP	135	48	6
NMTAP	135	96	0
NMTAP	135	144	0
NMTAP	135	192	4
NMTAP	135	216	5
NMTAP	135	240	6
NMHLD	135	264	7	168
NMTAP	135	288	1
NMTAP	135	312	2
NMHLD	135	336	3	96
NMTAP	136	96	0
NMTAP	136	96	2
NMTAP	136	192	1
NMTAP	136	216	0
NMTAP	136	216	2
NMTAP	136	240	3
NMTAP	136	240	7
NMTAP	136	264	4
NMTAP	136	264	6
NMTAP	136	288	5
BRSTR	137	0	1
BRSI_	137	0	1	96	48	4
NMTAP	137	48	1
NMTAP	137	96	7
NMTAP	137	144	7
NMTAP	137	192	3
NMTAP	137	216	2
NMTAP	137	240	1
NMHLD	137	264	0	168
NMTAP	137	288	6
NMTAP	137	312	5
NMHLD	137	336	4	96
NMTAP	138	96	5
NMTAP	138	96	7
NMTAP	138	192	6
NMTAP	138	216	5
NMTAP	138	216	7
NMTAP	138	240	0
NMTAP	138	240	4
NMTAP	138	264	1
NMTAP	138	264	3
NMTAP	138	288	2
BRTAP	139	0	3
BRTAP	139	0	6
NMTAP	139	96	5
NMTAP	139	120	4
NMTAP	139	144	5
NMTAP	139	192	2
NMTAP	139	216	3
NMTAP	139	240	2
NMTAP	139	288	1
NMTAP	139	288	4
BRTAP	139	336	1
BRTAP	139	336	4
BRTAP	140	48	0
BRTAP	140	48	7
BRTAP	140	144	2
BRTAP	140	144	6
BRSTR	140	192	2
NMSI_	140	192	2	96	48	7
BRSTR	140	192	6
NMSI_	140	192	6	96	48	3
BRTAP	140	288	2
BRTAP	140	288	6
BRTAP	141	0	0
BRTAP	141	0	4
NMTAP	141	96	1
NMTAP	141	96	5
NMTAP	141	192	3
NMTAP	141	192	7
NMSTR	141	240	3
NMSLL	141	240	3	96	144	6
NMSTR	141	240	7
NMSLL	141	240	7	96	144	2
BRTAP	141	336	3
BRTAP	141	336	7
NMTHO	143	0	0	576	C	0	M1
NMTAP	145	0	6
NMTAP	145	0	7
NMTAP	145	96	0
NMTAP	145	96	5
NMHLD	145	192	1	96
NMHLD	145	192	4	96
NMTAP	146	0	2
NMTAP	146	24	3
NMTAP	146	48	2
NMTAP	146	96	4
NMTAP	146	144	2
NMTAP	146	168	3
NMTAP	146	192	2
NMTAP	146	240	4
NMTAP	146	288	1
NMTAP	146	312	3
NMTAP	146	336	1
NMTAP	147	0	5
NMTAP	147	48	0
NMTAP	147	72	3
NMTAP	147	96	0
NMTAP	147	144	6
NMTAP	147	144	7
NMTAP	147	192	6
NMTAP	147	192	7
NMTAP	147	288	5
NMTAP	147	312	4
NMTAP	147	336	5
NMTAP	148	0	3
NMTAP	148	48	5
NMTAP	148	72	4
NMTAP	148	96	5
NMTAP	148	144	3
NMTAP	148	192	6
NMTAP	148	216	4
NMTAP	148	240	6
NMTAP	148	288	2
NMTAP	148	336	7
NMTAP	148	360	4
NMTAP	149	0	7
NMTAP	149	48	1
NMTAP	149	96	6
NMTAP	149	120	7
NMTAP	149	144	6
NMTAP	149	192	1
NMTAP	149	216	0
NMTAP	149	240	1
BRTAP	149	288	2
BRTAP	149	288	7
NMHLD	150	0	3	96
NMHLD	150	0	6	96
NMHLD	150	144	1	96
NMHLD	150	144	4	96
NMHLD	150	288	3	96
NMHLD	150	288	5	96
NMHLD	151	48	1	96
NMHLD	151	48	7	96
NMTAP	151	192	0
NMTAP	151	240	0
NMTAP	151	288	7
NMTAP	151	336	1
NMTAP	152	0	1
NMTAP	152	48	0
NMSTR	152	96	2
NMSI_	152	96	2	96	48	7
NMSTR	152	192	4
NMSI_	152	192	4	96	48	1
NMSTR	152	288	0
NMSI_	152	288	0	96	48	5
NMSTR	153	0	6
NMSI_	153	0	6	96	48	3
NMSTR	153	96	1
NMSI_	153	96	1	96	48	4
NMSTR	153	192	7
NMSI_	153	192	7	96	48	2
NMTAP	153	288	0
BRHLD	154	0	0	48
BRHLD	154	96	0	48
BRHLD	154	192	0	48
BRHLD	154	192	7	48
NMTAP	154	288	0
NMTAP	154	300	7
NMTAP	154	312	0
NMTAP	154	324	7
NMTAP	154	336	0
NMTAP	154	348	7
NMTAP	154	360	0
NMTAP	154	372	7
BRHLD	155	0	0	0
NMTAP	155	16	1
NMTAP	155	32	2
NMTAP	155	48	3
NMTAP	155	64	4
NMTAP	155	80	5
NMTAP	155	96	6
NMTAP	155	112	7
NMTAP	155	128	0
NMTAP	155	144	1
NMTAP	155	160	2
NMTAP	155	176	3
NMTAP	155	192	4
BRHLD	155	192	7	0
NMTAP	155	208	6
NMTAP	155	224	5
NMTAP	155	240	4
NMTAP	155	256	3
NMTAP	155	272	2
NMTAP	155	288	1
NMTAP	155	304	0
NMTAP	155	320	7
NMTAP	155	336	6
NMTAP	155	352	5
NMTAP	155	368	4
NMTAP	156	0	3
BRHLD	156	0	7	0
NMTAP	156	16	0
NMTAP	156	32	1
NMTAP	156	48	2
NMTAP	156	64	3
NMTAP	156	80	4
BXTAP	156	96	5
NMTAP	156	112	6
NMTAP	156	128	7
NMTAP	156	144	0
NMTAP	156	160	1
NMTAP	156	176	2
NMTAP	156	192	3
NMTAP	156	192	4
NMTAP	156	288	6
NMSTR	156	288	7
BRSCR	156	288	7	96	48	0
NMTTP	157	0	6	E	1	M1
BRTAP	157	0	7
CNSI_	157	48	0	0	24	3
CNSCR	157	72	3	0	24	5

T_REC_TAP	660
T_REC_BRK	51
T_REC_XTP	31
T_REC_BXX	8
T_REC_HLD	77
T_REC_XHO	11
T_REC_BHO	13
T_REC_BXH	0
T_REC_STR	66
T_REC_BST	5
T_REC_XST	1
T_REC_XBS	2
T_REC_TTP	71
T_REC_THO	5
T_REC_SLD	62
T_REC_BSL	13
T_REC_ALL	1076
T_NUM_TAP	829
T_NUM_BRK	92
T_NUM_HLD	93
T_NUM_SLD	62
T_NUM_ALL	1076
T_JUDGE_TAP	895
T_JUDGE_HLD	178
T_JUDGE_SLD	75
T_JUDGE_ALL	1148
TTM_EACHPAIRS	173
TTM_SCR_TAP	414500
TTM_SCR_BRK	239200
TTM_SCR_HLD	93000
TTM_SCR_SLD	93000
TTM_SCR_ALL	839700
TTM_SCR_S	805600
TTM_SCR_SS	830500
TTM_RAT_ACV	10110

