VERSION	0.00.00	1.05.00
FES_MODE	0
BPM_DEF	292.000	292.000	292.000	146.000
MET_DEF	4	4
RESOLUTION	384
CLK_DEF	384
COMPATIBLE_CODE	MA2

BPM	0	0	292.000
BPM	58	0	146.000
BPM	66	0	292.000
BPM	154	0	146.000
BPM	155	0	292.000
MET	0	0	4	4

NMHLD	2	0	3	768
NMHLD	4	0	4	768
BRSTR	6	0	5
NMSCL	6	0	5	96	576	1
NMTAP	8	0	0
NMHLD	8	96	0	288
NMTTP	9	0	3	B	0	M1
NMTTP	9	0	3	E	0	M1
BRSTR	10	0	1
NMSCR	10	0	1	96	576	5
NMTAP	12	0	6
NMHLD	12	96	6	288
NMTAP	13	0	7
NMTAP	13	192	0
NMTAP	13	192	5
NMTAP	14	0	6
NMTAP	14	96	6
NMTAP	14	192	6
NMTAP	14	192	7
NMTAP	15	0	5
NMTAP	15	96	5
NMTAP	15	192	4
NMTAP	15	192	5
NMTAP	16	0	2
NMTAP	16	96	2
NMTAP	16	192	2
NMTAP	16	192	3
NMTAP	17	0	1
NMTAP	17	96	1
NMTAP	17	192	0
NMTAP	17	192	1
NMHLD	18	0	1	192
NMTAP	18	192	3
NMHLD	19	0	6	192
NMTAP	19	192	4
NMTAP	20	0	5
NMTAP	20	96	5
NMTAP	20	192	3
NMTAP	20	288	3
NMTAP	21	0	4
NMTAP	21	96	4
NMTAP	21	192	2
NMTAP	21	288	2
NMSTR	22	0	3
NMSCL	22	0	3	96	288	0
NMSCR	22	0	3	96	288	6
NMTAP	24	0	7
NMTAP	24	96	7
NMTAP	24	192	0
NMTAP	24	288	0
NMTAP	25	0	7
NMTAP	25	96	0
NMTAP	25	192	1
NMTAP	25	192	6
NMTAP	26	0	1
NMTAP	26	0	7
NMTAP	26	96	1
NMTAP	26	96	7
NMTAP	26	192	3
NMTAP	26	192	4
NMTAP	26	288	3
NMTAP	26	288	4
NMTAP	27	0	1
NMTAP	27	0	7
NMTAP	27	96	1
NMTAP	27	96	7
NMTAP	27	192	3
NMTAP	27	192	4
NMTAP	27	288	3
NMTAP	27	288	4
NMTAP	28	0	0
NMTAP	28	0	6
NMTAP	28	96	0
NMTAP	28	96	6
NMTAP	28	192	3
NMTAP	28	192	4
NMTAP	28	288	3
NMTAP	28	288	4
NMTAP	29	0	6
NMTAP	29	48	6
NMTAP	29	96	7
NMTAP	29	192	0
NMTAP	29	192	5
NMTAP	30	0	6
NMTAP	30	0	7
NMTAP	30	96	6
NMTAP	30	96	7
NMTAP	30	192	2
NMTAP	30	192	4
NMTAP	30	288	2
NMTAP	30	288	4
NMTAP	31	0	6
NMTAP	31	0	7
NMTAP	31	96	6
NMTAP	31	96	7
NMTAP	31	192	2
NMTAP	31	192	4
NMTAP	31	288	2
NMTAP	31	288	4
NMHLD	32	0	0	96
NMHLD	32	0	1	96
NMHLD	32	192	2	96
NMHLD	32	192	7	96
NMTAP	33	0	1
NMTAP	33	48	1
NMTAP	33	96	0
NMTAP	33	192	2
NMTAP	33	192	7
NMHLD	34	0	6	96
NMHLD	34	96	7	96
NMTAP	34	192	5
NMTAP	34	288	3
NMTAP	34	288	4
NMTAP	35	0	2
NMTAP	35	48	2
NMTAP	35	96	3
EXTAP	35	192	1
EXTAP	35	192	4
NMHLD	36	0	1	96
NMHLD	36	96	0	96
NMTAP	36	192	2
NMTAP	36	288	3
NMTAP	36	288	4
NMTAP	37	0	5
NMTAP	37	48	5
NMTAP	37	96	4
EXTAP	37	192	3
EXTAP	37	192	6
NMTAP	38	0	4
NMTAP	38	0	5
NMTAP	38	96	4
NMTAP	38	96	5
NMTAP	38	192	6
NMTAP	38	192	7
NMTAP	38	288	6
NMTAP	38	288	7
NMTAP	39	0	4
NMTAP	39	0	5
NMTAP	39	96	4
NMTAP	39	96	5
BXTAP	39	192	4
BXTAP	39	192	5
NMHLD	40	0	6	144
NMHLD	40	144	7	144
NMSTR	40	288	0
NMSI_	40	288	0	96	96	4
NMTAP	41	192	3
NMTAP	41	192	5
NMHLD	42	0	1	768
EXTAP	43	0	3
NMHLD	44	0	2	384
EXTAP	45	0	0
NMTAP	45	192	1
NMTAP	45	192	3
NMTAP	46	0	2
NMHLD	46	96	2	96
NMTAP	46	192	3
NMHLD	46	288	3	96
NMTAP	47	0	1
NMHLD	47	96	1	96
NMTAP	47	192	2
NMHLD	47	288	2	96
NMTAP	48	0	0
NMHLD	48	96	0	480
NMTAP	48	192	1
NMTAP	48	288	1
NMTAP	49	0	1
NMTAP	49	96	1
NMTAP	49	192	1
NMHLD	50	0	7	768
EXTAP	51	0	4
NMHLD	52	0	5	384
EXTAP	53	0	6
NMTAP	53	192	5
NMTAP	53	192	6
NMTAP	54	0	6
NMHLD	54	96	6	96
NMTAP	54	192	4
NMHLD	54	288	4	96
NMTAP	55	0	5
NMHLD	55	96	5	96
NMTAP	55	192	6
NMHLD	55	288	6	96
NMTAP	56	0	7
NMHLD	56	96	7	384
NMTAP	56	192	6
NMTAP	56	288	6
NMTAP	57	0	6
NMTAP	57	96	6
BXTAP	57	192	0
BXTAP	57	192	5
NMSTR	58	0	1
NMSCR	58	0	1	96	192	6
NMTAP	58	288	7
NMSTR	59	0	7
NMSCL	59	0	7	96	192	2
EXTAP	59	288	1
NMTAP	60	0	0
NMTAP	60	0	7
NMTAP	60	96	0
NMTAP	60	96	7
NMTAP	60	192	1
NMTAP	60	216	0
NMTAP	60	240	1
NMTAP	60	288	2
NMTAP	60	288	7
NMTAP	61	0	0
NMTAP	61	0	7
NMTAP	61	96	0
NMTAP	61	96	7
NMTAP	61	192	6
NMTAP	61	216	7
NMTAP	61	240	6
NMTAP	61	288	0
NMTAP	61	288	5
NMSTR	62	0	1
NMSLR	62	0	1	96	96	5
NMSTR	62	192	6
NMSLR	62	192	6	96	96	2
NMSTR	63	0	3
NMSLL	63	0	3	96	96	7
NMTAP	63	192	6
NMTAP	63	288	5
NMTAP	63	288	7
NMTAP	64	0	0
NMTAP	64	0	6
NMTAP	64	96	1
NMTAP	64	192	2
NMTAP	64	192	7
NMTAP	64	288	6
NMSTR	65	0	4
NMSI_	65	0	4	96	96	1
NMSI_	65	0	4	96	96	7
NMTAP	65	0	5
BRTAP	65	288	0
NMTAP	66	0	1
NMTAP	66	0	3
NMTAP	66	96	1
NMTAP	66	96	3
NMTAP	66	192	1
NMTAP	66	192	3
EXTAP	66	288	2
EXHLD	66	336	2	240
NMTAP	67	96	3
NMTAP	67	192	4
NMTAP	67	288	5
NMTAP	68	0	4
NMTAP	68	0	6
NMTAP	68	96	4
NMTAP	68	96	6
NMTAP	68	192	5
NMHLD	68	240	5	336
EXTAP	68	336	3
NMTAP	69	96	4
NMTAP	69	192	3
NMTAP	69	288	2
NMTAP	70	0	1
NMTAP	70	0	4
NMTAP	70	96	1
NMTAP	70	96	4
NMTAP	70	192	2
NMHLD	70	240	2	96
NMTAP	70	336	3
NMTAP	71	96	0
NMTAP	71	96	1
NMTAP	71	192	0
NMTAP	71	192	7
NMTAP	71	288	6
NMTAP	71	288	7
NMTAP	72	0	0
NMTAP	72	0	5
NMTAP	72	96	0
NMTAP	72	96	5
NMTAP	72	192	6
NMTAP	72	240	6
NMTAP	72	336	0
NMTAP	72	336	7
NMTAP	73	48	1
NMTAP	73	96	1
NMTAP	73	192	0
NMTAP	73	192	7
NMTAP	74	0	0
NMTAP	74	0	2
NMTAP	74	96	0
NMTAP	74	96	2
NMTAP	74	192	0
NMTAP	74	192	2
NMTAP	74	288	1
NMTAP	74	336	1
NMTAP	75	48	7
NMTAP	75	96	7
NMTAP	75	192	0
NMTAP	75	192	1
NMTAP	75	288	0
NMTAP	75	288	1
NMTAP	76	0	2
NMTAP	76	0	7
NMTAP	76	96	1
NMTAP	76	96	6
NMTAP	76	192	0
NMTAP	76	192	5
NMTAP	76	288	6
NMTAP	76	336	6
NMTAP	77	48	7
NMTAP	77	96	7
NMTAP	77	192	0
NMTAP	77	192	6
NMTAP	77	288	0
NMTAP	77	288	6
NMTAP	78	0	1
NMTAP	78	0	7
NMTAP	78	96	1
NMTAP	78	96	7
NMTAP	78	192	2
NMTAP	78	192	6
NMTAP	78	288	2
NMTAP	78	288	6
NMTAP	79	0	3
NMTAP	79	0	5
NMTAP	79	96	3
NMTAP	79	96	5
NMTAP	79	192	2
NMTAP	79	192	4
NMTAP	79	288	2
NMTAP	79	288	4
NMTAP	80	0	2
NMTAP	80	0	3
NMTAP	80	96	2
NMTAP	80	96	3
EXTAP	80	192	1
EXTAP	80	192	4
EXTAP	80	240	1
EXTAP	80	240	4
BRHLD	80	336	0	144
BRHLD	80	336	5	144
NMTAP	81	192	6
NMTAP	81	192	7
NMSTR	82	0	5
NMSXL	82	0	5	96	576	2
NMTAP	84	0	1
NMHLD	84	96	1	288
NMTHO	85	0	0	384	C	0	M1
NMSTR	86	0	2
NMSXR	86	0	2	96	576	4
NMTAP	88	0	5
NMHLD	88	96	5	384
NMTAP	89	0	4
NMTAP	89	96	4
NMTAP	89	192	3
NMTAP	89	192	6
NMTAP	90	0	5
NMTAP	90	48	4
NMTAP	90	96	5
NMTAP	90	192	3
NMTAP	90	192	6
NMTAP	91	0	2
NMTAP	91	48	3
NMTAP	91	96	2
NMTAP	91	192	1
NMTAP	91	192	4
NMTAP	92	0	6
NMTAP	92	48	7
NMTAP	92	96	6
NMTAP	92	192	0
NMTAP	92	192	5
NMTAP	93	0	1
NMTAP	93	48	0
NMTAP	93	96	1
NMTAP	93	192	2
NMTAP	93	192	7
EXTAP	94	0	4
EXTAP	94	0	6
EXTAP	94	144	4
EXTAP	94	144	6
EXTAP	94	288	3
EXTAP	94	288	5
EXTAP	95	48	3
EXTAP	95	48	5
EXTAP	95	192	2
EXTAP	95	192	4
EXTAP	95	336	1
EXTAP	95	336	3
NMHLD	96	96	2	96
NMHLD	96	192	1	96
NMHLD	96	288	0	96
NMHLD	97	0	7	96
NMHLD	97	96	6	96
NMSTR	97	192	5
NMSXL	97	192	5	96	672	0
NMSXR	97	192	5	96	672	2
NMTAP	100	0	1
NMTAP	100	96	0
NMTAP	100	192	7
NMTAP	100	288	6
NMTAP	101	0	0
NMTAP	101	48	7
NMTAP	101	96	0
NMTAP	101	192	1
NMTAP	101	192	6
NMTAP	102	0	0
NMTAP	102	0	1
NMTAP	102	96	0
NMTAP	102	96	1
NMTAP	102	192	6
NMTAP	102	192	7
NMTAP	102	288	6
NMTAP	102	288	7
NMTAP	103	0	0
NMTAP	103	0	1
NMTAP	103	96	2
NMTAP	103	96	3
NMTAP	103	192	4
NMTAP	103	192	5
NMTAP	103	288	6
NMTAP	103	288	7
NMTAP	104	0	0
NMTAP	104	0	1
NMTAP	104	96	2
NMTAP	104	96	7
NMTAP	104	192	6
NMTAP	104	192	7
NMTAP	104	288	0
NMTAP	104	288	5
NMTAP	105	0	6
NMTAP	105	48	6
NMTAP	105	96	7
NMTAP	105	192	0
NMTAP	105	192	5
NMSTR	106	0	6
NMSI_	106	0	6	96	48	3
NMSTR	106	192	1
NMSI_	106	192	1	96	48	4
NMSTR	107	0	5
NMSI_	107	0	5	96	48	0
NMSTR	107	192	2
NMSI_	107	192	2	96	48	7
NMSTR	108	0	6
NMSI_	108	0	6	96	48	2
NMTAP	108	192	0
NMTAP	108	240	0
NMTAP	108	336	1
NMTAP	108	336	7
NMTAP	109	48	3
NMTAP	109	48	5
NMTAP	109	96	3
NMTAP	109	96	5
NMTAP	109	192	2
NMTAP	109	192	6
NMTAP	110	0	0
NMTAP	110	0	1
NMTAP	110	96	2
NMTAP	110	96	3
NMTAP	110	192	4
NMTAP	110	192	5
NMTAP	110	288	6
NMTAP	110	288	7
NMHLD	111	0	1	96
NMTAP	111	96	0
NMHLD	111	192	6	96
NMTAP	111	288	7
NMTAP	112	0	1
NMTAP	112	96	0
NMTAP	112	96	2
NMTAP	112	192	6
NMTAP	112	288	5
NMTAP	112	288	7
NMTAP	113	0	1
NMTAP	113	48	1
NMTAP	113	96	0
NMTAP	113	192	2
NMTAP	113	192	7
NMSTR	114	0	5
NMSI_	114	0	5	96	48	0
NMSTR	114	192	3
NMSI_	114	192	3	96	48	7
NMSTR	115	0	4
NMSI_	115	0	4	96	48	0
NMSTR	115	192	2
NMSI_	115	192	2	96	48	7
NMTAP	116	0	6
NMTAP	116	96	6
EXTAP	116	192	0
EXTAP	116	192	7
EXTAP	116	240	0
EXTAP	116	240	7
NMTTP	116	336	0	C	1	M1
NMTTP	116	336	2	B	0	M1
NMTTP	116	336	3	E	0	M1
NMTTP	116	336	5	B	0	M1
NMTTP	116	336	5	E	0	M1
NMTAP	118	0	0
NMTAP	118	96	0
NMTAP	118	192	1
NMTAP	118	192	3
NMTTP	119	0	2	E	0	M1
NMTTP	119	96	3	E	0	M1
NMTTP	119	192	4	E	0	M1
NMTAP	120	0	7
NMTAP	120	96	7
NMTAP	120	192	4
NMTAP	120	192	6
NMTTP	121	0	6	E	0	M1
NMTTP	121	96	5	E	0	M1
NMTTP	121	192	4	E	0	M1
NMSTR	122	0	2
NMSI_	122	0	2	96	192	0
NMSTR	122	0	3
NMSI_	122	0	3	96	192	7
NMTTP	123	0	6	B	0	M1
NMTTP	123	0	7	E	0	M1
NMTTP	123	144	4	B	0	M1
NMTTP	123	144	5	E	0	M1
NMTTP	123	288	2	B	0	M1
NMTTP	123	288	3	E	0	M1
NMTTP	124	48	0	B	0	M1
NMTTP	124	48	1	E	0	M1
NMTAP	124	192	6
NMTAP	124	288	6
NMTAP	125	0	4
NMTAP	125	0	5
NMTAP	125	96	6
NMTAP	125	192	0
NMTAP	125	192	7
NMTAP	125	288	1
NMTAP	126	0	2
NMTAP	126	0	3
NMTAP	126	96	4
NMTAP	126	192	3
NMTAP	126	192	5
NMTAP	126	288	6
NMTHO	127	0	0	768	C	0	M1
BRTAP	130	192	0
BRTAP	130	192	7
NMTAP	131	0	6
NMTAP	131	0	7
NMTAP	131	96	2
NMTAP	131	96	4
NMTAP	131	192	0
NMTAP	131	192	1
NMTAP	131	288	3
NMTAP	131	288	5
NMTAP	132	0	6
NMTAP	132	0	7
NMTAP	132	96	2
NMTAP	132	96	4
NMTAP	132	192	0
NMTAP	132	192	1
NMTAP	132	288	3
NMTAP	132	288	5
NMTAP	133	0	4
NMTAP	133	0	6
NMTAP	133	96	7
NMTAP	133	192	1
NMTAP	133	192	3
NMTAP	133	288	0
NMTAP	134	0	6
NMTAP	134	0	7
NMTAP	134	96	2
NMTAP	134	96	3
NMTAP	134	192	1
NMTAP	134	192	5
NMTAP	135	0	6
NMTAP	135	0	7
NMSTR	135	96	6
NMSI_	135	96	6	96	48	3
NMTAP	135	96	7
NMTAP	135	192	0
EXHLD	135	288	1	144
NMTAP	136	48	0
NMTAP	136	96	0
NMTAP	136	192	2
NMTAP	136	192	7
NMTAP	136	288	2
NMTAP	136	288	7
NMTAP	137	0	0
NMTAP	137	0	1
NMTAP	137	96	0
NMSTR	137	96	1
NMSI_	137	96	1	96	48	4
NMTAP	137	192	7
EXHLD	137	288	6	144
NMTAP	138	48	7
NMTAP	138	96	7
NMTAP	138	192	0
NMTAP	138	192	5
NMTAP	138	288	0
NMTAP	138	288	5
NMTAP	139	0	1
NMTAP	139	0	3
NMTAP	139	96	0
NMTAP	139	96	7
NMTAP	139	192	4
NMTAP	139	192	6
NMTAP	139	240	4
NMTAP	139	240	6
BRTAP	139	336	6
BRTAP	139	336	7
BRTAP	140	48	0
BRTAP	140	48	1
NMTAP	140	144	2
NMTAP	140	192	2
NMTAP	140	288	3
NMTAP	140	288	4
NMTAP	141	0	5
NMTAP	141	48	4
NMTAP	141	96	6
NMTAP	141	144	2
NMTAP	141	192	3
NMTAP	141	240	1
BRHLD	141	336	0	240
BRHLD	141	336	7	240
NMSTR	143	0	0
NMSCR	143	0	0	96	864	7
NMSTR	143	0	7
NMSCL	143	0	7	96	864	0
EXTAP	146	0	0
EXTAP	146	0	1
EXTAP	146	48	0
EXTAP	146	48	1
NMTAP	146	144	2
NMTAP	146	144	3
NMTAP	146	192	2
NMTAP	146	192	3
NMTAP	146	288	4
NMTAP	146	288	5
NMTAP	146	336	4
NMTAP	146	336	5
NMTAP	147	48	6
NMTAP	147	48	7
NMTAP	147	96	6
NMTAP	147	96	7
NMTAP	147	192	0
NMTAP	147	192	1
NMTAP	147	288	2
NMTAP	147	288	7
NMTAP	148	0	4
NMTAP	148	0	6
NMTAP	148	48	4
NMTAP	148	48	6
NMTAP	148	144	3
NMTAP	148	144	4
NMTAP	148	192	3
NMTAP	148	192	4
NMTAP	148	288	1
NMTAP	148	288	3
NMTAP	148	336	1
NMTAP	148	336	3
NMTAP	149	48	0
NMTAP	149	48	7
NMTAP	149	96	0
NMTAP	149	96	7
BRTAP	149	192	1
BRTAP	149	192	6
NMTAP	149	288	3
NMTAP	149	288	4
NMTAP	150	0	2
NMHLD	150	48	2	96
NMTAP	150	144	0
NMHLD	150	192	0	96
NMTAP	150	288	6
NMHLD	150	336	6	96
NMTAP	151	48	4
NMHLD	151	96	4	96
NMTAP	151	192	2
NMHLD	151	240	2	96
NMTAP	151	336	0
NMTAP	152	0	0
NMTAP	152	96	1
NMTAP	152	96	7
NMTAP	152	192	5
NMTAP	152	192	6
NMTAP	152	288	2
NMTAP	152	288	4
NMTAP	153	0	0
NMTAP	153	0	1
NMTAP	153	96	5
NMTAP	153	96	7
NMTAP	153	192	2
NMTAP	153	192	4
NMSTR	153	288	0
NMSUL	153	288	0	96	192	7
NMTAP	153	288	6
NMTTP	154	0	0	C	1	M1
NMTAP	154	288	0
NMTAP	154	288	6
NMHLD	155	0	7	192
BXTAP	155	192	0
NMTAP	155	216	1
NMTAP	155	240	2
BXTAP	155	288	6
NMTAP	155	312	5
NMTAP	155	336	4
BXTAP	156	0	0
NMTAP	156	24	1
NMTAP	156	48	2
BXTAP	156	96	6
NMTAP	156	120	5
NMTAP	156	144	4
BXTAP	156	192	0
NMTAP	156	216	1
NMTAP	156	240	2
BXSTR	156	288	6
NMSI_	156	288	6	96	48	2

T_REC_TAP	509
T_REC_BRK	9
T_REC_XTP	35
T_REC_BXX	9
T_REC_HLD	47
T_REC_XHO	3
T_REC_BHO	4
T_REC_BXH	0
T_REC_STR	27
T_REC_BST	2
T_REC_XST	0
T_REC_XBS	1
T_REC_TTP	22
T_REC_THO	2
T_REC_SLD	33
T_REC_BSL	0
T_REC_ALL	703
T_NUM_TAP	593
T_NUM_BRK	25
T_NUM_HLD	52
T_NUM_SLD	33
T_NUM_ALL	703
T_JUDGE_TAP	614
T_JUDGE_HLD	134
T_JUDGE_SLD	33
T_JUDGE_ALL	781
TTM_EACHPAIRS	197
TTM_SCR_TAP	296500
TTM_SCR_BRK	65000
TTM_SCR_HLD	52000
TTM_SCR_SLD	49500
TTM_SCR_ALL	463000
TTM_SCR_S	446700
TTM_SCR_SS	460500
TTM_RAT_ACV	10054

