VERSION	0.00.00	1.05.00
FES_MODE	0
BPM_DEF	292.000	292.000	292.000	146.000
MET_DEF	4	4
RESOLUTION	384
CLK_DEF	384
COMPATIBLE_CODE	MA2

BPM	0	0	292.000
BPM	58	0	146.000
BPM	66	0	292.000
BPM	154	0	146.000
BPM	155	0	292.000
MET	0	0	4	4

NMTAP	6	0	1
NMTAP	6	96	1
NMTAP	6	192	1
NMTAP	7	0	2
NMTAP	7	96	2
NMTAP	7	192	2
NMTAP	8	0	3
NMTAP	8	96	3
NMTAP	8	192	3
NMTAP	9	0	4
NMTAP	9	0	5
NMTAP	10	0	6
NMTAP	10	96	6
NMTAP	10	192	6
NMTAP	11	0	5
NMTAP	11	96	5
NMTAP	11	192	5
NMTAP	12	0	4
NMTAP	12	96	4
NMTAP	12	192	4
NMTAP	13	0	2
NMTAP	13	0	3
NMTAP	14	0	2
NMTAP	14	96	2
NMTAP	14	192	2
NMTAP	15	0	1
NMTAP	15	96	1
NMTAP	15	192	1
NMTAP	16	0	0
NMTAP	16	96	0
NMTAP	16	192	0
NMTAP	17	0	6
NMTAP	17	0	7
NMTAP	18	0	5
NMTAP	18	96	5
NMTAP	18	192	5
NMTAP	19	0	6
NMTAP	19	96	6
NMTAP	19	192	6
NMTAP	20	0	7
NMTAP	20	96	7
NMTAP	20	192	7
NMTAP	21	0	0
NMTAP	21	0	1
NMHLD	22	0	0	384
NMHLD	22	0	7	384
NMSTR	24	0	0
NMSI_	24	0	0	96	288	3
NMSTR	24	0	7
NMSI_	24	0	7	96	288	4
NMTAP	26	0	5
NMTAP	26	96	5
NMTAP	26	192	4
NMTAP	26	192	5
NMTAP	27	0	6
NMTAP	27	96	6
NMTAP	27	192	6
NMTAP	27	192	7
NMTAP	28	0	0
NMTAP	28	96	0
NMTAP	28	192	0
NMTAP	28	192	1
NMTAP	29	0	2
NMTAP	29	0	3
NMTAP	29	96	2
NMTAP	29	96	3
NMTAP	29	192	2
NMTAP	29	192	3
NMTAP	30	0	2
NMTAP	30	96	2
NMTAP	30	192	2
NMTAP	30	192	3
NMTAP	31	0	1
NMTAP	31	96	1
NMTAP	31	192	0
NMTAP	31	192	1
NMTAP	32	0	7
NMTAP	32	96	7
NMTAP	32	192	6
NMTAP	32	192	7
NMTAP	33	0	4
NMTAP	33	0	5
NMTAP	33	96	4
NMTAP	33	96	5
NMTAP	33	192	4
NMTAP	33	192	5
NMSTR	34	0	6
NMSI_	34	0	6	96	288	3
NMSTR	36	0	1
NMSI_	36	0	1	96	288	4
NMTAP	38	0	5
NMTAP	38	96	5
NMTAP	38	192	4
NMTAP	38	192	5
NMTAP	39	0	6
NMTAP	39	0	7
NMTAP	39	96	6
NMTAP	39	96	7
NMTAP	39	192	6
NMTAP	39	192	7
NMTAP	40	0	0
NMTAP	40	96	0
NMTAP	40	192	0
NMTAP	40	192	1
BXTAP	41	0	2
BXTAP	41	0	3
NMTTP	42	0	2	B	0	L1
NMTTP	42	0	3	B	0	L1
NMTTP	43	0	0	B	0	L1
NMTTP	43	0	1	B	0	L1
NMTTP	44	0	6	B	0	L1
NMTTP	44	0	7	B	0	L1
NMTTP	45	0	4	B	0	L1
NMTTP	45	0	5	B	0	L1
NMTTP	46	0	1	B	0	L1
NMTTP	46	192	2	B	0	L1
NMTTP	47	0	3	B	0	L1
NMTTP	48	0	6	B	0	L1
NMTTP	48	192	5	B	0	L1
NMTTP	49	0	4	B	0	L1
NMTTP	50	0	2	B	0	L1
NMTTP	50	0	3	E	0	L1
NMTTP	51	0	0	B	0	L1
NMTTP	51	0	1	E	0	L1
NMTTP	52	0	6	B	0	L1
NMTTP	52	0	7	E	0	L1
NMTTP	53	0	4	B	0	L1
NMTTP	53	0	5	E	0	L1
NMTTP	54	0	1	B	0	L1
NMTTP	54	192	2	B	0	L1
NMTTP	55	0	3	B	0	L1
NMTTP	56	0	6	B	0	L1
NMTTP	56	192	5	B	0	L1
NMTTP	57	0	4	B	0	L1
NMTTP	58	0	1	B	0	L1
NMTTP	58	96	2	B	0	L1
NMTTP	58	192	3	B	0	L1
NMTTP	58	288	4	B	0	L1
NMTHO	59	0	0	192	C	0	L1
NMSTR	60	0	6
NMSCL	60	0	6	96	192	3
NMSTR	61	0	2
NMSCL	61	0	2	96	192	7
NMSTR	62	0	6
NMSI_	62	0	6	96	192	2
NMSTR	63	0	0
NMSI_	63	0	0	96	192	4
NMSTR	64	0	6
NMSUL	64	0	6	96	480	3
NMTAP	66	0	2
NMTAP	66	192	2
NMTAP	67	0	2
NMTAP	67	0	3
NMTAP	68	0	1
NMTAP	68	192	1
NMTAP	69	0	0
NMTAP	69	0	1
NMTAP	70	0	7
NMTAP	70	192	7
NMTAP	71	0	6
NMTAP	71	0	7
NMTAP	72	0	4
NMTAP	72	0	5
NMTAP	72	192	4
NMTAP	72	192	5
NMTAP	73	0	4
NMTAP	73	0	5
NMTAP	74	0	5
NMTAP	74	192	5
NMTAP	75	0	4
NMTAP	75	0	5
NMTAP	76	0	6
NMTAP	76	192	6
NMTAP	77	0	6
NMTAP	77	0	7
NMTAP	78	0	0
NMTAP	78	192	0
NMTAP	79	0	0
NMTAP	79	0	1
NMTAP	80	0	2
NMTAP	80	0	3
NMTAP	80	192	2
NMTAP	80	192	3
NMTAP	81	0	2
NMTAP	81	0	3
NMSTR	82	0	1
NMSUR	82	0	1	96	672	4
NMTAP	85	0	4
NMTAP	85	0	5
NMSTR	86	0	6
NMSUL	86	0	6	96	672	3
NMTAP	89	0	2
NMTAP	89	0	3
NMTAP	90	0	1
NMTAP	90	96	1
NMTAP	90	192	1
NMTAP	91	0	0
NMTAP	91	96	0
NMTAP	91	192	0
NMTAP	92	0	7
NMTAP	92	96	7
NMTAP	92	192	7
NMTAP	93	0	6
NMTAP	93	96	6
NMTAP	93	192	6
NMSTR	94	0	0
NMSXL	94	0	0	96	1056	3
NMSTR	94	0	7
NMSXR	94	0	7	96	1056	4
EXHLD	98	0	3	768
EXHLD	98	0	4	768
NMTAP	102	0	5
NMTAP	102	96	5
NMTAP	102	192	6
NMTAP	102	288	6
NMTAP	103	0	7
NMTAP	103	96	7
NMTAP	103	192	0
NMTAP	103	192	1
NMTAP	104	0	2
NMTAP	104	96	2
NMTAP	104	192	1
NMTAP	104	288	1
NMTAP	105	0	0
NMTAP	105	96	0
NMTAP	105	192	6
NMTAP	105	192	7
NMTAP	106	0	6
NMTAP	106	96	6
NMTAP	106	192	5
NMTAP	106	288	5
NMTAP	107	0	4
NMTAP	107	96	4
NMTAP	107	192	2
NMTAP	107	192	3
NMTAP	108	0	1
NMTAP	108	96	1
NMTAP	108	192	2
NMTAP	108	288	2
NMTAP	109	0	3
NMTAP	109	96	3
BXTAP	109	192	4
BXTAP	109	192	5
NMTAP	110	0	5
NMTAP	110	96	5
NMTAP	110	192	6
NMTAP	110	192	7
NMTAP	110	288	6
NMTAP	110	288	7
NMTAP	111	0	0
NMTAP	111	96	0
NMTAP	111	192	0
NMTAP	111	192	1
NMTAP	112	0	2
NMTAP	112	96	2
NMTAP	112	192	0
NMTAP	112	192	1
NMTAP	112	288	0
NMTAP	112	288	1
NMTAP	113	0	7
NMTAP	113	96	7
NMTAP	113	192	6
NMTAP	113	192	7
NMTAP	114	0	6
NMTAP	114	96	6
NMTAP	114	192	4
NMTAP	114	192	5
NMTAP	114	288	4
NMTAP	114	288	5
NMTAP	115	0	3
NMTAP	115	96	3
NMTAP	115	192	2
NMTAP	115	192	3
NMTAP	116	0	1
NMTAP	116	96	1
NMTAP	116	192	2
NMTAP	116	192	3
NMTAP	116	288	2
NMTAP	116	288	3
NMTAP	117	0	4
NMTAP	117	96	4
NMTAP	117	192	4
NMTAP	117	192	5
NMHLD	118	0	6	384
NMHLD	119	0	7	384
NMHLD	120	0	0	384
NMTAP	121	0	1
NMHLD	122	0	1	384
NMHLD	123	0	0	384
NMHLD	124	0	7	384
NMTAP	125	0	6
NMTAP	126	0	0
NMTAP	126	0	7
NMSTR	127	0	0
NMSXL	127	0	0	96	1056	3
NMSTR	127	0	7
NMSXR	127	0	7	96	1056	4
NMTAP	131	0	2
NMTAP	131	96	2
NMTAP	131	192	0
NMTAP	131	192	1
NMTAP	131	288	0
NMTAP	131	288	1
NMTAP	132	0	7
NMTAP	132	96	7
NMTAP	132	192	6
NMTAP	132	192	7
NMTAP	132	288	6
NMTAP	132	288	7
NMTAP	133	0	5
NMTAP	133	96	5
NMTAP	133	192	6
NMTAP	133	192	7
NMTAP	133	288	6
NMTAP	133	288	7
NMTAP	134	0	0
NMTAP	134	96	0
NMTAP	134	192	0
NMTAP	134	192	1
NMTAP	135	0	1
NMTAP	135	96	1
NMTAP	135	192	2
NMTAP	135	192	3
NMTAP	135	288	2
NMTAP	135	288	3
NMTAP	136	0	4
NMTAP	136	96	4
NMTAP	136	192	4
NMTAP	136	192	5
NMTAP	136	288	4
NMTAP	136	288	5
NMTAP	137	0	6
NMTAP	137	96	6
NMTAP	137	192	4
NMTAP	137	192	5
NMTAP	137	288	4
NMTAP	137	288	5
NMTAP	138	0	3
NMTAP	138	96	3
NMTAP	138	192	2
NMTAP	138	192	3
NMTAP	139	0	0
NMTAP	139	0	1
NMTAP	139	96	0
NMTAP	139	96	1
NMTAP	139	192	2
NMTAP	139	288	2
NMTAP	140	0	3
NMTAP	140	0	4
NMTAP	140	96	3
NMTAP	140	96	4
NMTAP	140	192	5
NMTAP	140	288	5
NMTAP	141	0	6
NMTAP	141	0	7
NMTAP	141	96	6
NMTAP	141	96	7
NMTAP	141	192	5
NMTAP	141	288	5
NMTAP	142	0	3
NMTAP	142	0	4
NMTAP	142	96	3
NMTAP	142	96	4
NMTAP	142	192	2
NMTAP	142	192	5
NMSTR	143	0	3
NMSUR	143	0	3	96	672	4
NMTAP	146	0	4
NMTAP	146	96	4
NMTAP	146	192	5
NMTAP	146	288	5
NMTAP	147	0	6
NMTAP	147	96	6
NMTAP	147	192	7
NMTAP	147	288	7
NMTAP	148	0	0
NMTAP	148	96	0
NMTAP	148	192	1
NMTAP	148	288	1
NMTAP	149	0	2
NMTAP	149	96	2
BRTAP	149	192	3
BRTAP	149	192	4
EXTAP	150	0	4
EXTAP	150	0	6
EXTAP	150	144	4
EXTAP	150	144	6
EXTAP	150	288	4
EXTAP	150	288	6
EXTAP	151	48	4
EXTAP	151	48	6
EXTAP	151	192	4
EXTAP	151	192	6
NMTAP	152	0	5
NMTAP	152	96	5
NMTAP	152	192	6
NMTAP	152	288	7
NMTAP	153	0	0
NMTAP	153	96	1
NMTAP	153	192	2
NMTAP	153	288	2
NMHLD	154	0	3	192
NMHLD	154	0	4	192
NMTAP	155	0	3
NMTAP	155	0	4
NMTAP	155	96	3
NMTAP	155	96	4
NMTAP	155	192	2
NMTAP	155	192	5
NMTAP	155	288	2
NMTAP	155	288	5
NMTAP	156	0	1
NMTAP	156	0	6
NMTAP	156	96	1
NMTAP	156	96	6
NMTAP	156	192	0
NMTAP	156	192	7
NMTAP	156	288	0
NMTAP	156	288	7
BXTAP	157	0	1
BXTAP	157	0	6

T_REC_TAP	326
T_REC_BRK	2
T_REC_XTP	10
T_REC_BXX	6
T_REC_HLD	10
T_REC_XHO	2
T_REC_BHO	0
T_REC_BXH	0
T_REC_STR	16
T_REC_BST	0
T_REC_XST	0
T_REC_XBS	0
T_REC_TTP	32
T_REC_THO	1
T_REC_SLD	16
T_REC_BSL	0
T_REC_ALL	421
T_NUM_TAP	384
T_NUM_BRK	8
T_NUM_HLD	13
T_NUM_SLD	16
T_NUM_ALL	421
T_JUDGE_TAP	392
T_JUDGE_HLD	60
T_JUDGE_SLD	16
T_JUDGE_ALL	468
TTM_EACHPAIRS	97
TTM_SCR_TAP	192000
TTM_SCR_BRK	20800
TTM_SCR_HLD	13000
TTM_SCR_SLD	24000
TTM_SCR_ALL	249800
TTM_SCR_S	241550
TTM_SCR_SS	249000
TTM_RAT_ACV	10032

