VERSION	0.00.00	1.05.00
FES_MODE	0
BPM_DEF	215.000	215.000	215.000	215.000
MET_DEF	4	4
RESOLUTION	384
CLK_DEF	384
COMPATIBLE_CODE	MA2

BPM	0	0	215.000
MET	0	0	4	4
MET	30	0	4	3
MET	39	0	4	4

NMTAP	2	0	1
NMTAP	2	0	3
NMTAP	2	72	3
NMTAP	2	72	4
NMTAP	2	144	5
NMTAP	2	192	4
NMTAP	2	192	5
NMTAP	2	288	4
NMTAP	2	288	6
NMTAP	2	360	3
NMTAP	2	360	4
NMTAP	3	48	2
NMTAP	3	96	2
NMTAP	3	96	3
NMTAP	3	192	1
NMTAP	3	192	3
NMTAP	3	264	3
NMTAP	3	264	4
NMTAP	3	336	4
NMTAP	3	336	6
NMTAP	4	0	4
NMTAP	4	0	6
NMTAP	4	72	3
NMTAP	4	72	4
NMTAP	4	144	1
NMTAP	4	144	3
NMTAP	4	192	1
NMTAP	4	192	3
NMTAP	4	264	3
NMTAP	4	264	4
NMTAP	4	336	6
NMTAP	5	0	5
NMTAP	5	48	4
NMTAP	5	96	3
NMTAP	5	144	2
NMSTR	5	192	1
NMSCR	5	192	1	96	48	4
NMTAP	5	288	5
NMTAP	6	0	5
NMTAP	6	48	6
NMTAP	6	72	6
NMTAP	6	96	4
NMHLD	6	144	5	96
NMTAP	6	240	3
NMTAP	6	264	3
NMTAP	6	288	4
NMTAP	6	336	5
NMTAP	7	0	3
NMHLD	7	48	2	96
NMTAP	7	144	4
NMTAP	7	168	4
NMTAP	7	192	3
NMTAP	7	240	2
NMTAP	7	288	1
NMTAP	7	336	3
NMTAP	8	0	4
NMTAP	8	48	5
NMTAP	8	72	5
NMTAP	8	96	4
NMTAP	8	144	3
NMTAP	8	192	4
NMTAP	8	240	6
NMTAP	8	288	4
NMTAP	8	336	2
NMTAP	9	0	4
NMTAP	9	48	5
NMTAP	9	72	5
NMTAP	9	96	4
NMTAP	9	144	3
NMTAP	9	168	3
NMTAP	9	192	4
NMTAP	9	240	5
NMTAP	9	288	6
NMTAP	9	336	7
NMTAP	10	0	2
NMTAP	10	48	1
NMTAP	10	72	1
NMTAP	10	96	3
NMHLD	10	144	2	96
NMTAP	10	240	4
NMTAP	10	264	4
NMTAP	10	288	3
NMTAP	10	336	2
NMTAP	11	0	4
NMHLD	11	48	5	96
NMTAP	11	144	3
NMTAP	11	168	3
NMTAP	11	192	4
NMTAP	11	240	5
NMTAP	11	288	6
NMTAP	11	336	4
NMTAP	12	0	3
NMTAP	12	48	2
NMTAP	12	72	2
NMTAP	12	96	3
NMTAP	12	144	4
NMTAP	12	192	3
NMTAP	12	240	1
NMTAP	12	288	3
NMTAP	12	336	5
NMTAP	13	0	3
NMTAP	13	48	2
NMTAP	13	72	2
NMTAP	13	96	3
NMTAP	13	144	4
NMTAP	13	168	4
NMTAP	13	192	3
NMTAP	13	240	2
NMTAP	13	288	1
NMTAP	13	336	0
BXSTR	14	0	0
NMSI_	14	0	0	96	96	4
BXTAP	14	0	6
NMTAP	14	192	7
NMTAP	14	288	3
NMTAP	14	288	7
NMTAP	15	0	7
EXSTR	15	48	4
NMSXR	15	48	4	96	144	0
NMTAP	15	96	7
NMTAP	15	192	7
NMTAP	15	288	7
NMTAP	16	0	2
NMTAP	16	0	7
NMTAP	16	96	4
NMTAP	16	96	7
NMTAP	16	192	5
NMTAP	16	192	7
NMTAP	16	288	2
NMTAP	16	288	7
NMTAP	17	0	3
NMTAP	17	0	7
NMTAP	17	96	7
NMSTR	17	144	0
NMSI_	17	144	0	96	96	3
NMTAP	17	192	7
NMTAP	17	288	7
NMSTR	18	0	7
NMSI_	18	0	7	96	96	3
NMTAP	18	96	2
NMTAP	18	192	1
NMTAP	18	288	0
NMTAP	18	288	2
NMTAP	19	0	0
EXSTR	19	48	3
NMSI_	19	48	3	96	96	7
NMTAP	19	96	0
NMTAP	19	192	0
CNSI_	19	240	7	0	48	4
NMTAP	19	288	0
NMTAP	20	0	0
NMTAP	20	0	3
NMTAP	20	96	0
NMTAP	20	144	2
NMTAP	20	192	0
NMTAP	20	288	0
NMTAP	20	336	4
NMTAP	21	0	0
NMTAP	21	96	0
NMSTR	21	144	7
NMSF_	21	144	7	96	48	3
NMSTR	22	0	2
NMSI_	22	0	2	96	48	5
NMTAP	22	96	5
NMTAP	22	144	6
NMSTR	22	192	6
NMSI_	22	192	6	96	48	1
NMTAP	22	288	1
NMTAP	22	336	2
NMSTR	23	0	2
NMSI_	23	0	2	96	48	6
NMSTR	23	96	7
NMSI_	23	96	7	96	48	3
NMHLD	23	192	0	96
NMTAP	23	288	4
NMTAP	23	336	5
NMSTR	24	0	5
NMSI_	24	0	5	96	48	2
NMTAP	24	96	2
NMTAP	24	144	1
NMSTR	24	192	1
NMSI_	24	192	1	96	48	6
NMTAP	24	288	6
NMTAP	24	336	5
NMSTR	25	0	5
NMSCL	25	0	5	96	48	2
NMSTR	25	96	1
NMSI_	25	96	1	96	48	7
NMTAP	25	192	5
NMTAP	25	288	4
NMSTR	26	0	3
NMSI_	26	0	3	96	48	1
NMSI_	26	0	3	96	48	7
NMSTR	26	192	0
NMSI_	26	192	0	96	48	4
NMTAP	26	288	6
NMTAP	27	0	6
NMTAP	27	0	7
NMSTR	27	48	6
NMSI_	27	48	6	96	48	2
NMSTR	27	48	7
NMSI_	27	48	7	96	48	3
EXTAP	27	240	1
EXTAP	27	240	4
EXTAP	27	288	1
EXTAP	27	288	4
NMSTR	28	0	5
NMSI_	28	0	5	96	48	1
NMTAP	28	96	3
NMSTR	28	192	2
NMSI_	28	192	2	96	48	6
NMTAP	28	288	6
NMTAP	29	0	7
NMSTR	29	48	7
NMSI_	29	48	7	96	48	3
NMSTR	29	144	1
NMSI_	29	144	1	96	48	5
NMTAP	29	240	5
NMSTR	29	288	6
NMSXL	29	288	6	96	192	2
NMTAP	30	0	3
NMHLD	30	288	3	48
NMHLD	31	0	2	48
NMHLD	31	0	4	48
NMSTR	31	96	0
NMSV_	31	96	0	96	48	3
NMSTR	31	96	6
NMSV_	31	96	6	96	48	3
NMSTR	31	288	2
NMSI_	31	288	2	96	48	4
NMSTR	31	288	5
NMSI_	31	288	5	96	48	1
NMSTR	32	96	6
NMSI_	32	96	6	96	48	1
NMSTR	32	192	0
NMSI_	32	192	0	96	48	5
NMSTR	32	288	4
NMSUL	32	288	4	96	192	3
NMTAP	33	0	2
NMHLD	33	288	1	48
NMHLD	33	288	3	48
NMHLD	34	0	4	48
NMHLD	34	0	6	48
NMHLD	34	96	2	48
NMHLD	34	96	3	48
NMSTR	34	192	4
NMSV_	34	192	4	96	96	2
NMSTR	34	192	5
NMSLR	34	192	5	96	96	1
NMTAP	35	96	2
NMTAP	35	96	3
NMHLD	35	192	1	96
NMHLD	35	288	4	288
NMHLD	36	0	0	192
NMHLD	36	288	1	24
NMHLD	36	336	1	24
NMHLD	37	0	5	24
NMHLD	37	48	5	24
NMHLD	37	96	3	24
NMHLD	37	144	3	24
NMTAP	37	192	7
NMTAP	37	240	7
NMTAP	37	288	7
NMTAP	37	336	7
NMTAP	38	0	0
NMSTR	38	0	6
NMSI_	38	0	6	96	48	4
NMTAP	38	96	3
NMTAP	38	144	3
NMTAP	38	192	3
NMTAP	38	240	3
NMTAP	38	288	2
NMTAP	38	288	4
NMTAP	39	0	1
NMTAP	39	0	3
NMTAP	39	48	2
NMHLD	39	96	3	48
NMHLD	39	96	5	48
BRTAP	39	192	4
BRTAP	39	192	6
NMTAP	39	240	5
BRHLD	39	288	2	48
BRHLD	39	288	4	48
NMTAP	40	0	1
NMTAP	40	32	3
NMTAP	40	64	1
NMTAP	40	96	3
NMTAP	40	192	6
NMTAP	40	224	4
NMTAP	40	256	6
NMSTR	40	288	4
NMSLR	40	288	4	96	144	0
CNSLR	41	144	0	0	144	4
NMSTR	41	288	7
NMSI_	41	288	7	96	144	1
NMSSL	41	288	7	96	144	3
EXSTR	42	288	2
NMSI_	42	288	2	96	48	7
EXTAP	42	288	4
NMSTR	43	0	5
NMSI_	43	0	5	96	48	0
NMSTR	43	96	1
NMSI_	43	96	1	96	48	5
NMSTR	43	192	3
NMSI_	43	192	3	96	48	7
NMSTR	43	288	0
NMSXL	43	288	0	96	144	4
NMTAP	44	0	6
NMTAP	44	96	7
NMHLD	44	144	7	96
NMTAP	44	240	4
NMSTR	44	288	4
NMSCL	44	288	4	96	96	0
NMSTR	45	0	0
NMSCL	45	0	0	96	96	4
NMTAP	45	96	4
NMTAP	45	192	0
NMTAP	45	240	0
NMTAP	45	288	2
NMTAP	45	288	6
NMSTR	46	0	1
NMSCR	46	0	1	96	48	4
NMSTR	46	0	5
NMSCR	46	0	5	96	48	0
NMTTP	46	192	0	C	0	M1
NMTTP	46	192	3	B	0	M1
NMTTP	46	192	7	B	0	M1
NMSTR	47	0	1
NMSCR	47	0	1	96	96	5
NMSTR	47	96	5
NMSLL	47	96	5	96	96	1
NMTAP	47	192	6
NMSTR	47	288	7
NMSI_	47	288	7	96	48	3
NMSTR	48	0	7
NMSXL	48	0	7	96	96	1
NMSXR	48	0	7	96	96	5
NMTAP	48	96	7
EXTAP	48	240	0
EXTAP	48	240	6
EXTAP	48	288	0
EXTAP	48	288	6
NMTAP	49	0	2
NMTAP	49	0	4
NMTAP	49	48	1
NMHLD	49	96	0	48
NMHLD	49	96	3	48
NMTAP	49	192	1
NMTAP	49	192	3
NMTAP	49	240	4
NMHLD	49	288	5	48
NMHLD	49	288	6	48
NMSTR	50	0	3
NMSCL	50	0	3	96	48	1
NMSTR	50	0	4
NMSCR	50	0	4	96	48	6
NMTAP	50	96	3
NMTAP	50	96	4
EXTAP	50	192	2
EXTAP	50	192	5
NMTAP	50	288	3
NMSTR	50	288	5
NMSI_	50	288	5	96	48	0
NMSTR	51	0	2
NMSI_	51	0	2	96	48	7
NMSTR	51	96	6
NMSI_	51	96	6	96	48	2
NMSTR	51	192	4
NMSI_	51	192	4	96	48	0
NMSTR	51	288	7
NMSXR	51	288	7	96	144	3
NMTAP	52	0	1
NMTAP	52	96	0
NMHLD	52	144	0	96
NMTAP	52	240	3
NMSTR	52	288	3
NMSI_	52	288	3	96	96	7
NMSTR	53	0	7
NMSLL	53	0	7	96	96	3
NMSLR	53	0	7	96	96	3
EXTAP	53	240	1
EXTAP	53	240	7
EXTAP	53	288	1
EXTAP	53	288	7
NMSTR	54	0	2
NMSI_	54	0	2	96	48	5
NMSTR	54	0	6
NMSI_	54	0	6	96	48	1
NMHLD	54	192	3	96
NMHLD	54	192	7	96
NMSTR	55	0	1
NMSCR	55	0	1	96	96	5
NMSTR	55	96	5
NMSLL	55	96	5	96	96	1
NMTAP	55	192	6
NMSTR	55	288	7
NMSI_	55	288	7	96	48	1
NMSI_	55	288	7	96	48	5
NMTAP	56	0	7
EXTAP	56	96	0
EXTAP	56	96	6
EXTAP	56	144	0
EXTAP	56	144	6
EXTAP	56	240	2
EXTAP	56	240	4
EXTAP	56	288	2
EXTAP	56	288	4
NMTAP	57	0	3
NMTAP	57	0	5
NMTAP	57	48	6
NMHLD	57	96	4	48
NMHLD	57	96	7	48
NMTAP	57	192	4
NMTAP	57	192	6
NMTAP	57	240	3
NMTAP	57	288	1
NMSTR	57	288	2
NMSXR	57	288	2	96	192	5
NMHLD	58	0	3	288
NMSTR	58	288	7
NMSI_	58	288	7	96	48	4
CNSI_	59	48	4	0	48	2
NMTAP	59	192	1
NMTAP	59	192	4
NMTAP	59	264	3
NMTAP	59	264	6
NMSTR	59	336	7
NMSI_	59	336	7	96	48	3
NMSTR	60	0	0
NMSI_	60	0	0	96	48	4
NMSTR	60	48	7
NMSI_	60	48	7	96	48	5
NMSTR	60	96	0
NMSI_	60	96	0	96	48	2
BRTAP	60	144	7
BRTAP	60	192	0
BRTAP	60	288	4
EXTAP	61	0	5
NMTAP	61	48	4
NMTAP	61	72	4
NMTAP	61	96	4
NMTAP	61	144	3
NMTAP	61	240	4
NMTAP	61	264	4
NMTAP	61	288	4
NMTAP	61	336	5
NMTAP	62	0	3
NMTAP	62	48	2
NMTAP	62	144	3
NMTAP	62	168	3
NMTAP	62	192	3
NMTAP	62	240	4
NMTAP	62	288	5
NMTAP	63	0	2
NMTAP	63	48	3
NMTAP	63	72	3
NMTAP	63	96	3
NMTAP	63	144	5
NMTAP	63	192	4
NMTAP	63	216	4
NMTAP	63	240	4
NMTAP	63	288	2
NMTAP	63	336	3
NMTAP	63	360	3
NMTAP	64	0	3
NMTAP	64	48	4
NMTAP	64	72	4
NMTAP	64	96	4
NMTAP	64	144	5
NMTAP	64	192	4
BRTAP	64	240	3
BRTAP	64	288	2
EXTAP	65	0	1
NMTAP	65	48	0
NMTAP	65	72	0
NMTAP	65	96	0
NMTAP	65	144	7
NMTAP	65	240	0
NMTAP	65	264	0
NMTAP	65	288	0
NMTAP	65	336	1
NMTAP	66	0	7
NMTAP	66	48	6
NMTAP	66	144	7
NMTAP	66	168	7
NMTAP	66	192	7
NMTAP	66	240	0
NMTAP	66	288	1
NMTAP	67	0	6
NMTAP	67	48	7
NMTAP	67	72	7
NMTAP	67	96	7
NMTAP	67	144	1
NMTAP	67	192	0
NMTAP	67	216	0
NMTAP	67	240	0
NMTAP	67	288	6
NMTAP	67	336	7
NMTAP	67	360	7
NMTAP	68	0	7
NMTAP	68	48	0
NMTAP	68	72	0
NMTAP	68	96	0
NMTAP	68	144	1
NMTAP	68	192	0
BRTAP	68	240	7
BRTAP	68	288	6
BXSTR	69	0	7
NMSLL	69	0	7	96	144	3
NMSLR	69	0	7	96	144	3
NMTTP	70	0	2	B	0	M1
NMTTP	70	0	3	B	0	M1
NMTTP	70	0	3	E	0	M1
NMTTP	70	0	6	B	0	M1
NMTTP	70	0	7	B	0	M1
NMTTP	70	0	7	E	0	M1
NMTTP	70	96	0	B	0	M1
NMTTP	70	96	1	B	0	M1
NMTTP	70	96	1	E	0	M1
NMTTP	70	96	4	B	0	M1
NMTTP	70	96	5	B	0	M1
NMTTP	70	96	5	E	0	M1
NMTHO	70	192	0	96	C	0	M1
NMTTP	70	192	1	B	0	M1
NMTTP	70	192	2	B	0	M1
NMTTP	70	192	2	E	0	M1
NMTTP	70	192	5	B	0	M1
NMTTP	70	192	6	B	0	M1
NMTTP	70	192	6	E	0	M1
EXSTR	71	0	7
NMSCL	71	0	7	96	96	4
EXSTR	71	192	0
NMSCR	71	192	0	96	96	3
NMSTR	72	0	4
NMSV_	72	0	4	96	48	1
NMSV_	72	0	4	96	48	7
CNSCL	72	144	1	0	48	0
CNSCR	72	144	7	0	48	0
NMTTP	72	192	0	A	1	M1
NMHLD	73	0	7	192
NMTAP	73	96	4
NMHLD	73	192	0	192
NMTAP	73	288	3
NMSTR	74	0	4
NMSI_	74	0	4	96	48	6
NMSTR	74	96	4
BRSI_	74	96	4	96	48	0
BRTAP	74	192	4
EXTAP	74	336	7
EXSTR	75	0	7
NMSV_	75	0	7	96	96	2
NMSV_	75	0	7	96	96	4
NMSTR	75	288	6
NMSLL	75	288	6	96	288	2
EXTAP	76	0	0
NMTAP	76	64	0
NMTAP	76	128	0
EXTAP	76	192	7
NMTAP	76	256	7
NMTAP	76	320	7
BRSTR	77	0	6
NMSCR	77	0	6	96	480	4
NMHLD	77	96	6	576
NMTAP	79	0	6
NMTAP	79	64	6
NMTAP	79	96	4
BRTAP	79	192	1
BRTAP	79	256	1
BRTAP	79	288	3
NMTAP	80	0	7
NMTAP	80	64	7
NMTAP	80	96	0
NMHLD	80	160	0	128
NMTAP	80	288	3
NMTAP	81	0	6
NMTAP	81	64	6
NMTAP	81	96	4
NMTAP	81	160	4
NMTAP	81	192	5
NMTAP	81	256	5
NMTAP	81	288	1
NMTAP	81	352	1
NMTAP	82	0	3
NMTAP	82	64	3
NMTAP	82	96	2
NMTAP	82	160	2
NMTAP	82	192	3
NMTAP	82	224	1
NMTAP	82	256	1
NMSTR	82	288	5
NMSXL	82	288	5	96	288	4
NMTAP	82	320	4
NMTAP	82	352	6
NMHLD	83	0	6	288
EXTAP	84	0	0
EXTAP	84	0	6
EXTAP	84	96	1
EXTAP	84	96	7
NMTAP	84	192	0
NMTAP	84	224	0
NMTAP	84	256	0
NMTAP	84	288	4
NMTAP	84	320	4
NMTAP	84	352	4
NMTAP	85	0	2
BXTAP	85	96	1
BXTAP	85	96	5
NMSTR	85	192	7
NMSI_	85	192	7	96	48	2
NMSI_	85	192	7	96	48	4
NMSTR	86	0	1
NMSUR	86	0	1	96	48	5
NMTAP	86	96	7
NMHLD	86	144	7	96
NMTAP	86	240	4
NMTAP	86	288	3
NMTAP	86	336	2
NMSTR	87	0	1
NMSI_	87	0	1	96	48	5
NMHLD	87	96	4	192
CNSCL	87	144	5	0	48	4
CNSI_	87	192	4	0	48	7
EXTAP	87	288	0
NMHLD	88	0	1	48
NMHLD	88	0	3	48
NMHLD	88	96	4	48
NMHLD	88	96	5	48
NMTTP	88	192	2	B	1	M1
NMSTR	88	288	0
NMSI_	88	288	0	96	48	5
NMSTR	88	288	7
NMSI_	88	288	7	96	48	5
NMTAP	89	0	0
NMTAP	89	0	7
NMSTR	89	96	0
NMSI_	89	96	0	96	48	2
NMSTR	89	96	7
NMSI_	89	96	7	96	48	2
NMTAP	89	192	0
NMTAP	89	192	7
NMSTR	89	288	0
NMSI_	89	288	0	96	48	4
NMSTR	89	288	7
NMSI_	89	288	7	96	48	5
NMSTR	90	0	0
NMSI_	90	0	0	96	48	2
NMSTR	90	0	7
NMSI_	90	0	7	96	48	3
NMTAP	90	96	0
NMTAP	90	96	7
EXTAP	90	240	6
EXSTR	90	288	6
NMSLL	90	288	6	96	96	2
NMSTR	91	0	2
NMSLL	91	0	2	96	96	6
NMTAP	91	96	6
NMTAP	91	192	2
NMSTR	91	288	1
NMSXL	91	288	1	96	192	4
NMSTR	91	288	5
NMSXL	91	288	5	96	192	0
EXSTR	92	288	6
NMSI_	92	288	6	96	48	3
NMSTR	93	0	1
NMSI_	93	0	1	96	48	4
NMSTR	93	96	7
NMSI_	93	96	7	96	48	4
NMSTR	93	192	0
NMSI_	93	192	0	96	48	3
NMSTR	93	288	6
NMSI_	93	288	6	96	48	0
NMTAP	94	0	4
EXSTR	94	0	6
NMSLL	94	0	6	96	72	2
NMTAP	94	96	1
NMHLD	94	144	1	96
EXTAP	94	240	3
EXTAP	94	288	3
NMSTR	95	0	4
NMSCL	95	0	4	96	72	0
NMSUL	95	0	4	96	72	7
EXTAP	95	240	7
EXSTR	95	288	0
NMSI_	95	288	0	96	48	3
NMSTR	96	0	0
NMSUL	96	0	0	96	48	4
NMTAP	96	96	0
BRTAP	96	192	2
BRTAP	96	192	6
NMSTR	96	288	5
NMSI_	96	288	5	96	48	7
NMTAP	97	0	3
NMSTR	97	96	2
NMSI_	97	96	2	96	48	0
NMTAP	97	192	4
NMSTR	97	288	5
NMSLR	97	288	5	96	96	1
NMSTR	98	0	1
NMSLR	98	0	1	96	96	5
NMTAP	98	96	5
NMTAP	98	192	1
NMTAP	98	288	2
NMTAP	98	288	6
NMTAP	99	0	7
NMTAP	99	48	3
NMTAP	99	96	5
NMTAP	99	144	1
NMTTP	99	192	6	B	0	M1
NMTTP	99	240	4	B	0	M1
NMTTP	99	288	0	B	0	M1
NMTTP	99	336	2	B	0	M1
EXSTR	100	0	7
NMSI_	100	0	7	96	48	3
EXSTR	100	96	1
NMSI_	100	96	1	96	48	4
NMHLD	100	192	5	96
NMTAP	100	288	3
EXTAP	101	0	2
EXTAP	101	0	4
NMTAP	101	144	1
NMTAP	101	168	3
NMTAP	101	192	1
NMTAP	101	256	2
NMTAP	101	256	4
NMTAP	101	320	4
NMTAP	101	320	6
NMSTR	102	0	7
BRSCL	102	0	7	96	96	3
BRSCR	102	0	7	96	96	3
EXTAP	102	288	2
EXTAP	102	288	4
NMSTR	103	0	6
NMSI_	103	0	6	96	48	2
NMTAP	103	48	6
NMSTR	103	96	1
NMSI_	103	96	1	96	48	4
NMTAP	103	144	1
NMSTR	103	192	7
NMSI_	103	192	7	96	48	3
NMTAP	103	240	7
NMSTR	103	288	2
NMSCR	103	288	2	96	48	5
NMSTR	104	0	7
NMSLL	104	0	7	96	72	3
NMTAP	104	96	0
NMHLD	104	144	0	96
NMTAP	104	240	6
NMSTR	104	288	6
NMSI_	104	288	6	96	48	2
NMSTR	105	0	1
NMSCR	105	0	1	96	48	4
NMHLD	105	96	7	96
EXTAP	105	240	4
EXTAP	105	240	6
EXTAP	105	288	4
EXSTR	105	288	6
NMSI_	105	288	6	96	96	3
NMSTR	106	0	3
NMSCR	106	0	3	96	48	4
NMTAP	106	96	1
CNSI_	106	144	4	0	48	1
NMHLD	106	192	0	96
NMTAP	106	288	4
NMSTR	107	0	6
NMSCL	107	0	6	96	48	3
NMSTR	107	0	7
NMSI_	107	0	7	96	48	2
NMSTR	107	192	0
NMSI_	107	192	0	96	48	5
NMSTR	107	192	1
NMSCR	107	192	1	96	48	4
NMSTR	108	0	6
NMSI_	108	0	6	96	48	0
NMSTR	108	96	4
NMSI_	108	96	4	96	48	2
NMSTR	108	192	5
NMSI_	108	192	5	96	48	1
NMSTR	108	288	0
NMSCL	108	288	0	96	96	4
NMSTR	109	0	4
NMSCR	109	0	4	96	96	0
NMTAP	109	96	3
NMTAP	109	192	2
NMTAP	109	288	1
NMTAP	109	288	3
NMSTR	110	0	3
NMSCL	110	0	3	96	48	0
NMSTR	110	0	5
NMSCR	110	0	5	96	48	0
EXTAP	110	192	1
EXTAP	110	192	7
NMSTR	110	288	0
NMSI_	110	288	0	96	48	3
NMTAP	111	0	0
NMSTR	111	0	7
NMSI_	111	0	7	96	48	4
NMSTR	111	96	6
NMSI_	111	96	6	96	48	3
NMTAP	111	96	7
NMSTR	111	192	1
NMSI_	111	192	1	96	48	4
CNSI_	111	240	3	0	48	1
NMTAP	111	288	0
CNSI_	111	336	4	0	48	6
NMSTR	112	0	7
NMSF_	112	0	7	96	96	3
EXTAP	112	240	0
EXTAP	112	240	6
EXTAP	112	288	0
EXSTR	112	288	6
NMSI_	112	288	6	96	48	4
NMSTR	113	0	1
NMSI_	113	0	1	96	48	3
NMSTR	113	96	7
NMSCL	113	96	7	96	48	4
NMSTR	113	192	0
NMSCR	113	192	0	96	48	3
NMTAP	113	288	7
EXSTR	114	0	6
BRSCR	114	0	6	96	48	7
NMSTR	114	96	4
BRSUR	114	96	4	96	96	3
CNSI_	114	144	7	0	48	4
BRHLD	114	192	1	96
NMSTR	115	0	1
NMSI_	115	0	1	96	48	3
NMTAP	115	48	1
NMSTR	115	96	6
NMSI_	115	96	6	96	48	3
NMTAP	115	144	6
NMSTR	115	192	0
NMSI_	115	192	0	96	48	2
NMTAP	115	240	0
NMTAP	115	288	5
NMTAP	115	336	5
EXTAP	116	0	3
NMTAP	116	48	4
NMTAP	116	72	4
NMTAP	116	96	4
NMTAP	116	144	3
NMTAP	116	168	3
NMTAP	116	192	3
NMTAP	116	240	4
NMTAP	116	264	5
NMTAP	116	288	6
NMTAP	116	312	7
NMTAP	116	336	0
NMTAP	116	360	1
NMTAP	117	0	2
NMTAP	117	48	4
NMTAP	117	96	6
NMTAP	117	144	0
NMTAP	117	160	1
NMTAP	117	176	2
NMTAP	117	192	3
NMTAP	117	240	7
NMTAP	117	256	6
NMTAP	117	272	5
NMTAP	117	288	4
NMTAP	117	336	2
NMTAP	118	0	1
NMTAP	118	48	5
NMTTP	118	96	6	E	0	M1
NMTTP	118	112	7	E	0	M1
NMTTP	118	128	0	E	0	M1
NMTTP	118	144	1	E	0	M1
NMTTP	118	160	2	E	0	M1
NMTTP	118	176	3	E	0	M1
NMTTP	118	192	4	E	0	M1
BXSTR	118	288	0
NMSI_	118	288	0	96	48	5
NMTAP	119	0	0
BRTAP	119	0	4
NMTAP	119	192	4
NMTAP	119	192	6
NMTAP	119	264	0
NMTAP	119	264	7
NMTAP	119	336	1
NMTAP	119	336	3
NMTAP	120	0	1
NMTAP	120	0	3
NMTAP	120	96	4
NMTAP	120	96	6
NMTAP	120	192	3
NMSTR	120	240	4
NMSCR	120	240	4	96	48	7
NMSTR	120	288	2
NMSI_	120	288	2	96	48	0
BRTAP	120	336	4
BRTAP	121	0	2

T_REC_TAP	413
T_REC_BRK	18
T_REC_XTP	50
T_REC_BXX	3
T_REC_HLD	52
T_REC_XHO	0
T_REC_BHO	3
T_REC_BXH	0
T_REC_STR	128
T_REC_BST	1
T_REC_XST	15
T_REC_XBS	3
T_REC_TTP	34
T_REC_THO	1
T_REC_SLD	153
T_REC_BSL	5
T_REC_ALL	879
T_NUM_TAP	640
T_NUM_BRK	33
T_NUM_HLD	53
T_NUM_SLD	153
T_NUM_ALL	879
T_JUDGE_TAP	665
T_JUDGE_HLD	114
T_JUDGE_SLD	158
T_JUDGE_ALL	937
TTM_EACHPAIRS	105
TTM_SCR_TAP	320000
TTM_SCR_BRK	85800
TTM_SCR_HLD	53000
TTM_SCR_SLD	229500
TTM_SCR_ALL	688300
TTM_SCR_S	664450
TTM_SCR_SS	685000
TTM_RAT_ACV	10048

