VERSION	0.00.00	1.05.00
FES_MODE	0
BPM_DEF	215.000	215.000	215.000	215.000
MET_DEF	4	4
RESOLUTION	384
CLK_DEF	384
COMPATIBLE_CODE	MA2

BPM	0	0	215.000
MET	0	0	4	4
MET	30	0	4	3
MET	39	0	4	4

NMHLD	2	0	2	192
NMTAP	2	192	3
NMHLD	2	288	4	192
NMTAP	3	96	3
NMHLD	3	192	5	192
NMHLD	4	0	4	192
NMHLD	4	192	3	192
NMTAP	5	0	2
NMTAP	5	96	2
NMTAP	5	96	3
NMHLD	5	192	1	96
NMHLD	5	192	4	96
EXTAP	6	0	2
NMTAP	6	96	1
NMTAP	6	96	7
NMTAP	6	192	5
NMTAP	6	288	0
NMTAP	6	288	6
NMTAP	7	0	2
NMTAP	7	96	1
NMTAP	7	96	7
NMTAP	7	192	5
NMTAP	7	288	0
NMTAP	7	288	6
NMTAP	8	0	1
NMTAP	8	96	1
NMTAP	8	96	3
NMTAP	8	192	5
NMTAP	8	288	4
NMTAP	8	288	5
NMTAP	9	0	6
NMTAP	9	0	7
NMTAP	9	96	6
NMTAP	9	96	7
NMTAP	9	192	0
NMTAP	9	192	5
EXTAP	10	0	5
NMTAP	10	96	0
NMTAP	10	96	6
NMTAP	10	192	2
NMTAP	10	288	1
NMTAP	10	288	7
NMTAP	11	0	5
NMTAP	11	96	0
NMTAP	11	96	6
NMTAP	11	192	2
NMTAP	11	288	1
NMTAP	11	288	7
NMTAP	12	0	6
NMTAP	12	96	4
NMTAP	12	96	6
NMTAP	12	192	1
NMTAP	12	288	1
NMTAP	12	288	3
NMTAP	13	0	0
NMTAP	13	0	7
NMTAP	13	96	0
NMTAP	13	96	7
NMTAP	13	192	1
NMTAP	13	192	6
NMHLD	14	0	1	192
NMHLD	14	192	3	192
NMHLD	15	0	2	192
NMTAP	15	96	3
NMTAP	15	192	3
NMHLD	16	0	5	192
NMHLD	16	192	4	192
NMHLD	17	0	6	192
NMTAP	17	96	4
NMTAP	17	192	4
NMHLD	18	0	2	192
NMHLD	18	192	3	192
NMHLD	19	0	1	192
NMTAP	19	96	2
NMTAP	19	192	2
NMTAP	20	0	2
NMHLD	20	0	3	576
NMTAP	20	192	4
NMTHO	21	0	0	192	C	0	M1
NMTAP	22	0	6
NMTAP	22	96	6
NMTAP	22	96	7
NMTAP	22	192	1
NMTAP	22	288	0
NMTAP	22	288	1
NMTAP	23	0	2
NMTAP	23	48	2
NMTAP	23	144	3
NMTAP	23	144	4
NMTAP	23	240	5
NMTAP	23	288	5
NMHLD	24	0	6	96
NMTAP	24	96	4
NMHLD	24	192	2	96
NMTAP	24	288	3
NMTAP	25	0	1
NMTAP	25	48	1
NMTAP	25	144	0
NMTAP	25	144	7
NMTAP	25	240	6
NMTAP	25	240	7
NMTAP	25	288	6
NMTAP	25	288	7
NMTAP	26	0	1
NMTAP	26	96	0
NMTAP	26	96	1
NMTAP	26	192	6
NMTAP	26	288	6
NMTAP	26	288	7
NMTAP	27	0	5
NMTAP	27	48	5
NMTAP	27	144	3
NMTAP	27	144	4
NMTAP	27	240	2
NMTAP	27	240	3
NMTAP	27	288	2
NMTAP	27	288	3
NMHLD	28	0	0	96
NMHLD	28	0	1	96
NMHLD	28	192	6	96
NMHLD	28	192	7	96
NMTAP	29	0	6
NMTAP	29	0	7
NMTAP	29	96	0
NMTAP	29	96	1
BRTAP	29	192	6
BRTAP	29	192	7
NMSTR	30	0	0
NMSLR	30	0	0	96	384	4
NMTTP	31	192	7	E	0	M1
NMTTP	31	288	6	E	0	M1
NMTTP	32	0	5	E	0	M1
NMTTP	32	96	4	E	0	M1
NMTTP	32	192	3	E	0	M1
NMSTR	33	0	4
NMSLR	33	0	4	96	384	0
NMTTP	34	192	1	E	0	M1
NMTTP	34	288	2	E	0	M1
NMTTP	35	0	3	E	0	M1
NMTTP	35	96	4	E	0	M1
NMTTP	35	192	5	E	0	M1
NMSTR	36	0	4
NMSCR	36	0	4	96	288	7
NMHLD	36	0	6	960
NMSTR	37	192	0
NMSUL	37	192	0	96	264	4
NMTTP	39	0	3	E	0	M1
NMTTP	39	96	2	E	0	M1
NMTTP	39	192	1	E	0	M1
NMTTP	39	288	0	E	0	M1
NMTTP	40	0	7	E	0	M1
NMTTP	40	96	6	E	0	M1
NMTTP	40	192	5	E	0	M1
NMTTP	40	288	4	E	0	M1
NMTHO	41	0	0	384	C	0	M1
NMTAP	42	0	0
NMTAP	42	96	0
EXTAP	42	192	1
EXTAP	42	192	7
NMTAP	43	0	0
NMTAP	43	0	1
NMTAP	43	96	0
NMTAP	43	96	1
NMTAP	43	192	2
NMTAP	43	192	3
NMTAP	43	288	4
NMTAP	43	288	5
NMTAP	44	0	6
NMTAP	44	0	7
NMTAP	44	96	0
NMTAP	44	96	1
NMTAP	44	144	0
NMTAP	44	144	1
NMTAP	44	240	2
NMTAP	44	240	3
NMTAP	44	288	2
NMTAP	44	288	3
NMSTR	45	0	1
NMSCR	45	0	1	96	96	4
NMSTR	45	192	6
NMSCR	45	192	6	96	96	1
NMSTR	46	0	2
NMSUR	46	0	2	96	192	5
EXTAP	47	0	6
EXTAP	47	0	7
NMTAP	47	96	0
NMTAP	47	96	5
NMTAP	47	192	0
NMTAP	47	192	1
NMTAP	47	288	2
NMTAP	47	288	7
NMTAP	48	0	6
NMTAP	48	0	7
NMTAP	48	96	0
NMTAP	48	96	5
NMTAP	48	144	0
NMTAP	48	144	5
NMTAP	48	240	2
NMTAP	48	240	6
NMTAP	48	288	2
NMTAP	48	288	6
NMSTR	49	0	5
NMSCL	49	0	5	96	96	2
NMTAP	49	192	0
NMSTR	49	288	1
NMSXL	49	288	1	96	192	0
BRTAP	50	192	7
NMTAP	51	0	6
NMTAP	51	0	7
NMTAP	51	96	6
NMTAP	51	96	7
NMTAP	51	192	4
NMTAP	51	192	5
NMTAP	51	288	2
NMTAP	51	288	3
NMTAP	52	0	0
NMTAP	52	0	1
NMTAP	52	96	6
NMTAP	52	96	7
NMTAP	52	144	6
NMTAP	52	144	7
NMTAP	52	240	4
NMTAP	52	240	5
NMTAP	52	288	4
NMTAP	52	288	5
NMSTR	53	0	6
NMSI_	53	0	6	96	96	3
NMSTR	53	192	7
NMSI_	53	192	7	96	96	2
NMSTR	54	0	4
NMSI_	54	0	4	96	96	1
NMSI_	54	0	4	96	96	7
NMTAP	54	288	2
NMTAP	54	288	6
NMTAP	55	0	1
NMTAP	55	0	3
NMTAP	55	96	1
NMTAP	55	96	3
NMTAP	55	192	4
NMTAP	55	192	6
NMTAP	55	288	4
NMTAP	55	288	6
NMTAP	56	0	0
NMTAP	56	0	7
NMTAP	56	96	0
NMTAP	56	96	1
NMTAP	56	144	0
NMTAP	56	144	1
NMTAP	56	240	2
NMTAP	56	240	3
NMTAP	56	288	2
NMTAP	56	288	3
NMTAP	57	0	4
NMSTR	57	0	5
NMSI_	57	0	5	96	96	0
NMSTR	57	192	2
NMSI_	57	192	2	96	96	7
NMTAP	58	0	6
NMTAP	58	96	0
NMTAP	58	96	6
NMTAP	58	192	1
NMTAP	58	192	7
NMTAP	58	288	1
NMTAP	58	288	7
BRTAP	59	0	2
BRTAP	59	0	6
EXTAP	59	192	6
EXTAP	59	264	7
EXTAP	59	336	0
EXTAP	60	0	0
NMTAP	60	96	1
NMTAP	60	96	7
NMTAP	60	192	4
NMTAP	60	192	6
NMTAP	60	288	1
NMTAP	60	288	3
BRTAP	61	0	0
BRTAP	61	0	7
NMHLD	61	192	2	96
NMTAP	61	288	3
NMTAP	62	0	0
NMTAP	62	0	1
NMSTR	62	96	0
NMSI_	62	96	0	96	96	4
NMSTR	62	96	1
NMSI_	62	96	1	96	96	5
NMHLD	63	0	6	96
NMTAP	63	96	7
NMHLD	63	192	1	96
NMTAP	63	288	0
NMTAP	64	0	6
NMTAP	64	96	4
NMTAP	64	96	6
NMTAP	64	192	3
NMTAP	64	192	7
NMHLD	65	0	5	96
NMTAP	65	96	4
NMHLD	65	192	2	96
NMTAP	65	288	3
NMTAP	66	0	4
NMTAP	66	0	5
NMSTR	66	96	4
NMSCL	66	96	4	96	96	1
NMSTR	66	96	5
NMSCR	66	96	5	96	96	0
NMTAP	67	0	1
NMTAP	67	96	0
NMTAP	67	96	1
NMTAP	67	192	6
NMTAP	67	288	6
NMTAP	67	288	7
NMTTP	68	0	4	B	0	M1
NMTTP	68	0	4	E	0	M1
NMTTP	68	0	5	E	0	M1
NMTTP	68	96	2	B	0	M1
NMTTP	68	96	2	E	0	M1
NMTTP	68	96	3	E	0	M1
NMTTP	68	192	0	C	1	M1
EXSTR	69	0	6
NMSCR	69	0	6	96	144	1
NMTAP	69	288	2
NMSTR	70	0	2
NMSCR	70	0	2	96	144	5
NMTAP	70	288	6
NMSTR	71	0	6
NMSV_	71	0	6	96	192	5
CNSI_	71	288	5	0	144	3
NMTAP	72	192	2
NMTAP	72	192	3
EXSTR	73	0	2
NMSCL	73	0	2	96	144	7
EXTAP	73	0	3
NMTAP	73	288	6
NMSTR	74	0	6
NMSCL	74	0	6	96	144	3
NMTAP	74	0	7
NMTAP	74	288	2
NMTAP	75	0	0
NMSTR	75	0	1
NMSXL	75	0	1	96	336	0
EXTAP	76	192	0
EXTAP	76	192	7
BXTAP	77	0	1
NMHLD	77	96	1	480
NMTTP	77	192	4	E	0	M1
NMTTP	77	288	0	C	0	M1
NMTTP	78	0	0	E	0	M1
NMTTP	78	96	2	E	0	M1
NMTTP	78	192	4	E	0	M1
BXTAP	79	0	6
NMHLD	79	96	6	480
NMTTP	79	192	4	E	0	M1
NMTTP	79	288	0	C	0	M1
NMTTP	80	0	0	E	0	M1
NMTTP	80	96	6	E	0	M1
NMTTP	80	192	4	E	0	M1
EXHLD	81	0	4	96
NMHLD	81	96	5	96
NMHLD	81	192	6	96
NMHLD	81	288	7	96
NMHLD	82	0	0	96
NMHLD	82	96	1	96
NMHLD	82	192	2	96
NMHLD	82	288	3	96
NMHLD	83	0	4	480
BXTAP	84	0	5
BXTAP	84	96	5
EXTAP	84	192	1
BXTAP	84	192	7
BRTAP	85	0	0
BRTAP	85	0	7
NMTAP	85	96	4
NMTAP	85	96	5
NMTAP	85	192	0
NMTAP	85	192	7
NMTAP	85	288	2
NMTAP	85	288	3
NMTAP	86	0	0
NMTAP	86	0	7
NMTAP	86	96	4
NMTAP	86	96	6
NMTAP	86	144	4
NMTAP	86	144	6
NMTAP	86	240	1
NMTAP	86	240	3
NMTAP	86	288	1
NMTAP	86	288	3
NMSTR	87	0	0
NMSI_	87	0	0	96	48	4
NMSTR	87	192	6
NMSI_	87	192	6	96	48	2
NMSTR	88	0	1
NMSLR	88	0	1	96	96	7
NMTAP	88	288	0
NMTAP	88	288	6
BRTAP	89	0	0
BRTAP	89	0	7
NMTAP	89	96	2
NMTAP	89	96	3
NMTAP	89	192	0
NMTAP	89	192	7
NMTAP	89	288	4
NMTAP	89	288	5
NMTAP	90	0	0
NMTAP	90	0	7
NMTAP	90	96	1
NMTAP	90	96	3
NMTAP	90	144	1
NMTAP	90	144	3
NMTAP	90	240	4
NMTAP	90	240	6
NMTAP	90	288	4
NMTAP	90	288	6
NMSTR	91	0	7
NMSCL	91	0	7	96	48	4
NMSTR	91	192	0
NMSCR	91	192	0	96	48	3
NMSTR	92	0	5
NMSUL	92	0	5	96	192	3
NMTAP	93	0	0
NMTAP	93	0	1
NMTAP	93	96	3
NMTAP	93	96	5
NMTAP	93	192	6
NMTAP	93	192	7
NMTAP	93	288	2
NMTAP	93	288	4
NMHLD	94	0	1	96
NMTAP	94	96	0
NMTAP	94	144	0
NMTAP	94	240	2
NMTAP	94	240	7
NMTAP	94	288	2
NMTAP	94	288	7
NMSTR	95	0	6
NMSV_	95	0	6	96	48	3
NMSTR	95	192	2
NMSCL	95	192	2	96	48	7
NMSTR	96	0	4
NMSF_	96	0	4	96	96	0
NMTAP	96	288	2
NMTAP	96	288	6
NMHLD	97	0	1	96
NMTAP	97	96	0
NMTAP	97	144	0
NMTAP	97	192	1
NMTAP	97	288	2
NMTAP	97	288	7
NMHLD	98	0	6	96
NMTAP	98	96	4
NMTAP	98	144	4
NMTAP	98	240	3
NMTAP	98	240	7
NMTAP	98	288	3
NMTAP	98	288	7
NMSTR	99	0	2
NMSI_	99	0	2	96	48	5
NMSTR	99	192	6
NMSI_	99	192	6	96	48	1
NMSTR	100	0	3
NMSXL	100	0	3	96	288	6
NMSXR	100	0	3	96	288	0
EXTAP	101	192	2
EXTAP	101	264	3
EXTAP	101	336	4
EXTAP	102	0	4
NMTAP	102	96	3
NMTAP	102	96	5
NMTAP	102	192	2
NMTAP	102	192	6
EXTAP	103	0	0
EXTAP	103	0	1
NMTAP	103	96	4
NMTAP	103	96	5
NMTAP	103	192	6
NMTAP	103	192	7
NMTAP	103	288	2
NMTAP	103	288	3
NMTAP	104	0	0
NMTAP	104	0	1
NMTAP	104	96	2
NMTAP	104	96	7
NMTAP	104	144	2
NMTAP	104	144	7
NMTAP	104	240	0
NMTAP	104	240	5
NMTAP	104	288	0
NMTAP	104	288	5
NMHLD	105	0	1	96
NMTAP	105	96	3
NMHLD	105	192	6	96
NMTAP	105	288	4
NMTAP	106	0	3
NMTAP	106	0	5
NMTAP	106	96	1
NMTAP	106	96	7
BRTAP	106	192	2
BRTAP	106	192	6
NMSTR	107	0	1
NMSI_	107	0	1	96	48	5
NMTAP	107	0	7
NMTAP	107	192	0
NMSTR	107	192	6
NMSI_	107	192	6	96	48	2
NMSTR	108	0	1
NMSXL	108	0	1	96	192	5
NMTAP	108	0	7
NMSTR	109	0	6
NMSCL	109	0	6	96	96	3
NMSTR	109	0	7
NMSUL	109	0	7	96	96	2
NMTAP	109	288	0
NMTAP	109	288	1
NMSTR	110	0	0
NMSUR	110	0	0	96	96	5
NMSTR	110	0	1
NMSCR	110	0	1	96	96	4
BRTAP	111	0	5
BRTAP	111	0	7
NMTAP	111	96	2
NMTAP	111	96	3
NMTAP	111	192	0
NMTAP	111	192	2
NMTAP	111	288	4
NMTAP	111	288	5
NMTAP	112	0	5
NMTAP	112	0	7
NMTAP	112	96	2
NMTAP	112	96	3
NMTAP	112	144	2
NMTAP	112	144	3
NMTAP	112	240	0
NMTAP	112	240	1
NMTAP	112	288	0
NMTAP	112	288	1
NMHLD	113	0	6	96
NMTAP	113	0	7
NMTAP	113	96	4
NMTAP	113	192	0
NMHLD	113	192	1	96
NMTAP	113	288	3
NMTAP	114	0	2
NMTAP	114	0	4
NMTAP	114	96	4
NMTAP	114	96	6
BRTAP	114	192	1
BRTAP	114	192	7
NMTAP	115	0	3
NMSTR	115	0	5
NMSI_	115	0	5	96	48	0
NMSTR	115	192	2
NMSI_	115	192	2	96	48	7
NMTAP	115	192	4
NMTAP	116	0	3
NMSTR	116	0	5
NMSXL	116	0	5	96	192	0
BRSTR	117	0	2
NMSCL	117	0	2	96	96	7
BRSTR	117	0	3
NMSUL	117	0	3	96	96	6
NMTAP	117	288	4
NMTAP	117	288	5
BRSTR	118	0	4
NMSUR	118	0	4	96	96	1
BRSTR	118	0	5
NMSCR	118	0	5	96	96	0
NMTAP	118	288	2
NMTAP	118	288	3
BRTAP	119	0	0
BRTAP	119	0	5
NMHLD	119	192	1	72
NMHLD	119	264	0	72
EXTAP	119	336	7
EXTAP	120	0	7
NMTAP	120	96	0
NMTAP	120	96	6
NMTAP	120	144	0
NMTAP	120	144	6
NMTAP	120	192	0
NMTAP	120	192	6
NMSTR	120	288	1
BRSI_	120	288	1	96	48	4
NMSTR	120	288	5
BRSI_	120	288	5	96	48	0

T_REC_TAP	345
T_REC_BRK	19
T_REC_XTP	22
T_REC_BXX	5
T_REC_HLD	48
T_REC_XHO	1
T_REC_BHO	0
T_REC_BXH	0
T_REC_STR	46
T_REC_BST	4
T_REC_XST	2
T_REC_XBS	0
T_REC_TTP	35
T_REC_THO	2
T_REC_SLD	52
T_REC_BSL	2
T_REC_ALL	583
T_NUM_TAP	450
T_NUM_BRK	30
T_NUM_HLD	51
T_NUM_SLD	52
T_NUM_ALL	583
T_JUDGE_TAP	478
T_JUDGE_HLD	190
T_JUDGE_SLD	54
T_JUDGE_ALL	722
TTM_EACHPAIRS	174
TTM_SCR_TAP	225000
TTM_SCR_BRK	78000
TTM_SCR_HLD	51000
TTM_SCR_SLD	78000
TTM_SCR_ALL	432000
TTM_SCR_S	416150
TTM_SCR_SS	429000
TTM_RAT_ACV	10069

