VERSION	0.00.00	1.05.00
FES_MODE	0
BPM_DEF	215.000	215.000	215.000	215.000
MET_DEF	4	4
RESOLUTION	384
CLK_DEF	384
COMPATIBLE_CODE	MA2

BPM	0	0	215.000
MET	0	0	4	4
MET	30	0	4	3
MET	39	0	4	4

NMTAP	6	0	4
NMTAP	6	96	4
NMTAP	6	192	4
NMTAP	7	0	5
NMTAP	7	96	5
NMTAP	7	192	5
NMTAP	8	0	6
NMTAP	8	96	6
NMTAP	8	192	6
NMTAP	9	0	0
NMTAP	9	0	7
NMTAP	9	192	0
NMTAP	9	192	7
NMTAP	10	0	0
NMTAP	10	96	0
NMTAP	10	192	0
NMTAP	11	0	1
NMTAP	11	96	1
NMTAP	11	192	1
NMTAP	12	0	2
NMTAP	12	96	2
NMTAP	12	192	2
NMTAP	13	0	3
NMTAP	13	0	4
NMTAP	14	0	3
NMTAP	14	96	3
NMTAP	14	192	2
NMTAP	15	0	1
NMTAP	15	96	1
NMTAP	15	192	0
NMTAP	16	0	7
NMTAP	16	96	7
NMTAP	16	192	6
NMTAP	17	0	5
NMTAP	17	96	5
NMTAP	17	192	4
NMTAP	17	192	5
NMTAP	18	0	4
NMTAP	18	96	4
NMTAP	18	192	5
NMTAP	19	0	6
NMTAP	19	96	6
NMTAP	19	192	7
NMTAP	20	0	0
NMTAP	20	96	0
NMTAP	20	192	1
NMTAP	21	0	2
NMTAP	21	96	2
NMTAP	21	192	2
NMTAP	21	192	3
NMTTP	22	0	1	B	0	L1
NMTTP	22	96	2	B	0	L1
NMTTP	22	192	3	B	0	L1
NMTTP	23	0	6	B	0	L1
NMTTP	23	96	5	B	0	L1
NMTTP	23	192	4	B	0	L1
NMTTP	24	0	1	B	0	L1
NMTTP	24	96	2	B	0	L1
NMTTP	24	192	3	B	0	L1
NMTTP	24	288	4	B	0	L1
NMTTP	25	0	0	C	0	L1
NMTTP	26	0	7	B	0	L1
NMTTP	26	96	6	B	0	L1
NMTTP	26	192	4	B	0	L1
NMTTP	26	192	5	B	0	L1
NMTTP	27	0	0	B	0	L1
NMTTP	27	96	1	B	0	L1
NMTTP	27	192	2	B	0	L1
NMTTP	27	192	3	B	0	L1
NMTTP	28	0	6	B	0	L1
NMTTP	28	96	5	B	0	L1
NMTTP	28	192	4	B	0	L1
NMTTP	28	288	3	B	0	L1
NMTTP	29	0	0	C	1	L1
EXSTR	30	0	0
NMSI_	30	0	0	96	288	4
NMSTR	31	192	6
NMSI_	31	192	6	96	288	2
NMSTR	33	0	1
NMSI_	33	0	1	96	288	4
NMSTR	34	192	6
NMSI_	34	192	6	96	288	3
NMSTR	36	0	2
NMSI_	36	0	2	96	288	7
NMSTR	37	192	6
NMSCL	37	192	6	96	288	3
NMHLD	39	0	2	192
NMTAP	39	192	3
NMHLD	40	0	4	192
NMTAP	40	192	3
NMTAP	41	0	3
NMTAP	41	0	4
NMTAP	42	0	3
NMTAP	42	0	4
NMTAP	42	96	3
NMTAP	42	96	4
NMTAP	42	192	3
NMTAP	42	192	4
NMTAP	43	0	5
NMTAP	43	96	5
NMTAP	43	192	6
NMTAP	43	288	6
NMTAP	44	0	7
NMTAP	44	96	7
NMTAP	44	192	0
NMTAP	44	192	1
NMTAP	45	0	2
NMTAP	45	96	2
NMTAP	45	192	1
NMTAP	45	288	1
NMTAP	46	0	0
NMTAP	46	96	0
NMTAP	46	192	6
NMTAP	46	192	7
NMTAP	47	0	6
NMTAP	47	96	6
NMTAP	47	192	5
NMTAP	47	288	5
NMTAP	48	0	4
NMTAP	48	96	4
NMTAP	48	192	2
NMTAP	48	192	3
NMTAP	49	0	1
NMTAP	49	96	1
NMTAP	49	192	2
NMTAP	49	288	2
NMTAP	50	0	3
NMTAP	50	96	3
NMTAP	50	192	4
NMTAP	50	192	5
NMTAP	51	0	5
NMTAP	51	96	5
NMTAP	51	192	6
NMTAP	51	288	6
NMTAP	52	0	7
NMTAP	52	96	7
NMTAP	52	192	0
NMTAP	52	192	1
NMTAP	53	0	2
NMTAP	53	96	2
NMTAP	53	192	1
NMTAP	53	288	1
NMTAP	54	0	0
NMTAP	54	96	0
NMTAP	54	192	6
NMTAP	54	192	7
NMTAP	55	0	6
NMTAP	55	96	6
NMTAP	55	192	5
NMTAP	55	288	5
NMTAP	56	0	4
NMTAP	56	96	4
NMTAP	56	192	2
NMTAP	56	192	3
NMTAP	57	0	1
NMTAP	57	96	1
NMTAP	57	192	2
NMTAP	57	288	2
NMTAP	58	0	3
NMTAP	58	96	3
BXTAP	58	192	4
BXTAP	58	192	5
NMHLD	59	0	5	192
NMTAP	59	192	4
NMHLD	60	0	2	192
NMTAP	60	192	3
NMTAP	61	0	3
NMTAP	61	96	3
NMTAP	61	192	2
NMTAP	61	288	2
NMTAP	62	0	1
NMTAP	62	96	1
NMTAP	62	192	0
NMTAP	62	288	0
NMTAP	63	0	7
NMTAP	63	96	7
NMTAP	63	192	6
NMTAP	63	288	6
NMTAP	64	0	5
NMTAP	64	96	5
NMTAP	64	192	3
NMTAP	64	192	4
NMTAP	65	0	4
NMTAP	65	96	4
NMTAP	65	192	5
NMTAP	65	288	5
NMTAP	66	0	6
NMTAP	66	96	6
NMTAP	66	192	7
NMTAP	66	288	7
NMTAP	67	0	0
NMTAP	67	96	0
NMTAP	67	192	1
NMTAP	67	288	1
NMTAP	68	0	2
NMTAP	68	96	2
NMTAP	68	192	3
NMTAP	68	192	4
NMHLD	69	0	5	192
NMHLD	69	192	4	192
NMHLD	70	0	3	192
NMTAP	70	192	2
NMHLD	71	0	2	192
NMHLD	71	192	3	192
NMHLD	72	0	4	192
NMTAP	72	192	5
NMHLD	73	0	6	192
NMHLD	73	192	5	192
NMHLD	74	0	4	192
NMTAP	74	192	3
NMHLD	75	0	1	192
NMHLD	75	192	2	192
NMHLD	76	0	3	192
NMTAP	76	192	4
NMTTP	77	0	2	B	0	L1
NMTTP	77	0	3	B	0	L1
NMTTP	77	192	0	B	0	L1
NMTTP	77	192	1	B	0	L1
NMTTP	78	0	6	B	0	L1
NMTTP	78	0	7	B	0	L1
NMTTP	78	192	4	B	0	L1
NMTTP	78	192	5	B	0	L1
NMTTP	79	0	3	E	0	L1
NMTTP	79	96	2	B	0	L1
NMTTP	79	192	1	B	0	L1
NMTTP	80	0	5	E	0	L1
NMTTP	80	96	5	B	0	L1
NMTTP	80	192	6	B	0	L1
NMTTP	81	0	0	B	0	L1
NMTTP	81	0	1	B	0	L1
NMTTP	81	192	2	B	0	L1
NMTTP	81	192	3	B	0	L1
NMTTP	82	0	4	B	0	L1
NMTTP	82	0	5	B	0	L1
NMTTP	82	192	6	B	0	L1
NMTTP	82	192	7	B	0	L1
NMTHO	83	0	0	384	C	1	L1
NMTAP	85	0	6
NMTAP	85	96	6
NMTAP	85	192	6
NMTAP	85	192	7
NMTAP	85	288	6
NMTAP	85	288	7
NMTAP	86	0	0
NMTAP	86	96	0
NMTAP	86	192	0
NMTAP	86	192	1
NMTAP	87	0	2
NMTAP	87	96	2
NMTAP	87	192	0
NMTAP	87	192	1
NMTAP	87	288	0
NMTAP	87	288	1
NMTAP	88	0	7
NMTAP	88	96	7
NMTAP	88	192	6
NMTAP	88	192	7
NMTAP	89	0	6
NMTAP	89	96	6
NMTAP	89	192	4
NMTAP	89	192	5
NMTAP	89	288	4
NMTAP	89	288	5
NMTAP	90	0	3
NMTAP	90	96	3
NMTAP	90	192	2
NMTAP	90	192	3
NMTAP	91	0	1
NMTAP	91	96	1
NMTAP	91	192	2
NMTAP	91	192	3
NMTAP	91	288	2
NMTAP	91	288	3
NMTAP	92	0	4
NMTAP	92	96	4
BXTAP	92	192	4
BXTAP	92	192	5
NMTAP	93	0	6
NMTAP	93	96	6
NMTAP	93	192	6
NMTAP	93	288	6
NMTAP	93	288	7
NMTAP	94	0	5
NMTAP	94	96	5
NMTAP	94	192	5
NMTAP	94	288	4
NMTAP	94	288	5
NMTAP	95	0	3
NMTAP	95	96	3
NMTAP	95	192	3
NMTAP	95	288	2
NMTAP	95	288	3
NMTAP	96	0	0
NMTAP	96	0	1
NMTAP	96	96	0
NMTAP	96	96	1
NMTAP	96	192	0
NMTAP	96	192	1
NMTAP	97	0	1
NMTAP	97	96	1
NMTAP	97	192	1
NMTAP	97	288	0
NMTAP	97	288	1
NMTAP	98	0	2
NMTAP	98	96	2
NMTAP	98	192	2
NMTAP	98	288	2
NMTAP	98	288	3
NMTAP	99	0	4
NMTAP	99	96	4
NMTAP	99	192	4
NMTAP	99	288	4
NMTAP	99	288	5
NMTAP	100	0	6
NMTAP	100	0	7
NMTAP	100	96	6
NMTAP	100	96	7
NMTAP	100	192	6
NMTAP	100	192	7
NMSTR	101	0	0
NMSCR	101	0	0	96	480	3
NMSTR	101	0	7
NMSCL	101	0	7	96	480	4
NMTAP	103	0	2
NMTAP	103	96	2
NMTAP	103	192	0
NMTAP	103	192	1
NMTAP	103	288	0
NMTAP	103	288	1
NMTAP	104	0	7
NMTAP	104	96	7
NMTAP	104	192	6
NMTAP	104	192	7
NMTAP	104	288	6
NMTAP	104	288	7
NMTAP	105	0	5
NMTAP	105	96	5
NMTAP	105	192	6
NMTAP	105	192	7
NMTAP	105	288	6
NMTAP	105	288	7
NMTAP	106	0	0
NMTAP	106	96	0
NMTAP	106	192	0
NMTAP	106	192	1
NMTAP	107	0	1
NMTAP	107	96	1
NMTAP	107	192	2
NMTAP	107	192	3
NMTAP	107	288	2
NMTAP	107	288	3
NMTAP	108	0	4
NMTAP	108	96	4
NMTAP	108	192	4
NMTAP	108	192	5
NMTAP	108	288	4
NMTAP	108	288	5
NMTAP	109	0	6
NMTAP	109	96	6
NMTAP	109	192	4
NMTAP	109	192	5
NMTAP	109	288	4
NMTAP	109	288	5
NMTAP	110	0	3
NMTAP	110	96	3
BRTAP	110	192	2
BRTAP	110	192	3
NMTAP	111	0	3
NMTAP	111	96	2
NMTAP	111	192	1
NMTAP	111	288	0
NMTAP	112	0	7
NMTAP	112	96	6
NMTAP	112	192	4
NMTAP	112	192	5
NMTAP	113	0	4
NMTAP	113	96	5
NMTAP	113	192	6
NMTAP	113	288	7
NMTAP	114	0	0
NMTAP	114	96	1
NMTAP	114	192	2
NMTAP	114	192	3
NMTAP	115	0	3
NMTAP	115	96	2
NMTAP	115	192	1
NMTAP	115	288	0
NMTAP	116	0	7
NMTAP	116	96	6
NMTAP	116	192	5
NMTAP	116	288	4
NMTAP	117	0	3
NMTAP	117	96	2
NMTAP	117	192	1
NMTAP	117	288	0
NMTAP	118	0	0
NMTAP	118	0	7
NMTAP	118	96	0
NMTAP	118	96	7
NMTAP	118	192	0
NMTAP	118	192	7
NMHLD	119	0	1	192
NMTAP	119	192	0
NMHLD	120	0	6	192
NMTAP	120	192	7
BXTAP	121	0	0
BXTAP	121	0	7

T_REC_TAP	318
T_REC_BRK	2
T_REC_XTP	0
T_REC_BXX	6
T_REC_HLD	18
T_REC_XHO	0
T_REC_BHO	0
T_REC_BXH	0
T_REC_STR	7
T_REC_BST	0
T_REC_XST	1
T_REC_XBS	0
T_REC_TTP	46
T_REC_THO	1
T_REC_SLD	8
T_REC_BSL	0
T_REC_ALL	407
T_NUM_TAP	372
T_NUM_BRK	8
T_NUM_HLD	19
T_NUM_SLD	8
T_NUM_ALL	407
T_JUDGE_TAP	380
T_JUDGE_HLD	80
T_JUDGE_SLD	8
T_JUDGE_ALL	468
TTM_EACHPAIRS	64
TTM_SCR_TAP	186000
TTM_SCR_BRK	20800
TTM_SCR_HLD	19000
TTM_SCR_SLD	12000
TTM_SCR_ALL	237800
TTM_SCR_S	229900
TTM_SCR_SS	237000
TTM_RAT_ACV	10033

