VERSION	0.00.00	1.05.00
FES_MODE	0
BPM_DEF	215.000	215.000	215.000	215.000
MET_DEF	4	4
RESOLUTION	384
CLK_DEF	384
COMPATIBLE_CODE	MA2

BPM	0	0	215.000
MET	0	0	4	4
MET	30	0	4	3
MET	39	0	4	4

EXTAP	6	0	0
NMTAP	6	192	0
NMTAP	7	0	1
NMTAP	8	0	2
NMTAP	8	192	2
NMTAP	9	0	3
NMTAP	10	0	4
NMTAP	10	192	4
NMTAP	11	0	5
NMTAP	12	0	6
NMTAP	12	192	6
NMTAP	13	0	0
NMTAP	13	0	7
NMTAP	14	0	7
NMTAP	14	192	7
NMTAP	15	0	6
NMTAP	15	192	6
NMTAP	16	0	5
NMTAP	17	0	4
NMTAP	17	0	5
NMTAP	18	0	3
NMTAP	18	192	3
NMTAP	19	0	2
NMTAP	19	192	2
NMTAP	20	0	1
NMTAP	21	0	0
NMTAP	21	0	1
NMHLD	22	0	0	192
NMHLD	22	0	1	192
NMTAP	23	0	0
NMTAP	23	0	1
NMHLD	24	0	2	192
NMHLD	24	0	3	192
NMTAP	25	0	2
NMTAP	25	0	3
NMHLD	26	0	4	192
NMHLD	26	0	5	192
NMTAP	27	0	4
NMTAP	27	0	5
NMHLD	28	0	6	192
NMHLD	28	0	7	192
NMTAP	29	0	6
NMTAP	29	0	7
NMSTR	30	0	0
NMSI_	30	0	0	96	384	4
NMSTR	33	0	7
NMSI_	33	0	7	96	384	3
NMSTR	36	0	1
NMSI_	36	0	1	96	384	5
EXTAP	39	0	7
EXTAP	39	192	7
EXTAP	40	0	0
EXTAP	40	192	0
NMHLD	41	0	0	384
NMHLD	41	0	7	384
BRTAP	43	0	7
NMTAP	43	96	7
NMTAP	43	192	7
NMTAP	44	0	6
NMTAP	44	192	6
NMTAP	45	0	5
NMTAP	45	192	5
NMTAP	46	0	3
NMTAP	46	0	4
NMTAP	46	192	3
NMTAP	46	192	4
NMTAP	47	0	3
NMTAP	47	96	3
NMTAP	47	192	3
NMTAP	48	0	2
NMTAP	48	192	2
NMTAP	49	0	1
NMTAP	49	192	1
NMTAP	50	0	0
NMTAP	50	0	7
BRTAP	51	0	0
NMTAP	51	96	0
NMTAP	51	192	0
NMTAP	52	0	1
NMTAP	52	192	1
NMTAP	53	0	2
NMTAP	53	96	2
NMTAP	53	192	2
NMTAP	54	0	3
NMTAP	54	192	3
NMTAP	54	192	4
NMTAP	55	0	4
NMTAP	55	96	4
NMTAP	55	192	4
NMTAP	56	0	5
NMTAP	56	192	5
NMTAP	57	0	6
NMTAP	57	96	6
NMTAP	57	192	6
EXHLD	58	0	0	384
EXHLD	58	0	7	384
EXTAP	60	0	0
EXTAP	60	0	7
NMTAP	61	0	7
NMTAP	61	96	7
NMTAP	61	192	7
NMTAP	62	0	6
NMTAP	62	0	7
NMTAP	63	0	5
NMTAP	63	96	5
NMTAP	63	192	5
NMTAP	64	0	3
NMTAP	64	0	4
NMTAP	65	0	3
NMTAP	65	96	3
NMTAP	65	192	3
NMTAP	66	0	2
NMTAP	66	0	3
NMTAP	67	0	1
NMTAP	67	96	1
NMTAP	67	192	1
NMTAP	68	0	0
NMTAP	68	0	7
NMTTP	69	0	7	B	0	L1
NMTTP	70	0	0	B	0	L1
NMTTP	71	0	1	B	0	L1
NMTTP	72	0	2	B	0	L1
NMTTP	73	0	3	B	0	L1
NMTTP	74	0	4	B	0	L1
NMTTP	75	0	5	B	0	L1
NMTTP	76	0	0	C	1	L1
EXTAP	77	0	6
EXTAP	77	0	7
EXTAP	77	192	6
EXTAP	77	192	7
EXTAP	78	0	6
EXTAP	78	0	7
NMTAP	79	0	4
NMTAP	79	0	5
NMTAP	79	192	4
NMTAP	79	192	5
NMTAP	80	0	4
NMTAP	80	0	5
NMTAP	81	0	2
NMTAP	81	0	3
NMTAP	81	192	2
NMTAP	81	192	3
NMTAP	82	0	2
NMTAP	82	0	3
EXHLD	83	0	0	384
EXHLD	83	0	1	384
BRTAP	85	0	0
NMTAP	85	96	0
NMTAP	85	192	0
NMTAP	86	0	1
NMTAP	86	96	1
NMTAP	86	192	1
NMTAP	87	0	2
NMTAP	87	96	2
NMTAP	87	192	2
NMTAP	88	0	3
NMTAP	88	96	3
NMTAP	88	192	3
NMTAP	88	192	4
NMTAP	89	0	4
NMTAP	89	96	4
NMTAP	89	192	4
NMTAP	90	0	5
NMTAP	90	96	5
NMTAP	90	192	5
NMTAP	91	0	6
NMTAP	91	96	6
NMTAP	91	192	6
EXTAP	92	0	0
EXTAP	92	0	7
NMTAP	93	0	7
NMTAP	93	96	7
NMTAP	93	192	7
NMTAP	94	0	6
NMTAP	94	96	6
NMTAP	94	192	6
NMTAP	95	0	5
NMTAP	95	96	5
NMTAP	95	192	5
NMTAP	96	0	4
NMTAP	96	96	4
NMTAP	96	192	3
NMTAP	96	192	4
NMTAP	97	0	3
NMTAP	97	96	3
NMTAP	97	192	3
NMTAP	98	0	2
NMTAP	98	96	2
NMTAP	98	192	2
NMTAP	99	0	1
NMTAP	99	96	1
NMTAP	99	192	1
EXHLD	100	0	0	384
EXHLD	100	0	7	384
NMTAP	102	0	0
NMTAP	102	0	7
NMTAP	102	192	0
NMTAP	102	192	7
BRTAP	103	0	0
NMTAP	103	96	0
NMTAP	103	192	0
NMTAP	104	0	1
NMTAP	104	96	1
NMTAP	104	192	0
NMTAP	104	192	1
NMTAP	105	0	2
NMTAP	105	96	2
NMTAP	105	192	2
NMTAP	106	0	3
NMTAP	106	0	4
NMTAP	106	96	3
NMTAP	106	96	4
NMTAP	106	192	3
NMTAP	106	192	4
NMTAP	107	0	4
NMTAP	107	96	4
NMTAP	107	192	4
NMTAP	108	0	5
NMTAP	108	96	5
NMTAP	108	192	4
NMTAP	108	192	5
NMTAP	109	0	6
NMTAP	109	96	6
NMTAP	109	192	6
NMTAP	110	0	0
NMTAP	110	0	7
NMTAP	110	96	0
NMTAP	110	96	7
NMTAP	110	192	0
NMTAP	110	192	7
NMTAP	111	0	7
NMTAP	111	96	7
NMTAP	111	192	7
NMTAP	111	288	7
NMTAP	112	0	6
NMTAP	112	96	6
NMTAP	112	192	6
NMTAP	112	192	7
NMTAP	113	0	5
NMTAP	113	96	5
NMTAP	113	192	5
NMTAP	113	288	5
NMTAP	114	0	4
NMTAP	114	96	4
NMTAP	114	192	3
NMTAP	114	192	4
NMTAP	115	0	3
NMTAP	115	96	3
NMTAP	115	192	3
NMTAP	115	288	3
NMTAP	116	0	2
NMTAP	116	96	2
NMTAP	116	192	2
NMTAP	116	192	3
NMTAP	117	0	1
NMTAP	117	96	1
NMTAP	117	192	1
NMTAP	117	288	1
NMTAP	118	0	0
NMTAP	118	96	0
NMTAP	118	192	0
NMTAP	118	192	7
NMHLD	119	0	0	384
NMHLD	119	0	7	384
NMTAP	120	192	0
NMTAP	120	192	7
NMTAP	120	288	0
NMTAP	120	288	7
BXTAP	121	0	1
BXTAP	121	0	6

T_REC_TAP	217
T_REC_BRK	4
T_REC_XTP	15
T_REC_BXX	2
T_REC_HLD	12
T_REC_XHO	6
T_REC_BHO	0
T_REC_BXH	0
T_REC_STR	3
T_REC_BST	0
T_REC_XST	0
T_REC_XBS	0
T_REC_TTP	8
T_REC_THO	0
T_REC_SLD	3
T_REC_BSL	0
T_REC_ALL	270
T_NUM_TAP	243
T_NUM_BRK	6
T_NUM_HLD	18
T_NUM_SLD	3
T_NUM_ALL	270
T_JUDGE_TAP	249
T_JUDGE_HLD	112
T_JUDGE_SLD	3
T_JUDGE_ALL	364
TTM_EACHPAIRS	54
TTM_SCR_TAP	121500
TTM_SCR_BRK	15600
TTM_SCR_HLD	18000
TTM_SCR_SLD	4500
TTM_SCR_ALL	159600
TTM_SCR_S	154250
TTM_SCR_SS	159000
TTM_RAT_ACV	10037

