VERSION	0.00.00	1.05.00
FES_MODE	0
BPM_DEF	200.000	200.000	300.000	200.000
MET_DEF	4	4
RESOLUTION	384
CLK_DEF	576
COMPATIBLE_CODE	MA2

BPM	0	0	200.000
BPM	51	288	230.000
BPM	96	240	200.000
BPM	98	192	250.000
BPM	107	0	300.000
BPM	110	0	200.000
BPM	110	96	240.000
BPM	110	288	250.000
MET	0	0	4	3
MET	10	192	4	2
MET	11	0	4	4

NMTHO	1	192	0	288	C	0	M1
NMTTP	2	32	5	D	0	M1
NMTTP	2	48	4	A	0	M1
NMTTP	2	64	4	D	0	M1
NMTTP	2	80	3	A	0	M1
NMTTP	2	96	3	D	0	M1
NMSTR	3	0	1
NMSCR	3	0	1	96	192	4
NMSTR	3	288	6
NMSCL	3	288	6	96	192	3
NMSTR	4	192	1
NMSUR	4	192	1	96	192	6
NMHLD	5	96	7	480
NMTAP	6	288	6
NMTAP	6	336	5
NMTAP	7	0	4
NMTTP	7	96	3	B	0	M1
NMTTP	7	96	5	B	0	M1
NMTTP	7	192	2	E	0	M1
NMTTP	7	192	7	E	0	M1
NMTTP	7	288	0	E	0	M1
NMTTP	7	288	1	E	0	M1
NMTTP	8	0	0	A	0	M1
NMTTP	8	0	6	A	0	M1
NMTTP	8	96	2	A	0	M1
NMTTP	8	96	4	A	0	M1
NMHLD	8	192	1	96
NMHLD	8	192	5	96
NMTAP	9	0	0
NMTAP	9	0	4
BRSTR	9	96	0
NMSXL	9	96	0	96	288	7
BRSTR	9	96	4
BRSV_	9	96	4	96	192	6
CNSI_	10	0	6	0	288	3
BRTAP	10	288	0
NMHLD	11	0	1	288
NMHLD	11	0	3	288
NMHLD	12	0	4	288
NMHLD	12	0	6	288
NMHLD	13	0	1	288
NMSTR	13	0	5
NMSXL	13	0	5	96	192	2
BRTAP	14	0	0
BRTAP	14	0	4
NMTAP	14	288	0
NMTAP	14	312	1
NMTAP	14	336	2
NMTAP	14	360	3
NMTAP	15	0	4
NMSTR	15	0	5
NMSI_	15	0	5	96	48	7
NMSTR	15	96	4
NMSI_	15	96	4	96	48	0
NMSTR	15	192	5
NMSI_	15	192	5	96	48	0
NMSTR	15	288	2
NMSCR	15	288	2	96	48	4
NMSTR	16	0	2
NMSCL	16	0	2	96	48	0
NMHLD	16	0	5	48
NMTAP	16	96	2
NMHLD	16	96	5	48
NMTAP	16	192	2
NMTAP	16	240	3
NMSTR	16	288	4
NMSI_	16	288	4	96	48	6
NMHLD	17	0	3	144
CNSCR	17	48	6	0	48	0
CNSI_	17	96	0	0	48	2
NMSTR	17	192	3
NMSI_	17	192	3	96	48	1
NMSI_	17	192	3	96	48	5
NMTAP	17	240	3
NMSTR	18	0	6
BRSI_	18	0	6	96	72	4
NMTAP	18	48	7
NMTAP	18	96	0
CNSV_	18	168	4	0	48	3
BRTAP	18	192	7
CNSI_	18	216	3	0	72	1
BRTAP	18	288	7
NMTAP	19	0	0
NMTAP	19	0	6
NMHLD	19	96	3	96
NMSTR	19	192	5
NMSI_	19	192	5	96	48	3
NMSTR	19	240	3
NMSI_	19	240	3	96	48	6
NMTAP	19	288	5
NMTAP	19	336	2
NMSTR	20	0	1
NMSI_	20	0	1	96	48	7
NMSTR	20	48	7
NMSI_	20	48	7	96	48	2
NMTAP	20	96	1
NMTAP	20	144	5
NMSTR	20	192	4
BRSF_	20	192	4	96	48	0
NMTAP	20	240	4
NMTAP	21	0	2
NMTAP	21	0	6
BRTAP	21	96	0
NMTAP	21	96	4
NMTAP	21	192	6
NMTAP	21	240	1
NMSTR	21	288	7
NMSI_	21	288	7	96	48	2
NMSTR	21	336	0
NMSI_	21	336	0	96	48	5
EXSTR	22	0	7
NMSCL	22	0	7	96	48	4
EXSTR	22	48	0
NMSCR	22	48	0	96	48	3
NMTAP	22	96	7
NMTAP	22	144	0
BRSTR	22	192	7
NMSF_	22	192	7	96	48	3
NMTAP	23	0	0
NMTAP	23	0	6
NMTAP	23	96	0
NMTAP	23	96	1
NMTAP	23	144	2
NMTAP	23	168	3
NMTAP	23	192	1
NMTAP	23	240	4
NMTAP	23	264	3
NMTAP	23	288	5
NMTAP	23	336	6
NMTAP	24	0	6
NMTAP	24	0	7
NMTAP	24	48	0
NMTAP	24	96	6
NMTAP	24	96	7
NMTAP	24	144	5
NMTAP	24	168	4
NMTAP	24	192	6
NMTAP	24	240	3
NMTAP	24	264	4
NMTAP	24	288	2
NMTAP	24	336	1
NMTAP	25	0	0
NMTAP	25	0	7
NMTAP	25	48	6
NMTAP	25	96	0
NMTAP	25	96	7
NMTAP	25	144	1
NMTAP	25	192	2
NMTAP	25	192	7
NMTAP	25	240	6
NMTAP	25	264	4
NMTAP	25	288	5
NMTAP	25	312	3
NMTAP	25	336	4
NMTAP	25	360	2
NMTAP	26	0	3
NMTAP	26	48	2
NMTAP	26	48	4
NMTAP	26	96	1
NMTAP	26	96	5
NMTAP	26	144	0
NMTAP	26	144	6
NMSTR	26	192	7
NMSUL	26	192	7	96	48	3
NMSUR	26	192	7	96	48	3
EXTAP	26	288	7
NMTAP	27	0	6
NMTAP	27	0	7
NMTAP	27	48	0
NMTAP	27	96	6
NMTAP	27	96	7
NMTAP	27	144	5
NMTAP	27	168	4
NMTAP	27	192	6
NMTAP	27	240	3
NMTAP	27	264	4
NMTAP	27	288	2
NMTAP	27	336	1
NMHLD	28	0	1	48
NMTAP	28	48	0
NMHLD	28	96	6	48
NMTAP	28	144	7
NMTAP	28	192	2
NMTAP	28	240	2
NMTAP	28	264	3
NMTAP	28	288	0
NMTAP	28	336	5
NMTAP	28	360	4
NMSTR	29	0	7
NMSI_	29	0	7	96	48	3
EXTAP	29	96	3
EXTAP	29	96	7
NMTAP	29	192	2
NMTAP	29	192	6
NMTAP	29	240	1
NMTAP	29	240	5
NMSTR	29	288	0
NMSI_	29	288	0	96	48	5
NMTAP	29	288	4
NMSTR	30	0	0
NMSI_	30	0	0	96	48	2
NMSTR	30	0	4
NMSI_	30	0	4	96	48	2
NMSTR	30	96	0
NMSI_	30	96	0	96	48	6
NMSTR	30	96	4
NMSI_	30	96	4	96	48	6
NMTAP	30	192	0
NMTAP	30	192	4
BRTAP	30	288	0
BRTAP	30	288	4
NMHLD	31	0	1	96
NMTAP	31	96	3
NMTAP	31	144	3
NMHLD	31	192	2	96
NMTAP	31	288	4
NMTAP	31	336	4
NMTAP	32	0	3
NMTAP	32	48	3
NMTAP	32	144	1
NMTAP	32	144	5
NMTAP	32	240	0
NMTAP	32	288	0
NMSTR	33	0	5
NMSI_	33	0	5	96	96	0
NMSTR	33	96	0
NMSI_	33	96	0	96	96	3
NMSTR	33	192	3
NMSCR	33	192	3	96	96	6
NMSTR	33	288	6
NMSI_	33	288	6	96	96	2
NMSTR	34	0	2
NMSCL	34	0	2	96	96	7
NMTAP	34	96	3
NMTAP	34	192	4
NMTAP	34	288	5
NMTAP	34	288	7
NMHLD	35	0	6	96
NMTAP	35	96	4
NMTAP	35	144	4
NMHLD	35	192	5	96
NMTAP	35	288	3
NMTAP	35	336	3
NMTAP	36	0	4
NMTAP	36	48	4
NMTAP	36	144	2
NMTAP	36	144	6
NMTAP	36	240	1
NMSTR	36	288	1
NMSI_	36	288	1	96	48	3
NMSTR	37	0	6
NMSI_	37	0	6	96	48	4
CNSI_	37	48	3	0	48	6
NMTAP	37	96	1
CNSI_	37	144	4	0	48	1
NMHLD	37	192	7	96
NMHLD	37	288	1	96
NMHLD	38	0	3	144
NMTAP	38	144	2
NMTAP	38	168	4
BRTAP	38	192	7
NMSTR	39	0	6
NMSI_	39	0	6	96	96	4
NMTAP	39	64	6
NMSTR	39	192	0
NMSI_	39	192	0	96	96	6
NMTAP	39	256	0
NMSTR	40	0	2
NMSI_	40	0	2	96	96	0
NMTAP	40	64	2
NMSTR	40	192	4
NMSI_	40	192	4	96	96	2
NMTAP	40	256	4
NMTAP	41	0	5
NMHLD	41	64	5	128
NMTTP	41	128	0	E	0	M1
NMTAP	41	192	1
NMHLD	41	256	1	128
NMTTP	41	320	3	B	0	M1
NMTAP	42	0	4
NMHLD	42	64	4	128
NMTTP	42	128	7	E	0	M1
NMTAP	42	192	0
NMHLD	42	256	0	128
NMTTP	42	320	2	B	0	M1
NMSTR	43	0	3
NMSI_	43	0	3	96	96	5
NMTAP	43	64	1
NMTAP	43	128	1
NMSTR	43	192	0
NMSI_	43	192	0	96	96	2
NMTAP	43	256	6
NMTAP	43	320	6
NMSTR	44	0	5
NMSI_	44	0	5	96	96	7
NMTAP	44	64	3
NMTAP	44	128	3
NMSTR	44	192	2
NMSI_	44	192	2	96	96	4
NMTAP	44	256	0
NMTAP	44	320	0
NMHLD	45	0	7	192
NMTTP	45	64	0	A	0	M1
NMTTP	45	128	1	A	0	M1
NMHLD	45	192	3	192
NMTTP	45	256	4	A	0	M1
NMTTP	45	320	5	A	0	M1
NMTAP	46	0	6
NMTAP	46	48	6
NMTAP	46	96	2
NMTAP	46	144	2
NMTAP	46	192	3
NMTAP	46	192	5
BRTAP	46	288	1
BRTAP	46	288	7
NMHLD	47	0	2	24
NMHLD	47	48	2	24
NMHLD	47	96	3	24
NMHLD	47	144	3	24
NMHLD	47	192	4	24
NMHLD	47	240	4	24
NMHLD	47	288	5	24
NMHLD	47	336	5	24
NMHLD	48	0	6	24
NMHLD	48	48	6	24
NMHLD	48	96	4	24
NMHLD	48	96	5	24
NMHLD	48	144	4	24
NMHLD	48	144	5	24
NMHLD	48	192	3	24
NMHLD	48	192	4	24
NMHLD	48	240	3	24
NMHLD	48	240	4	24
NMHLD	48	288	2	24
NMHLD	48	288	3	24
NMHLD	48	336	2	24
NMHLD	48	336	3	24
NMTAP	49	0	1
BRHLD	49	24	1	72
NMTAP	49	96	3
BRHLD	49	120	3	72
NMTAP	49	192	4
BRHLD	49	216	4	72
NMTAP	49	288	6
BRHLD	49	312	6	72
NMSTR	50	0	3
NMSCL	50	0	3	96	48	2
NMSCR	50	0	3	96	48	4
CNSI_	50	144	2	0	48	5
CNSI_	50	144	4	0	48	1
CNSI_	50	192	1	0	288	6
CNSI_	50	192	5	0	288	0
BRSTR	51	288	0
NMSCR	51	288	0	96	96	3
NMSTR	52	0	3
NMSCR	52	0	3	96	96	6
NMSTR	52	96	6
NMSCR	52	96	6	96	96	1
NMSTR	52	192	1
NMSCR	52	192	1	96	96	4
NMSTR	52	288	4
BRSCR	52	288	4	96	96	7
NMSTR	53	0	7
BRSCR	53	0	7	96	96	2
NMSTR	53	96	2
BRSCR	53	96	2	96	96	5
NMTAP	53	192	5
NMTAP	53	288	7
NMTAP	54	0	6
NMTAP	54	48	6
NMTAP	54	96	4
NMTAP	54	144	5
NMTAP	54	192	2
NMTAP	54	240	3
NMSTR	54	288	0
BRSCL	54	288	0	96	48	5
BRSCR	54	288	0	96	48	3
BRSTR	55	0	0
BRSI_	55	0	0	96	48	4
BRTAP	55	96	0
BRTAP	55	192	1
BRTAP	55	192	7
EXSTR	55	288	5
NMSCR	55	288	5	96	48	0
NMTAP	55	336	5
NMTAP	56	0	2
EXSTR	56	96	1
NMSCR	56	96	1	96	48	4
NMTAP	56	144	1
NMTAP	56	192	6
EXSTR	56	288	5
NMSLR	56	288	5	96	96	1
NMTAP	56	336	5
NMSTR	57	0	1
NMSCL	57	0	1	96	96	5
NMTAP	57	96	3
NMHLD	57	192	3	96
BRTAP	57	288	7
NMTAP	57	336	4
NMTAP	58	0	6
NMTAP	58	48	3
NMTAP	58	96	6
NMTAP	58	144	2
NMSTR	58	192	7
NMSI_	58	192	7	96	48	3
NMSTR	58	240	1
NMSI_	58	240	1	96	48	5
NMTAP	58	288	7
NMTAP	58	336	1
BRTAP	59	48	4
BRTAP	59	144	1
BRTAP	59	144	6
BRTAP	59	192	1
BRTAP	59	192	6
NMTAP	59	288	0
NMTAP	59	336	0
NMTAP	60	0	1
NMTAP	60	0	4
NMTAP	60	48	2
NMTAP	60	72	3
NMTAP	60	96	2
NMTAP	60	144	3
NMTAP	60	144	6
NMTAP	60	192	5
NMTAP	60	216	4
NMTAP	60	240	5
BXSTR	60	288	5
NMSCL	60	288	5	96	72	2
BXSTR	60	288	6
NMSUL	60	288	6	96	72	1
CNSUR	61	72	1	0	72	6
CNSCR	61	72	2	0	72	5
EXHLD	61	192	7	192
NMSTR	61	288	3
NMSXR	61	288	3	96	96	3
NMSTR	62	0	3
NMSXL	62	0	3	96	96	3
NMTAP	62	192	7
NMSTR	62	288	5
BRSXL	62	288	5	96	192	4
NMSTR	62	336	3
BRSXR	62	336	3	96	144	4
NMTAP	63	288	4
NMTAP	63	336	4
NMTTP	64	0	3	B	0	M1
NMTTP	64	0	3	E	0	M1
NMTTP	64	0	3	A	1	M1
NMTTP	64	0	3	D	0	M1
NMTAP	64	96	4
NMTTP	64	144	5	B	0	M1
NMTTP	64	144	5	A	1	M1
NMTTP	64	144	6	E	0	M1
NMTTP	64	144	6	D	0	M1
NMTAP	64	240	4
NMTAP	64	288	4
NMTTP	65	0	2	B	0	M1
NMTTP	65	0	2	A	0	M1
NMTTP	65	0	3	E	0	M1
NMTTP	65	0	6	B	0	M1
NMTTP	65	0	6	E	0	M1
NMTTP	65	0	6	A	0	M1
NMTAP	65	96	1
NMTAP	65	96	7
BRTAP	65	192	0
BRTAP	65	216	0
BRTAP	65	240	0
BRTAP	65	264	0
BRTAP	65	288	0
NMTAP	66	0	1
NMTAP	66	0	7
NMTAP	66	48	6
NMTAP	66	96	5
NMTAP	66	120	4
NMTAP	66	144	5
NMTAP	66	168	4
NMTAP	66	192	6
NMTAP	66	240	1
NMTAP	66	240	7
NMTAP	66	288	2
NMTAP	66	312	3
NMTAP	66	336	2
NMTAP	66	360	3
BRSTR	67	0	1
NMSI_	67	0	1	96	48	4
NMTAP	67	96	1
BRSTR	67	96	7
NMSI_	67	96	7	96	48	2
BRSTR	67	192	5
NMSI_	67	192	5	96	48	0
NMTAP	67	192	7
BRSTR	67	288	3
NMSI_	67	288	3	96	144	5
NMTAP	67	288	5
BRTAP	68	0	3
NMHLD	68	0	4	672
CNSI_	68	144	5	0	48	2
CNSI_	68	192	2	0	48	6
CNSI_	68	240	6	0	48	1
CNSI_	68	288	1	0	48	7
CNSCL	68	336	7	0	192	4
CNSI_	69	144	4	0	48	0
CNSCR	69	192	0	0	96	3
NMTAP	70	0	4
NMTAP	70	48	4
NMTAP	70	96	3
NMTAP	70	120	5
NMTAP	70	144	3
NMTAP	70	168	5
NMTAP	70	192	2
NMTAP	70	216	6
NMTAP	70	240	2
NMTAP	70	264	6
NMTAP	70	288	1
NMTAP	70	312	7
NMTAP	70	336	1
NMTAP	70	360	7
BRTAP	71	0	0
NMTTP	71	8	0	B	0	M1
NMTTP	71	16	0	C	0	M1
NMTTP	71	24	4	B	0	M1
NMTTP	71	32	4	A	1	M1
NMSTR	71	288	2
NMSI_	71	288	2	96	48	7
EXTAP	72	0	2
NMSTR	72	96	3
NMSI_	72	96	3	96	48	7
EXTAP	72	192	3
NMSTR	72	288	2
NMSI_	72	288	2	96	48	7
EXTAP	73	0	2
EXTAP	73	0	3
NMTAP	73	96	5
NMTAP	73	192	6
NMTAP	73	192	7
NMTAP	73	240	6
NMTAP	73	256	5
NMTAP	73	272	4
NMTAP	73	288	3
NMTAP	73	336	1
EXTAP	74	0	3
NMTAP	74	48	3
NMSTR	74	96	2
NMSI_	74	96	2	96	48	7
EXTAP	74	192	2
EXTAP	74	192	3
NMSTR	74	288	3
NMSI_	74	288	3	96	48	7
EXHLD	75	0	0	96
NMTAP	75	144	6
NMTAP	75	192	5
NMTAP	75	240	4
NMSTR	75	288	2
NMSI_	75	288	2	96	48	7
NMTAP	75	288	3
EXSTR	76	0	3
NMSI_	76	0	3	96	48	7
EXSTR	76	96	2
NMSCL	76	96	2	96	48	7
EXSTR	76	192	3
NMSUR	76	192	3	96	48	7
EXSTR	76	288	2
NMSI_	76	288	2	96	48	7
EXSTR	77	0	3
NMSI_	77	0	3	96	48	7
EXTAP	77	96	2
EXTAP	77	192	0
EXTAP	77	192	1
NMTAP	77	240	1
NMTAP	77	256	2
NMTAP	77	272	3
NMTAP	77	288	4
NMTAP	77	336	6
EXTAP	78	0	3
EXTAP	78	0	5
NMTAP	78	48	3
NMTAP	78	48	5
EXSTR	78	96	2
NMSI_	78	96	2	96	48	7
NMTAP	78	144	2
NMTAP	78	192	3
NMTAP	78	240	3
NMSTR	78	288	3
BRSCL	78	288	3	96	192	4
BRSCR	78	288	3	96	192	2
BRTAP	79	288	7
NMTAP	80	0	2
NMSTR	80	0	4
NMSXL	80	0	4	96	192	3
NMHLD	80	192	1	192
NMTTP	81	0	3	B	0	M1
NMTTP	81	48	2	E	0	M1
NMTTP	81	96	0	B	0	M1
NMTTP	81	144	1	D	0	M1
NMTTP	81	240	6	E	0	M1
NMTTP	81	288	4	B	0	M1
NMTTP	81	336	5	D	0	M1
NMSTR	82	0	3
NMSXR	82	0	3	96	192	4
NMTAP	82	192	5
NMTAP	82	288	6
NMHLD	83	0	7	96
NMTTP	83	96	0	B	0	M1
NMTTP	83	96	0	A	0	M1
NMTTP	83	144	6	B	0	M1
NMTTP	83	144	6	A	0	M1
NMTTP	83	192	2	B	0	M1
NMTTP	83	192	2	A	0	M1
NMTTP	83	240	4	B	0	M1
NMTTP	83	240	4	A	0	M1
NMTTP	83	288	2	E	0	M1
NMTTP	83	288	2	D	0	M1
NMTTP	83	336	6	E	0	M1
NMTTP	83	336	6	D	0	M1
NMTHO	84	0	0	288	C	0	M1
NMTTP	84	224	5	D	0	M1
NMTTP	84	240	4	A	0	M1
NMTTP	84	256	4	D	0	M1
NMTTP	84	272	3	A	0	M1
NMTTP	84	288	3	D	0	M1
NMHLD	85	0	0	24
NMHLD	85	0	7	24
NMHLD	85	72	4	24
NMHLD	85	72	5	24
NMHLD	85	144	1	24
NMHLD	85	144	2	24
NMHLD	85	216	6	24
NMHLD	85	216	7	24
NMHLD	85	288	3	24
NMHLD	85	288	5	24
NMHLD	85	360	0	24
NMHLD	85	360	2	24
NMHLD	86	48	5	24
NMHLD	86	48	7	24
NMHLD	86	120	2	24
NMHLD	86	120	6	24
BRHLD	86	192	1	144
BRHLD	86	192	3	144
NMTAP	87	0	0
NMTAP	87	0	4
NMTAP	87	24	1
NMTAP	87	48	2
NMTAP	87	72	3
NMTAP	87	96	0
NMTAP	87	96	4
NMTAP	87	120	5
NMTAP	87	144	6
NMTAP	87	168	7
NMTAP	87	192	0
NMTAP	87	192	4
NMTAP	87	216	1
NMTAP	87	240	2
NMTAP	87	264	3
NMSTR	87	288	0
NMSI_	87	288	0	96	96	5
NMSTR	87	288	4
NMSI_	87	288	4	96	96	1
CNSCR	88	96	1	0	96	3
CNSCR	88	96	5	0	96	7
NMSTR	89	0	1
NMSI_	89	0	1	96	288	4
NMTAP	90	192	5
NMSTR	91	0	6
NMSI_	91	0	6	96	288	2
NMTAP	92	192	1
NMSTR	93	0	0
NMSCR	93	0	0	96	120	2
NMSTR	94	0	5
NMSCR	94	0	5	96	120	7
NMTTP	95	0	2	A	0	M1
NMTTP	95	0	3	B	0	M1
NMTTP	95	0	3	E	0	M1
NMTTP	95	0	3	A	0	M1
NMTTP	95	0	3	D	0	M1
NMTTP	95	0	4	B	0	M1
NMTTP	95	0	4	E	0	M1
NMTTP	95	0	4	A	0	M1
NMTTP	95	0	4	D	0	M1
NMTTP	95	0	5	E	0	M1
NMTTP	95	0	5	A	0	M1
NMTTP	95	0	5	D	0	M1
BXTAP	95	192	7
BXTAP	95	204	6
BXTAP	95	216	5
BXTAP	95	228	4
BXTAP	95	240	3
BXTAP	95	252	2
BXTAP	95	264	1
BXTAP	95	276	0
BXTAP	95	288	7
BXTAP	95	300	6
BXTAP	95	312	5
BXTAP	95	324	4
BXTAP	95	336	3
BXTAP	95	348	2
BXTAP	95	360	1
BXTAP	95	372	0
BXTAP	96	0	7
NMTAP	97	0	2
NMTAP	97	0	7
NMTAP	97	12	3
NMTAP	97	12	6
NMHLD	97	24	4	120
NMHLD	97	24	5	120
NMTAP	98	0	0
NMTAP	98	0	5
NMTAP	98	12	1
NMTAP	98	12	4
NMHLD	98	24	2	120
NMHLD	98	24	3	120
BRSTR	98	288	0
NMSCR	98	288	0	96	96	4
BRSTR	99	0	4
NMSCR	99	0	4	96	96	0
EXSTR	99	96	0
NMSCR	99	96	0	96	192	0
NMTTP	99	192	0	C	1	M1
EXSTR	99	288	0
BRSCR	99	288	0	96	192	0
NMTTP	100	0	0	C	1	M1
EXTAP	100	96	0
NMTTP	100	192	0	C	1	M1
EXTAP	100	288	0
NMTAP	101	0	6
NMTAP	101	48	6
NMTAP	101	96	7
NMTAP	101	144	4
NMTAP	101	192	0
NMTAP	101	240	3
NMSTR	101	288	1
BRSCL	101	288	1	96	48	6
BRSCR	101	288	1	96	48	4
BRSTR	102	0	1
BRSI_	102	0	1	96	48	5
BRTAP	102	96	1
BRTAP	102	192	3
BRTAP	102	192	7
EXSTR	102	288	5
NMSCL	102	288	5	96	48	2
NMTAP	102	336	5
NMTAP	103	0	7
NMTAP	103	48	0
EXSTR	103	96	1
NMSCL	103	96	1	96	48	6
NMTAP	103	144	1
NMTAP	103	192	3
NMTAP	103	240	4
EXSTR	103	288	5
NMSLR	103	288	5	96	96	1
NMTAP	103	336	5
NMSTR	104	0	1
NMSCL	104	0	1	96	96	5
NMTAP	104	96	3
NMHLD	104	192	3	96
BRTAP	104	288	7
NMTAP	104	336	3
BRTAP	105	0	2
BRTAP	105	0	4
NMTAP	105	48	2
NMTAP	105	48	4
BRTAP	105	96	1
BRTAP	105	96	5
NMTAP	105	144	1
NMTAP	105	144	5
BRTAP	105	192	0
BRTAP	105	192	6
NMTAP	105	240	0
NMTAP	105	240	6
BRTAP	105	288	7
NMTAP	105	336	7
NMTAP	106	0	0
NMTAP	106	0	7
NMTAP	106	12	1
NMTAP	106	24	2
NMTAP	106	36	3
NMTAP	106	48	4
NMTAP	106	60	5
NMTAP	106	72	6
NMTAP	106	84	7
NMTAP	106	96	0
NMTAP	106	108	1
NMTAP	106	120	2
NMTAP	106	132	3
NMTAP	106	144	4
NMTAP	106	156	5
NMTAP	106	168	6
NMTAP	106	180	7
NMHLD	106	192	0	96
BXHLD	106	192	4	96
NMTTP	106	294	5	E	0	M1
NMTTP	106	300	5	B	0	M1
NMTTP	106	306	6	B	0	M1
NMTTP	106	312	7	E	1	M1
NMTAP	107	0	1
NMSTR	107	48	1
NMSI_	107	48	1	96	48	5
BRTAP	107	144	0
BRTAP	107	144	1
NMTAP	107	240	7
NMSTR	107	288	7
NMSI_	107	288	7	96	48	3
BRTAP	108	0	6
BRTAP	108	0	7
NMTAP	108	96	5
NMSTR	108	144	5
NMSI_	108	144	5	96	48	1
BRTAP	108	240	4
BRTAP	108	240	5
NMTAP	108	336	3
NMSTR	109	0	3
NMSI_	109	0	3	96	48	7
BRTAP	109	96	2
BRTAP	109	96	3
NMTAP	109	192	0
NMTAP	109	192	1
NMSTR	109	240	0
NMSI_	109	240	0	96	48	4
NMSTR	109	240	1
NMSI_	109	240	1	96	48	4
BRTAP	109	336	0
BRTAP	109	336	1
NMHLD	110	96	3	48
NMHLD	110	96	4	48
BXTAP	110	288	1
NMTAP	110	320	0
NMTAP	110	352	1
NMTAP	111	0	0
NMTAP	111	32	1
NMTAP	111	64	0
EXTAP	111	96	1
EXTAP	111	112	2
EXTAP	111	128	3
EXTAP	111	144	4
BXTAP	111	192	6
NMTAP	111	224	7
NMTAP	111	256	6
NMTAP	111	288	7
NMTAP	111	320	6
NMTAP	111	352	7
EXTAP	112	0	6
EXTAP	112	16	5
EXTAP	112	32	4
EXTAP	112	48	3
BXTAP	112	96	1
NMTAP	112	128	0
NMTAP	112	160	1
NMTAP	112	192	0
NMTAP	112	224	1
NMTAP	112	256	0
NMTAP	112	288	2
NMTAP	112	320	7
NMTAP	112	352	2
NMTAP	113	0	7
NMTAP	113	32	2
NMTAP	113	64	7
NMTAP	113	96	3
NMTAP	113	128	6
NMTAP	113	160	3
NMTAP	113	192	6
NMTAP	113	224	3
NMTAP	113	256	6
NMTAP	113	288	4
NMTAP	113	320	5
NMTAP	113	352	4
NMTAP	114	0	5
NMTAP	114	32	4
NMTAP	114	64	5
NMTAP	114	96	3
NMTAP	114	112	2
NMTAP	114	128	1
NMTAP	114	144	0
NMTAP	114	160	7
NMTAP	114	176	6
NMTAP	114	192	5
NMTAP	114	208	4
NMTAP	114	224	3
NMTAP	114	240	2
NMTAP	114	256	1
NMTAP	114	272	0
NMTAP	114	288	7
NMTAP	114	300	6
NMTAP	114	312	5
NMTAP	114	324	4
NMTAP	114	336	3
NMTAP	114	348	2
NMTAP	114	360	1
NMTAP	114	372	0
NMSTR	115	0	7
BRSI_	115	0	7	96	48	3
BRHLD	115	96	4	576
BRTAP	115	96	7
NMTAP	117	240	6
NMTAP	117	336	3
NMTAP	117	336	7
BRTAP	118	0	3
BRTAP	118	0	7
NMTTP	118	4	3	D	0	M1
NMTTP	118	4	7	D	0	M1
NMTTP	118	7	6	A	0	M1
NMTTP	118	8	2	A	0	M1
NMTTP	118	11	6	D	0	M1
NMTTP	118	12	2	D	0	M1
NMTTP	118	15	5	A	0	M1
NMTTP	118	16	1	A	0	M1
NMTTP	118	19	5	D	0	M1
NMTTP	118	20	1	D	0	M1
NMTTP	118	23	4	A	0	M1
NMTTP	118	24	0	A	1	M1

T_REC_TAP	377
T_REC_BRK	52
T_REC_XTP	25
T_REC_BXX	20
T_REC_HLD	77
T_REC_XHO	2
T_REC_BHO	7
T_REC_BXH	1
T_REC_STR	80
T_REC_BST	12
T_REC_XST	16
T_REC_XBS	2
T_REC_TTP	96
T_REC_THO	2
T_REC_SLD	98
T_REC_BSL	18
T_REC_ALL	885
T_NUM_TAP	594
T_NUM_BRK	112
T_NUM_HLD	81
T_NUM_SLD	98
T_NUM_ALL	885
T_JUDGE_TAP	680
T_JUDGE_HLD	203
T_JUDGE_SLD	116
T_JUDGE_ALL	999
TTM_EACHPAIRS	104
TTM_SCR_TAP	297000
TTM_SCR_BRK	291200
TTM_SCR_HLD	81000
TTM_SCR_SLD	147000
TTM_SCR_ALL	816200
TTM_SCR_S	780850
TTM_SCR_SS	805000
TTM_RAT_ACV	10139

