VERSION	0.00.00	1.05.00
FES_MODE	0
BPM_DEF	200.000	200.000	300.000	200.000
MET_DEF	4	4
RESOLUTION	384
CLK_DEF	576
COMPATIBLE_CODE	MA2

BPM	0	0	200.000
BPM	51	288	230.000
BPM	96	240	200.000
BPM	98	192	250.000
BPM	107	0	300.000
BPM	110	0	200.000
BPM	110	96	240.000
BPM	110	288	250.000
MET	0	0	4	3
MET	10	192	4	2
MET	11	0	4	4

NMTAP	2	288	3
NMTAP	2	288	5
NMSTR	3	0	6
NMSCL	3	0	6	96	192	3
NMTAP	3	192	1
NMTAP	3	288	1
NMTAP	4	96	2
NMTAP	4	96	4
NMSTR	4	192	1
NMSCR	4	192	1	96	192	4
NMTAP	5	0	6
NMHLD	5	96	6	576
NMTAP	6	288	3
NMSTR	7	0	2
NMSCL	7	0	2	96	192	7
NMTAP	7	192	5
NMTAP	7	288	5
NMTAP	8	96	4
NMSTR	8	192	5
NMSCR	8	192	5	96	192	0
NMTAP	9	0	2
NMHLD	9	96	2	576
BXHLD	9	336	4	336
NMSTR	11	0	0
NMSCR	11	0	0	96	96	3
NMSTR	11	192	4
NMSCR	11	192	4	96	96	7
NMSTR	12	0	0
NMSCR	12	0	0	96	96	3
NMSTR	12	192	4
NMSCR	12	192	4	96	96	7
NMSTR	13	0	0
NMSCR	13	0	0	96	96	3
NMSTR	13	192	4
NMSCR	13	192	4	96	96	7
NMHLD	14	0	1	192
BRTAP	14	192	7
NMTAP	15	0	4
NMTAP	15	0	5
NMTAP	15	96	3
NMTAP	15	96	6
NMTAP	15	192	1
NMTAP	15	192	3
NMHLD	15	288	4	96
NMSTR	15	288	6
NMSXL	15	288	6	96	192	3
NMTAP	16	192	2
NMTAP	16	240	2
NMSTR	16	288	1
NMSCL	16	288	1	96	96	6
NMSTR	16	288	3
NMSUL	16	288	3	96	96	6
BRTAP	17	192	4
BRTAP	17	192	5
BRTAP	17	288	2
BRTAP	17	288	7
EXTAP	18	0	0
EXTAP	18	0	6
EXSTR	18	96	1
NMSI_	18	96	1	96	48	3
EXTAP	18	96	7
CNSV_	18	240	3	0	96	4
CNSI_	18	336	4	0	48	6
EXTAP	19	96	6
EXTAP	19	96	7
NMTAP	19	192	0
NMTAP	19	192	7
NMTAP	19	288	0
NMTAP	19	288	1
EXHLD	20	0	0	48
EXHLD	20	0	2	48
EXHLD	20	96	0	48
EXHLD	20	96	7	48
BXHLD	20	192	5	48
BXHLD	20	192	7	48
BXHLD	20	288	0	48
BXHLD	20	288	7	48
NMTAP	21	0	1
NMTAP	21	96	2
NMTAP	21	96	3
NMTAP	21	192	0
NMTAP	21	192	1
NMTAP	21	288	4
NMTAP	21	288	5
NMTAP	22	0	6
NMTAP	22	0	7
NMSTR	22	96	6
NMSI_	22	96	6	96	48	2
NMSTR	22	96	7
NMSI_	22	96	7	96	48	3
BRTAP	22	288	0
BRTAP	22	288	5
NMHLD	23	0	1	96
NMHLD	23	96	3	96
NMHLD	23	192	4	96
NMTAP	23	288	6
NMTAP	24	0	7
NMTAP	24	48	7
NMTAP	24	96	4
NMTAP	24	96	6
NMTAP	24	192	0
NMTAP	24	240	0
NMTAP	24	288	1
NMTAP	24	288	3
NMHLD	25	0	6	96
NMHLD	25	96	4	96
NMHLD	25	192	3	96
NMTAP	25	288	1
NMTAP	26	0	0
NMTAP	26	48	0
NMTAP	26	96	3
NMTAP	26	144	3
NMTAP	26	192	2
NMTAP	26	288	1
NMTAP	26	288	4
NMHLD	27	0	5	96
NMHLD	27	96	7	96
NMHLD	27	192	0	96
NMTAP	27	288	2
NMTAP	28	0	1
NMTAP	28	48	1
NMTAP	28	96	0
NMTAP	28	96	2
NMTAP	28	192	6
NMTAP	28	240	6
NMTAP	28	288	5
NMTAP	28	288	7
NMHLD	29	0	4	96
NMHLD	29	0	6	96
NMHLD	29	192	1	96
NMHLD	29	192	3	96
NMTAP	30	0	0
NMTAP	30	0	6
NMTAP	30	96	2
NMTAP	30	96	4
BRTAP	30	192	1
BRTAP	30	192	5
NMHLD	31	0	6	192
NMTAP	31	96	4
NMTAP	31	144	3
NMHLD	31	192	2	192
NMTAP	31	288	4
NMTAP	31	336	5
NMHLD	32	0	6	192
NMTAP	32	96	4
NMTAP	32	144	3
NMHLD	32	192	2	192
NMTAP	32	288	4
NMTAP	32	336	5
NMHLD	33	0	6	192
NMTAP	33	96	0
NMTAP	33	144	1
NMHLD	33	192	2	192
NMTAP	33	288	0
NMTAP	33	336	7
NMTAP	34	0	6
NMTAP	34	96	4
NMTAP	34	96	6
NMTAP	34	192	2
NMTAP	34	192	4
NMTAP	34	288	3
NMTAP	34	288	5
NMHLD	35	0	1	192
NMTAP	35	96	3
NMTAP	35	144	4
NMHLD	35	192	5	192
NMTAP	35	288	3
NMTAP	35	336	2
NMHLD	36	0	1	192
NMTAP	36	96	3
NMTAP	36	144	4
NMHLD	36	192	5	192
NMTAP	36	288	3
NMTAP	36	336	2
NMHLD	37	0	1	192
NMTAP	37	96	7
NMTAP	37	144	6
NMTAP	37	192	5
NMSTR	37	288	0
NMSI_	37	288	0	96	48	3
NMSTR	37	288	7
NMSI_	37	288	7	96	48	4
NMTTP	38	192	0	C	1	M1
NMTTP	38	192	2	B	0	M1
NMTTP	38	192	2	E	0	M1
NMTTP	38	192	5	B	0	M1
NMTTP	38	192	6	E	0	M1
NMHLD	39	0	0	576
NMSTR	39	0	6
NMSXR	39	0	6	96	480	1
NMSTR	41	0	1
NMSXL	41	0	1	96	480	6
NMHLD	41	0	7	576
NMHLD	43	0	3	576
NMSTR	43	0	5
NMSXL	43	0	5	96	480	2
NMSTR	45	0	2
NMSI_	45	0	2	96	96	0
NMHLD	45	0	4	576
CNSI_	45	192	0	0	96	3
CNSI_	45	288	3	0	192	7
CNSI_	46	96	7	0	96	5
NMTAP	47	0	2
NMTAP	47	48	2
NMTAP	47	96	4
NMTAP	47	144	4
NMTAP	47	192	1
NMTAP	47	240	1
NMTAP	47	288	6
NMTAP	47	336	6
NMTAP	48	0	0
NMTAP	48	24	7
NMTAP	48	48	0
NMTAP	48	72	7
NMTAP	48	96	0
NMTAP	48	120	7
NMTAP	48	144	0
NMTAP	48	168	7
NMTAP	48	192	0
NMTAP	48	288	2
NMTAP	48	288	5
BRSTR	49	0	1
NMSI_	49	0	1	96	48	3
BRSTR	49	96	7
NMSI_	49	96	7	96	48	5
BRSTR	49	192	0
NMSI_	49	192	0	96	48	4
BRSTR	49	288	7
NMSCL	49	288	7	96	384	0
BRTAP	50	0	2
BRTAP	51	288	7
NMTAP	52	0	0
NMTAP	52	96	1
NMTAP	52	96	3
NMTAP	52	192	7
NMTAP	52	288	4
NMTAP	52	288	6
NMTAP	53	0	3
NMTAP	53	96	0
NMTAP	53	96	2
NMTAP	53	192	4
NMTAP	53	288	5
NMTAP	53	288	7
NMTAP	54	0	4
NMSTR	54	96	3
NMSCL	54	96	3	96	48	0
NMTAP	54	96	5
NMSTR	54	192	7
NMSCL	54	192	7	96	48	4
NMTAP	55	0	2
NMTAP	55	96	0
NMTAP	55	96	6
BRTAP	55	192	1
BRTAP	55	192	5
NMTAP	55	288	1
NMTAP	55	288	5
NMHLD	56	0	6	96
NMTAP	56	96	4
NMHLD	56	192	1	96
NMTAP	56	288	3
NMTAP	57	0	6
NMTAP	57	96	3
NMTAP	57	96	5
NMHLD	57	192	2	96
NMHLD	57	192	6	96
BRTAP	58	0	1
BRTAP	58	96	0
BRTAP	58	96	1
BRTAP	58	192	6
BRSTR	58	288	6
NMSV_	58	288	6	96	96	3
BRSTR	58	288	7
NMSCR	58	288	7	96	96	2
BRTAP	59	192	0
NMTAP	59	288	7
NMTAP	59	336	7
NMTAP	60	0	0
NMTAP	60	0	6
NMTAP	60	96	4
NMTAP	60	96	5
NMTAP	60	144	4
NMTAP	60	144	5
NMTAP	60	240	2
NMTAP	60	240	3
NMTAP	60	288	2
NMTAP	60	288	3
NMHLD	61	0	1	96
NMSTR	61	96	0
BRSCR	61	96	0	96	96	5
BRSUR	61	96	0	96	96	5
NMHLD	62	0	0	96
NMHLD	62	0	6	96
NMHLD	62	192	1	96
NMHLD	62	192	7	96
NMTAP	63	0	0
NMTAP	63	0	6
NMTAP	63	96	1
NMTAP	63	96	7
NMTAP	63	192	0
NMTAP	63	192	6
NMTAP	63	288	1
NMTAP	63	288	3
NMTAP	64	0	3
NMTAP	64	0	5
NMTAP	64	96	4
NMTAP	64	96	6
NMTAP	64	144	4
NMTAP	64	144	6
NMTAP	64	240	1
NMTAP	64	240	3
NMTAP	64	288	1
NMTAP	64	288	3
NMTAP	65	0	0
NMTAP	65	0	7
NMSTR	65	96	2
NMSI_	65	96	2	96	96	7
NMSTR	65	96	5
NMSI_	65	96	5	96	96	0
NMTAP	66	0	6
NMTAP	66	48	6
NMTAP	66	96	4
NMTAP	66	192	1
NMTAP	66	240	1
NMTAP	66	288	3
NMTAP	67	0	4
NMTAP	67	0	5
NMTAP	67	96	6
NMTAP	67	96	7
NMTAP	67	192	0
NMTAP	67	192	1
NMTAP	67	288	2
NMTAP	67	288	3
BRSTR	68	0	2
NMSXR	68	0	2	96	480	7
BRSTR	68	0	3
NMSXL	68	0	3	96	480	6
NMTHO	70	0	0	384	C	0	M1
BXTAP	71	192	0
BXTAP	71	192	7
BXTAP	71	288	0
BXTAP	71	288	7
NMTAP	72	0	1
NMTAP	72	0	3
NMTAP	72	96	0
NMTAP	72	96	1
NMTAP	72	192	4
NMTAP	72	192	6
NMTAP	72	288	6
NMTAP	72	288	7
NMTAP	73	0	1
NMTAP	73	0	3
NMTAP	73	96	0
NMTAP	73	96	1
NMTAP	73	192	5
NMTAP	73	192	6
NMTAP	73	288	2
NMTAP	73	288	3
BRTAP	74	0	6
BRTAP	74	48	6
BRTAP	74	96	5
BRTAP	74	96	7
BRTAP	74	192	1
BRTAP	74	192	3
BRTAP	74	288	0
BRTAP	74	288	1
NMTTP	75	0	4	B	0	M1
NMTTP	75	0	5	B	0	M1
NMTTP	75	0	5	E	0	M1
NMTAP	75	96	6
NMTAP	75	96	7
EXTAP	75	192	1
EXTAP	75	240	0
EXTAP	75	288	3
NMTAP	76	0	4
NMTAP	76	0	6
NMTAP	76	48	4
NMTAP	76	48	6
NMTAP	76	96	4
NMTAP	76	96	6
NMTAP	76	192	1
NMTAP	76	192	3
NMTAP	76	288	5
NMTAP	76	288	7
NMTAP	77	0	0
NMTAP	77	0	2
NMTAP	77	96	4
NMTAP	77	96	6
NMTAP	77	192	3
NMTAP	77	192	5
NMTAP	77	240	3
NMTAP	77	240	5
NMTAP	77	288	3
NMTAP	77	288	5
NMTAP	78	0	2
NMTAP	78	0	3
NMTAP	78	48	2
NMTAP	78	48	3
NMTAP	78	96	2
NMTAP	78	96	3
NMTAP	78	192	1
NMTAP	78	192	4
NMTAP	78	240	1
NMTAP	78	240	4
NMSTR	78	288	1
NMSLR	78	288	1	96	144	0
NMHLD	78	288	4	96
CNSI_	79	144	0	0	48	4
EXTAP	79	192	7
EXTAP	79	288	7
NMHLD	80	0	0	96
NMSTR	80	0	6
NMSI_	80	0	6	96	48	4
NMSTR	80	192	1
NMSI_	80	192	1	96	48	3
NMHLD	80	192	7	96
NMHLD	81	0	0	96
NMSTR	81	0	6
NMSI_	81	0	6	96	48	4
NMSTR	81	192	1
NMSI_	81	192	1	96	48	3
NMHLD	81	192	7	96
NMSTR	82	0	6
NMSI_	82	0	6	96	48	4
NMHLD	82	0	7	96
NMHLD	82	192	0	96
NMSTR	82	192	1
NMSI_	82	192	1	96	48	3
NMTAP	83	0	6
NMTAP	83	0	7
NMTAP	83	96	6
NMTAP	83	96	7
NMTAP	83	192	4
NMTAP	83	192	5
NMSTR	83	288	4
NMSSL	83	288	4	96	192	0
NMHLD	83	288	5	96
NMTAP	85	0	1
NMTAP	85	0	7
NMTAP	85	72	1
NMTAP	85	72	7
NMTAP	85	144	1
NMTAP	85	144	7
NMTAP	85	216	2
NMTAP	85	216	6
NMTAP	85	288	2
NMTAP	85	288	6
NMTAP	85	360	2
NMTAP	85	360	6
NMTAP	86	48	3
NMTAP	86	48	5
NMTAP	86	120	3
NMTAP	86	120	5
NMHLD	86	192	3	96
NMHLD	86	192	5	96
NMTAP	87	0	1
NMTAP	87	0	7
BRTAP	87	192	2
BRTAP	87	192	4
BRSTR	87	288	1
NMSCL	87	288	1	96	192	6
BRSTR	87	288	5
NMSCL	87	288	5	96	192	2
NMTTP	89	0	6	E	0	M1
NMTTP	90	0	7	E	0	M1
NMTTP	91	0	0	E	0	M1
NMTTP	92	0	1	E	0	M1
NMTTP	93	0	2	E	0	M1
NMTHO	94	0	0	192	C	0	M1
NMTTP	94	0	3	B	0	M1
NMTTP	94	0	4	B	0	M1
NMSTR	95	0	0
NMSI_	95	0	0	96	48	2
NMSTR	95	0	7
NMSI_	95	0	7	96	48	5
BXTAP	95	192	0
BXTAP	95	192	1
NMHLD	97	0	0	192
NMHLD	97	0	6	192
NMHLD	98	0	1	192
NMHLD	98	0	7	192
EXTAP	98	288	1
EXTAP	98	288	7
NMTAP	99	0	0
NMTAP	99	0	1
NMTAP	99	96	2
NMTAP	99	96	4
NMTAP	99	192	6
NMTAP	99	192	7
NMTAP	99	288	3
NMTAP	99	288	5
NMTAP	100	0	2
NMTAP	100	96	0
NMTAP	100	96	1
NMTAP	100	192	5
NMTAP	100	288	6
NMTAP	100	288	7
NMTAP	101	0	1
NMSTR	101	96	0
NMSCR	101	96	0	96	48	3
NMTAP	101	96	6
NMSTR	101	192	7
NMSCL	101	192	7	96	48	4
NMTAP	102	0	0
NMTAP	102	96	3
NMTAP	102	96	5
BRTAP	102	192	2
BRTAP	102	192	6
NMTAP	102	288	1
NMTAP	102	336	1
NMSTR	103	0	0
NMSI_	103	0	0	96	48	4
NMSTR	103	0	1
NMSI_	103	0	1	96	48	4
NMSTR	103	192	6
NMSI_	103	192	6	96	48	3
NMSTR	103	192	7
NMSI_	103	192	7	96	48	3
NMTAP	104	0	0
NMTAP	104	0	1
NMTAP	104	96	0
NMTAP	104	96	1
NMTAP	104	192	3
NMTAP	104	192	6
NMTAP	104	288	7
NMTAP	104	336	7
NMTAP	105	0	4
NMTAP	105	48	4
NMTAP	105	96	5
NMTAP	105	144	5
NMTAP	105	192	2
NMTAP	105	240	2
NMTAP	105	288	3
NMTAP	105	336	3
NMTAP	106	0	0
NMTAP	106	48	0
NMSTR	106	96	7
NMSI_	106	96	7	96	48	3
BRTAP	106	192	2
BRTAP	106	288	1
EXTAP	107	0	5
EXTAP	107	48	5
NMTAP	107	144	4
NMTAP	107	144	6
EXTAP	107	240	2
EXTAP	107	288	2
NMTAP	108	0	1
NMTAP	108	0	3
EXTAP	108	96	6
EXTAP	108	144	6
NMTAP	108	240	5
NMTAP	108	240	7
EXTAP	108	336	1
EXTAP	109	0	1
NMTAP	109	96	0
NMTAP	109	96	2
EXTAP	109	192	7
EXHLD	109	240	7	96
NMTAP	109	336	0
BRTAP	110	96	1
BRTAP	110	96	6
BXTAP	110	288	0
NMTAP	110	312	1
NMTAP	110	336	2
NMTAP	110	360	3
NMTAP	111	0	4
NMTAP	111	24	5
NMTAP	111	48	6
NMTAP	111	72	7
BXTAP	111	96	0
NMTAP	111	120	1
NMTAP	111	144	2
NMTAP	111	168	3
NMTAP	111	192	4
NMTAP	111	216	5
NMTAP	111	240	6
NMTAP	111	264	7
BXTAP	111	288	0
NMTAP	111	312	1
NMTAP	111	336	2
NMTAP	111	360	3
NMTAP	112	0	4
NMTAP	112	24	5
NMTAP	112	48	6
NMTAP	112	72	7
BXTAP	112	96	0
NMTAP	112	120	1
NMTAP	112	144	2
NMTAP	112	168	3
NMTAP	112	192	4
NMTAP	112	216	5
NMTAP	112	240	6
NMTAP	112	264	7
BXTAP	112	288	0
NMTAP	112	312	1
NMTAP	112	336	2
NMTAP	112	360	3
NMTAP	113	0	4
NMTAP	113	24	5
NMTAP	113	48	6
NMTAP	113	72	7
BXTAP	113	96	0
NMTAP	113	120	1
NMTAP	113	144	2
NMTAP	113	168	3
NMTAP	113	192	4
NMTAP	113	216	5
NMTAP	113	240	6
NMTAP	113	264	7
BXTAP	113	288	0
NMTAP	113	312	1
NMTAP	113	336	2
NMTAP	113	360	3
NMTAP	114	0	4
NMTAP	114	24	5
NMTAP	114	48	6
NMTAP	114	72	7
BXTAP	114	96	0
NMTAP	114	120	1
NMTAP	114	144	2
NMTAP	114	168	3
NMTAP	114	192	4
NMTAP	114	216	5
NMTAP	114	240	6
NMTAP	114	264	7
BXTAP	114	288	0
NMTAP	114	312	1
NMTAP	114	336	2
NMTAP	114	360	3
NMTAP	115	0	4
NMTAP	115	24	5
NMTAP	115	48	6
NMTAP	115	72	7
BXTAP	115	96	0
EXTAP	117	240	2
EXTAP	117	240	6
EXSTR	117	288	2
BRSI_	117	288	2	96	96	7
EXSTR	117	288	6
BRSI_	117	288	6	96	96	3

T_REC_TAP	365
T_REC_BRK	34
T_REC_XTP	23
T_REC_BXX	16
T_REC_HLD	55
T_REC_XHO	5
T_REC_BHO	0
T_REC_BXH	5
T_REC_STR	43
T_REC_BST	10
T_REC_XST	3
T_REC_XBS	0
T_REC_TTP	15
T_REC_THO	2
T_REC_SLD	53
T_REC_BSL	4
T_REC_ALL	633
T_NUM_TAP	449
T_NUM_BRK	69
T_NUM_HLD	62
T_NUM_SLD	53
T_NUM_ALL	633
T_JUDGE_TAP	509
T_JUDGE_HLD	230
T_JUDGE_SLD	57
T_JUDGE_ALL	796
TTM_EACHPAIRS	156
TTM_SCR_TAP	224500
TTM_SCR_BRK	179400
TTM_SCR_HLD	62000
TTM_SCR_SLD	79500
TTM_SCR_ALL	545400
TTM_SCR_S	522350
TTM_SCR_SS	538500
TTM_RAT_ACV	10128

