VERSION	0.00.00	1.05.00
FES_MODE	0
BPM_DEF	200.000	200.000	300.000	200.000
MET_DEF	4	4
RESOLUTION	384
CLK_DEF	576
COMPATIBLE_CODE	MA2

BPM	0	0	200.000
BPM	51	288	230.000
BPM	96	240	200.000
BPM	98	192	250.000
BPM	107	0	300.000
BPM	110	0	200.000
BPM	110	96	240.000
BPM	110	288	250.000
MET	0	0	4	3
MET	10	192	4	2
MET	11	0	4	4

NMSTR	3	0	1
NMSUR	3	0	1	96	768	4
NMSTR	7	0	6
NMSUL	7	0	6	96	768	3
NMTAP	11	0	3
NMTAP	11	96	3
NMTAP	11	192	2
NMTAP	12	0	1
NMTAP	12	96	1
NMTAP	12	192	0
NMTAP	13	0	7
NMTAP	13	96	7
NMTAP	13	192	6
NMTAP	14	0	5
NMTAP	14	96	5
NMTAP	14	192	4
NMTAP	14	192	5
NMTAP	15	0	5
NMTAP	15	96	5
NMTAP	15	192	4
NMTAP	15	192	5
NMTAP	16	0	6
NMTAP	16	96	6
NMTAP	16	192	6
NMTAP	16	192	7
NMTAP	17	0	1
NMTAP	17	96	1
NMTAP	17	192	0
NMTAP	17	192	1
NMTAP	18	0	2
NMTAP	18	0	3
NMTAP	18	96	2
NMTAP	18	96	3
NMTAP	18	192	2
NMTAP	18	192	3
NMTAP	19	0	2
NMTAP	19	96	2
NMTAP	19	192	2
NMTAP	19	192	3
NMTAP	20	0	1
NMTAP	20	96	1
NMTAP	20	192	0
NMTAP	20	192	1
NMTAP	21	0	6
NMTAP	21	96	6
NMTAP	21	192	6
NMTAP	21	192	7
NMTAP	22	0	4
NMTAP	22	0	5
NMTAP	22	96	4
NMTAP	22	96	5
NMTAP	22	192	4
NMTAP	22	192	5
NMTAP	23	0	5
NMTAP	23	96	5
NMTAP	23	192	5
NMTAP	23	288	5
NMTAP	24	0	6
NMTAP	24	96	6
NMTAP	24	192	6
NMTAP	24	288	6
NMTAP	25	0	7
NMTAP	25	96	7
NMTAP	25	192	7
NMTAP	25	288	7
NMTAP	26	0	0
NMTAP	26	0	1
NMTAP	26	192	0
NMTAP	26	192	1
NMTAP	27	0	2
NMTAP	27	96	2
NMTAP	27	192	2
NMTAP	27	288	2
NMTAP	28	0	1
NMTAP	28	96	1
NMTAP	28	192	1
NMTAP	28	288	1
NMTAP	29	0	0
NMTAP	29	96	0
NMTAP	29	192	0
NMTAP	29	288	0
BRTAP	30	0	6
BRTAP	30	0	7
NMTTP	31	0	6	B	0	L1
NMTTP	31	96	5	B	0	L1
NMTTP	31	192	4	B	0	L1
NMTTP	32	0	1	B	0	L1
NMTTP	32	96	2	B	0	L1
NMTTP	32	192	3	B	0	L1
NMTTP	33	0	6	B	0	L1
NMTTP	33	96	5	B	0	L1
NMTTP	33	192	4	B	0	L1
NMTTP	33	288	3	B	0	L1
NMTTP	34	0	2	B	0	L1
NMTTP	34	96	1	B	0	L1
NMTTP	34	192	0	C	0	L1
NMTTP	35	0	0	B	0	L1
NMTTP	35	96	1	B	0	L1
NMTTP	35	192	2	B	0	L1
NMTTP	35	192	3	B	0	L1
NMTTP	36	0	7	B	0	L1
NMTTP	36	96	6	B	0	L1
NMTTP	36	192	4	B	0	L1
NMTTP	36	192	5	B	0	L1
NMTTP	37	0	1	B	0	L1
NMTTP	37	96	2	B	0	L1
NMTTP	37	192	3	B	0	L1
NMTTP	37	288	4	B	0	L1
NMTTP	38	0	0	C	0	L1
NMHLD	39	0	6	192
NMHLD	39	192	7	192
NMHLD	40	0	0	192
NMTAP	40	192	1
NMHLD	41	0	1	192
NMHLD	41	192	0	192
NMHLD	42	0	7	192
NMTAP	42	192	6
NMHLD	43	0	6	192
NMHLD	43	192	5	192
NMHLD	44	0	4	192
NMTAP	44	192	3
NMHLD	45	0	1	192
NMHLD	45	192	2	192
NMHLD	46	0	3	192
NMTAP	46	192	4
NMTAP	47	0	5
NMTAP	47	96	5
NMTAP	47	192	4
NMTAP	47	192	5
NMTAP	48	0	2
NMTAP	48	96	2
NMTAP	48	192	2
NMTAP	48	192	3
NMTAP	49	0	4
NMTAP	49	96	4
NMTAP	49	192	3
NMTAP	49	288	3
NMSTR	50	0	3
NMSI_	50	0	3	96	288	0
NMSTR	50	0	4
NMSI_	50	0	4	96	288	7
EXTAP	52	0	1
EXTAP	52	96	1
EXTAP	52	192	0
EXTAP	52	288	0
EXTAP	53	0	7
EXTAP	53	96	7
EXTAP	53	192	6
EXTAP	53	192	7
NMTAP	54	0	5
NMTAP	54	96	5
NMTAP	54	192	6
NMTAP	54	288	6
NMTAP	55	0	7
NMTAP	55	96	7
NMTAP	55	192	0
NMTAP	55	192	1
NMTAP	56	0	1
NMTAP	56	96	1
NMTAP	56	192	2
NMTAP	56	288	2
NMTAP	57	0	3
NMTAP	57	96	3
NMTAP	57	192	4
NMTAP	57	192	5
NMTAP	58	0	6
NMTAP	58	96	6
NMTAP	58	192	5
NMTAP	58	288	5
NMTAP	59	0	4
NMTAP	59	96	4
NMTAP	59	192	2
NMTAP	59	192	3
NMTAP	60	0	1
NMTAP	60	96	1
NMTAP	60	192	0
NMTAP	60	192	1
NMTAP	60	288	0
NMTAP	60	288	1
NMTAP	61	0	2
NMTAP	61	96	2
NMTAP	61	192	2
NMTAP	61	192	3
NMTAP	62	0	4
NMTAP	62	96	4
NMTAP	62	192	4
NMTAP	62	192	5
NMTAP	62	288	4
NMTAP	62	288	5
NMTAP	63	0	6
NMTAP	63	96	6
NMTAP	63	192	6
NMTAP	63	192	7
NMTAP	64	0	6
NMTAP	64	96	6
NMTAP	64	192	6
NMTAP	64	192	7
NMTAP	64	288	6
NMTAP	64	288	7
NMTAP	65	0	5
NMTAP	65	96	5
NMTAP	65	192	4
NMTAP	65	192	5
NMTAP	66	0	3
NMTAP	66	96	3
NMTAP	66	192	2
NMTAP	66	192	3
NMTAP	66	288	2
NMTAP	66	288	3
NMTAP	67	0	1
NMTAP	67	96	1
NMTAP	67	192	0
NMTAP	67	192	1
NMTAP	68	0	7
NMTAP	68	96	7
NMTAP	68	192	7
NMTAP	69	0	0
NMTAP	69	96	0
NMTAP	69	192	0
NMSTR	70	0	0
NMSCR	70	0	0	96	288	3
NMSTR	70	0	7
NMSCL	70	0	7	96	288	4
NMTAP	72	0	4
NMTAP	72	96	4
NMTAP	72	192	5
NMTAP	72	288	5
NMTAP	73	0	6
NMTAP	73	96	6
NMTAP	73	192	7
NMTAP	73	288	7
NMTAP	74	0	0
NMTAP	74	96	0
NMTAP	74	192	1
NMTAP	74	288	1
NMTAP	75	0	2
NMTAP	75	96	2
NMTAP	75	192	3
NMTAP	75	192	4
NMTAP	76	0	3
NMTAP	76	96	3
NMTAP	76	192	2
NMTAP	76	288	2
NMTAP	77	0	1
NMTAP	77	96	1
NMTAP	77	192	0
NMTAP	77	288	0
NMTAP	78	0	7
NMTAP	78	96	7
NMTAP	78	192	6
NMTAP	78	288	6
NMTAP	79	0	5
NMTAP	79	96	5
NMTAP	79	192	3
NMTAP	79	192	4
NMHLD	80	0	5	192
NMTAP	80	192	4
NMHLD	81	0	6	192
NMTAP	81	192	7
NMHLD	82	0	1	192
NMTAP	82	192	0
NMHLD	83	0	2	192
NMTAP	83	192	3
NMHLD	84	0	3	192
NMHLD	84	0	4	192
NMSTR	85	0	3
NMSXR	85	0	3	96	672	0
NMSTR	85	0	4
NMSXL	85	0	4	96	672	7
EXTAP	88	0	0
EXTAP	88	0	7
NMSTR	89	0	1
NMSI_	89	0	1	96	288	4
NMTAP	90	192	5
NMSTR	91	0	6
NMSI_	91	0	6	96	288	2
NMTAP	92	192	1
NMSTR	93	0	0
NMSI_	93	0	0	96	288	4
NMTAP	94	192	5
NMSTR	95	0	5
NMSLR	95	0	5	96	480	3
NMHLD	97	0	2	192
NMHLD	97	0	3	192
NMHLD	98	0	3	192
NMHLD	98	0	4	192
NMTAP	99	0	2
NMTAP	99	96	2
NMTAP	99	192	0
NMTAP	99	192	1
NMTAP	99	288	0
NMTAP	99	288	1
NMTAP	100	0	7
NMTAP	100	96	7
NMTAP	100	192	6
NMTAP	100	192	7
NMTAP	101	0	5
NMTAP	101	96	5
NMTAP	101	192	6
NMTAP	101	192	7
NMTAP	101	288	6
NMTAP	101	288	7
NMTAP	102	0	0
NMTAP	102	96	0
BRTAP	102	192	0
BRTAP	102	192	1
NMTAP	103	0	1
NMTAP	103	96	1
NMTAP	103	192	2
NMTAP	103	192	3
NMTAP	103	288	2
NMTAP	103	288	3
NMTAP	104	0	4
NMTAP	104	96	4
NMTAP	104	192	4
NMTAP	104	192	5
NMTAP	105	0	6
NMTAP	105	96	6
NMTAP	105	192	4
NMTAP	105	192	5
NMTAP	105	288	4
NMTAP	105	288	5
NMTAP	106	0	3
NMTAP	106	96	3
NMTAP	106	192	2
NMTAP	106	192	3
BXTAP	107	0	0
BXTAP	107	0	1
BXTAP	107	240	2
BXTAP	107	240	3
BXTAP	108	96	4
BXTAP	108	96	5
BXTAP	108	336	6
BXTAP	108	336	7
BXTAP	109	192	0
BXTAP	109	192	1
NMTAP	110	96	0
NMTAP	110	96	7
NMTHO	110	288	0	1728	C	1	L1
NMTTP	110	288	1	B	0	L1
NMTTP	110	288	2	B	0	L1
NMTTP	110	288	5	B	0	L1
NMTTP	110	288	6	B	0	L1
EXHLD	117	240	0	96
EXHLD	117	240	7	144

T_REC_TAP	242
T_REC_BRK	4
T_REC_XTP	10
T_REC_BXX	10
T_REC_HLD	22
T_REC_XHO	2
T_REC_BHO	0
T_REC_BXH	0
T_REC_STR	12
T_REC_BST	0
T_REC_XST	0
T_REC_XBS	0
T_REC_TTP	30
T_REC_THO	1
T_REC_SLD	12
T_REC_BSL	0
T_REC_ALL	345
T_NUM_TAP	294
T_NUM_BRK	14
T_NUM_HLD	25
T_NUM_SLD	12
T_NUM_ALL	345
T_JUDGE_TAP	308
T_JUDGE_HLD	109
T_JUDGE_SLD	12
T_JUDGE_ALL	429
TTM_EACHPAIRS	62
TTM_SCR_TAP	147000
TTM_SCR_BRK	36400
TTM_SCR_HLD	25000
TTM_SCR_SLD	18000
TTM_SCR_ALL	226400
TTM_SCR_S	218250
TTM_SCR_SS	225000
TTM_RAT_ACV	10062

