VERSION	0.00.00	1.05.00
FES_MODE	0
BPM_DEF	200.000	200.000	300.000	200.000
MET_DEF	4	4
RESOLUTION	384
CLK_DEF	576
COMPATIBLE_CODE	MA2

BPM	0	0	200.000
BPM	51	288	230.000
BPM	96	240	200.000
BPM	98	192	250.000
BPM	107	0	300.000
BPM	110	0	200.000
BPM	110	96	240.000
BPM	110	288	250.000
MET	0	0	4	3
MET	10	192	4	2
MET	11	0	4	4

NMTAP	3	0	7
NMTAP	3	288	6
NMTAP	4	192	5
NMTAP	5	96	3
NMTAP	5	96	4
NMTAP	6	0	3
NMTAP	6	0	4
NMTAP	7	0	3
NMTAP	7	288	2
NMTAP	8	192	1
NMTAP	9	96	0
NMTAP	9	96	7
NMTAP	11	0	0
NMTAP	11	96	0
NMTAP	11	192	0
NMTAP	12	0	0
NMTAP	12	0	1
NMTAP	12	192	0
NMTAP	12	192	1
NMTAP	13	0	7
NMTAP	13	96	7
NMTAP	13	192	7
NMTAP	14	0	0
NMTAP	14	0	7
NMTAP	15	0	7
EXTAP	15	96	7
NMTAP	15	192	7
NMTAP	16	0	6
NMTAP	16	96	6
NMTAP	16	192	6
NMTAP	17	0	5
NMTAP	17	96	5
NMTAP	17	192	5
NMTAP	18	0	4
NMTAP	18	96	4
NMTAP	18	192	3
NMTAP	18	192	4
NMTAP	19	0	3
NMTAP	19	96	3
NMTAP	19	192	3
NMTAP	20	0	2
NMTAP	20	96	2
NMTAP	20	192	2
NMTAP	21	0	1
NMTAP	21	96	1
NMTAP	21	192	1
NMTAP	22	0	0
NMTAP	22	0	7
NMTAP	22	96	0
NMTAP	22	96	7
NMTAP	22	192	0
NMTAP	22	192	7
BRTAP	23	0	0
NMTAP	23	96	0
NMTAP	23	192	0
NMTAP	24	0	1
NMTAP	24	96	1
NMTAP	24	192	0
NMTAP	24	192	1
NMTAP	25	0	2
NMTAP	25	96	2
NMTAP	25	192	2
NMTAP	26	0	3
NMTAP	26	96	3
NMTAP	26	192	3
NMTAP	26	192	4
NMTAP	27	0	4
NMTAP	27	96	4
NMTAP	27	192	4
NMTAP	28	0	5
NMTAP	28	96	5
NMTAP	28	192	4
NMTAP	28	192	5
NMTAP	29	0	6
NMTAP	29	96	6
NMTAP	29	192	6
BRTAP	30	0	6
BRTAP	30	0	7
NMTAP	31	0	7
NMTAP	31	96	7
NMTAP	31	192	7
NMTAP	32	0	6
NMTAP	32	0	7
NMTAP	32	192	6
NMTAP	32	192	7
NMTAP	33	0	5
NMTAP	33	96	5
NMTAP	33	192	5
NMTAP	34	0	3
NMTAP	34	0	4
NMTAP	34	192	3
NMTAP	34	192	4
NMTAP	35	0	3
NMTAP	35	96	3
NMTAP	35	192	3
NMTAP	36	0	2
NMTAP	36	0	3
NMTAP	36	192	2
NMTAP	36	192	3
NMTAP	37	0	1
NMTAP	37	96	1
NMTAP	37	192	1
NMTAP	38	0	0
NMTAP	38	0	7
NMTAP	38	192	0
NMTAP	38	192	7
NMSTR	39	0	0
NMSI_	39	0	0	96	288	5
NMSTR	41	0	7
NMSI_	41	0	7	96	288	2
NMSTR	43	0	1
NMSI_	43	0	1	96	288	4
NMSTR	45	0	6
NMSI_	45	0	6	96	288	3
NMTTP	47	0	3	B	0	L1
NMTTP	47	0	4	B	0	L1
NMTTP	48	0	2	B	0	L1
NMTTP	48	0	5	B	0	L1
NMTTP	49	0	1	B	0	L1
NMTTP	49	0	6	B	0	L1
NMTTP	50	0	0	C	1	L1
BXTAP	52	0	0
EXTAP	52	96	0
EXTAP	52	192	0
NMTAP	53	0	1
NMTAP	53	96	1
NMTAP	53	192	1
NMTAP	54	0	2
NMTAP	54	96	2
NMTAP	54	192	2
NMTAP	55	0	3
NMTAP	55	0	4
NMTAP	55	96	3
NMTAP	55	96	4
NMTAP	55	192	3
NMTAP	55	192	4
NMTAP	56	0	4
NMTAP	56	96	4
NMTAP	56	192	4
NMTAP	57	0	5
NMTAP	57	96	5
NMTAP	57	192	5
NMTAP	58	0	6
NMTAP	58	96	6
NMTAP	58	192	6
EXTAP	59	0	6
EXTAP	59	0	7
EXTAP	59	96	6
EXTAP	59	96	7
EXTAP	59	192	6
EXTAP	59	192	7
NMTAP	60	0	7
NMTAP	60	96	7
NMTAP	60	192	7
NMTAP	60	288	7
NMTAP	61	0	6
NMTAP	61	96	6
NMTAP	61	192	6
NMTAP	61	192	7
NMTAP	62	0	5
NMTAP	62	96	5
NMTAP	62	192	5
NMTAP	62	288	5
NMTAP	63	0	3
NMTAP	63	0	4
NMTAP	63	96	3
NMTAP	63	96	4
NMTAP	63	192	3
NMTAP	63	192	4
NMTAP	64	0	3
NMTAP	64	96	3
NMTAP	64	192	3
NMTAP	64	288	3
NMTAP	65	0	2
NMTAP	65	96	2
NMTAP	65	192	2
NMTAP	65	192	3
NMTAP	66	0	1
NMTAP	66	96	1
NMTAP	66	192	1
NMTAP	66	288	1
BXTAP	67	0	0
BXTAP	67	0	7
NMSTR	68	0	0
NMSI_	68	0	0	96	288	3
NMSTR	70	0	4
NMSI_	70	0	4	96	288	7
BRTAP	72	0	0
NMTAP	72	96	0
NMTAP	72	192	0
NMTAP	72	288	0
NMTAP	73	0	0
NMTAP	73	0	1
NMTAP	73	96	0
NMTAP	73	96	1
NMTAP	73	192	0
NMTAP	73	192	1
NMTAP	74	0	2
NMTAP	74	96	2
NMTAP	74	192	2
NMTAP	74	288	2
NMTAP	75	0	3
NMTAP	75	0	4
NMTAP	75	96	3
NMTAP	75	96	4
NMTAP	75	192	3
NMTAP	75	192	4
NMTAP	76	0	4
NMTAP	76	96	4
NMTAP	76	192	4
NMTAP	76	288	4
NMTAP	77	0	4
NMTAP	77	0	5
NMTAP	77	96	4
NMTAP	77	96	5
NMTAP	77	192	4
NMTAP	77	192	5
NMTAP	78	0	6
NMTAP	78	96	6
NMTAP	78	192	6
NMTAP	78	288	6
BXTAP	79	0	0
BXTAP	79	0	7
NMTTP	80	0	0	B	0	L1
NMTTP	81	0	7	B	0	L1
NMTTP	82	0	1	B	0	L1
NMTTP	83	0	6	B	0	L1
NMTHO	84	0	0	384	C	1	L1
NMTAP	87	0	0
NMTAP	87	0	7
NMTAP	87	192	0
NMTAP	87	192	7
BXTAP	88	0	0
BXTAP	88	0	7
NMHLD	89	0	0	192
NMHLD	89	0	1	192
NMTAP	90	0	0
NMTAP	90	0	1
NMHLD	91	0	2	192
NMHLD	91	0	3	192
NMTAP	92	0	2
NMTAP	92	0	3
NMHLD	93	0	4	192
NMHLD	93	0	5	192
NMTAP	94	0	4
NMTAP	94	0	5
NMHLD	95	0	6	192
NMHLD	95	0	7	192
NMTAP	96	0	6
NMTAP	96	0	7
EXTAP	97	0	0
EXTAP	97	0	7
EXTAP	98	0	0
EXTAP	98	0	7
BXTAP	99	0	7
EXTAP	99	96	7
EXTAP	99	192	6
EXTAP	99	288	6
EXTAP	100	0	5
EXTAP	100	96	5
EXTAP	100	192	4
EXTAP	100	192	5
NMTAP	101	0	3
NMTAP	101	96	3
NMTAP	101	192	2
NMTAP	101	288	2
NMTAP	102	0	1
NMTAP	102	96	1
NMTAP	102	192	0
NMTAP	102	192	1
NMTAP	103	0	0
NMTAP	103	96	0
NMTAP	103	192	1
NMTAP	103	288	1
NMTAP	104	0	2
NMTAP	104	96	2
NMTAP	104	192	3
NMTAP	104	192	4
NMTAP	105	0	4
NMTAP	105	96	4
NMTAP	105	192	5
NMTAP	105	288	5
NMTAP	106	0	6
NMTAP	106	96	6
NMTAP	106	192	0
NMTAP	106	192	7
NMTAP	106	288	0
NMTAP	106	288	7
EXTAP	107	0	0
EXTAP	107	0	7
EXTAP	107	240	0
EXTAP	107	240	7
EXTAP	108	96	1
EXTAP	108	96	6
EXTAP	108	336	1
EXTAP	108	336	6
EXHLD	109	192	2	288
EXHLD	109	192	5	288
NMTHO	110	288	0	1728	C	1	L1
NMTTP	110	288	1	B	0	L1
NMTTP	110	288	6	B	0	L1
EXHLD	117	240	0	144
EXHLD	117	240	7	144

T_REC_TAP	224
T_REC_BRK	4
T_REC_XTP	28
T_REC_BXX	8
T_REC_HLD	8
T_REC_XHO	4
T_REC_BHO	0
T_REC_BXH	0
T_REC_STR	6
T_REC_BST	0
T_REC_XST	0
T_REC_XBS	0
T_REC_TTP	13
T_REC_THO	2
T_REC_SLD	6
T_REC_BSL	0
T_REC_ALL	303
T_NUM_TAP	271
T_NUM_BRK	12
T_NUM_HLD	14
T_NUM_SLD	6
T_NUM_ALL	303
T_JUDGE_TAP	283
T_JUDGE_HLD	70
T_JUDGE_SLD	6
T_JUDGE_ALL	359
TTM_EACHPAIRS	68
TTM_SCR_TAP	135500
TTM_SCR_BRK	31200
TTM_SCR_HLD	14000
TTM_SCR_SLD	9000
TTM_SCR_ALL	189700
TTM_SCR_S	182850
TTM_SCR_SS	188500
TTM_RAT_ACV	10063

