VERSION	0.00.00	1.05.00
FES_MODE	0
BPM_DEF	192.000	192.000	192.000	192.000
MET_DEF	4	4
RESOLUTION	384
CLK_DEF	384
COMPATIBLE_CODE	MA2

BPM	0	0	192.000
MET	0	0	4	4
MET	11	0	4	3
MET	14	0	4	2
MET	14	192	4	4
MET	18	192	4	3
MET	35	288	4	2
MET	36	96	4	4
MET	42	96	4	2
MET	42	288	4	4
MET	68	288	4	6
MET	97	96	4	3
MET	98	0	4	4

NMTAP	1	0	0
NMTAP	1	24	7
NMTAP	1	48	0
NMTAP	1	72	7
NMTAP	1	96	0
NMTAP	1	120	7
NMTAP	1	144	0
NMTAP	1	168	7
EXSTR	1	192	1
NMSCR	1	192	1	96	48	4
EXTAP	1	240	1
BRTAP	1	288	5
NMTAP	2	0	6
NMTAP	2	48	6
NMTAP	2	96	4
NMTAP	2	144	4
NMTAP	2	192	2
NMTAP	2	240	2
NMTAP	2	288	0
NMTAP	2	336	0
EXTAP	3	0	6
EXTAP	3	0	7
NMTAP	3	96	5
NMTAP	3	144	5
NMTAP	3	192	2
NMTAP	3	192	4
NMTAP	3	240	2
NMTAP	3	264	3
NMTAP	3	288	1
NMTAP	3	336	0
NMTAP	4	0	1
NMTAP	4	0	4
NMTAP	4	48	1
NMTAP	4	48	4
NMHLD	4	96	2	48
NMHLD	4	96	3	48
NMTAP	4	192	5
NMTAP	4	216	3
NMTAP	4	240	5
NMTAP	4	264	3
NMHLD	4	288	5	96
NMHLD	5	0	7	72
NMTAP	5	72	6
NMTAP	5	96	7
NMTAP	5	144	0
NMTAP	5	144	5
NMSTR	5	192	1
NMSI_	5	192	1	96	48	4
NMSTR	5	192	4
NMSI_	5	192	4	96	48	7
EXTAP	6	0	3
EXTAP	6	0	6
NMTAP	6	72	5
NMTAP	6	96	4
NMTAP	6	144	2
NMTAP	6	192	1
NMTAP	6	192	3
NMTAP	6	240	1
NMTAP	6	240	3
NMTAP	6	288	0
NMTAP	6	288	4
NMTAP	6	336	5
NMTAP	6	336	7
NMHLD	7	0	6	72
NMSTR	7	72	4
BRSI_	7	72	4	96	48	0
NMTAP	7	96	5
EXTAP	7	144	7
EXTAP	7	192	7
NMSTR	7	288	6
NMSI_	7	288	6	96	48	0
NMSTR	8	0	2
NMSI_	8	0	2	96	48	4
NMSTR	8	96	5
NMSI_	8	96	5	96	48	7
EXTAP	8	192	3
NMTAP	8	240	3
NMTAP	8	288	2
NMTAP	8	336	1
NMTAP	9	0	0
NMSTR	9	0	1
NMSI_	9	0	1	96	48	4
NMSI_	9	0	1	96	48	5
NMTAP	9	96	1
BRTAP	9	192	3
BRTAP	9	192	6
NMTAP	10	0	0
NMHLD	10	0	7	96
NMTTP	10	96	1	E	0	M1
NMTTP	10	120	2	E	0	M1
NMTTP	10	144	3	E	0	M1
NMTTP	10	168	4	E	0	M1
NMTAP	10	192	6
NMTAP	10	240	6
NMTAP	10	288	4
NMTAP	10	288	5
NMHLD	11	0	2	72
NMTAP	11	72	3
NMSTR	11	96	3
NMSI_	11	96	3	96	48	5
NMTAP	11	144	1
EXHLD	11	192	0	96
NMHLD	11	288	6	72
NMTAP	11	360	7
NMSTR	12	0	7
NMSI_	12	0	7	96	48	1
NMTAP	12	48	5
EXTAP	12	96	4
EXTAP	12	192	2
EXTAP	12	192	3
NMTAP	12	288	1
NMTAP	12	336	1
NMTAP	13	0	0
NMTAP	13	0	2
NMTAP	13	48	1
NMTAP	13	96	2
NMTAP	13	96	4
NMSTR	13	144	2
BRSI_	13	144	2	96	48	4
NMTAP	13	144	4
NMTAP	13	240	5
NMHLD	13	288	5	96
NMTAP	14	0	4
NMTAP	14	48	3
NMTAP	14	48	4
NMTAP	14	96	2
NMHLD	14	96	3	96
NMSTR	14	192	1
NMSI_	14	192	1	96	96	7
NMTAP	14	288	4
NMTAP	15	0	6
CNSI_	15	0	7	0	96	2
NMTAP	15	48	6
CNSI_	15	96	2	0	96	4
NMTAP	15	96	6
NMSTR	15	192	5
NMSCR	15	192	5	96	96	1
NMSTR	15	288	3
NMSI_	15	288	3	96	48	7
EXTAP	16	96	0
EXTAP	16	96	6
NMHLD	16	192	2	96
NMHLD	16	192	3	96
NMHLD	17	0	4	96
NMHLD	17	0	5	96
NMHLD	17	192	3	72
NMTAP	17	264	4
NMTAP	17	288	4
NMTAP	17	336	3
NMTAP	17	336	5
EXHLD	18	0	2	96
NMSTR	18	0	6
NMSI_	18	0	6	96	48	3
EXTAP	18	96	6
BXTAP	18	192	0
NMTAP	18	264	2
NMTAP	18	288	3
NMTAP	18	336	5
NMTAP	19	0	4
NMTAP	19	0	6
BXTAP	19	96	7
NMTAP	19	168	5
NMTAP	19	192	4
NMTAP	19	240	2
NMSTR	19	288	1
BRSCL	19	288	1	96	96	6
NMTAP	19	288	3
NMSTR	20	0	6
BRSCL	20	0	6	96	96	3
NMSTR	20	96	3
BRSCL	20	96	3	96	96	0
NMTAP	20	192	7
NMTAP	20	240	7
NMHLD	20	288	7	48
NMTAP	21	0	0
NMTAP	21	0	6
NMTAP	21	48	0
NMTAP	21	48	6
NMTAP	21	96	1
NMTAP	21	96	5
BXTAP	21	192	7
NMTAP	21	264	6
NMTAP	21	288	4
NMTAP	21	336	2
NMTAP	21	336	3
NMTAP	22	0	2
NMTAP	22	0	3
BXTAP	22	96	0
NMTAP	22	168	1
NMTAP	22	192	3
NMTAP	22	240	4
NMTAP	22	240	5
NMTAP	22	288	4
NMHLD	22	288	5	96
NMTAP	23	0	7
NMTAP	23	24	6
NMTAP	23	72	6
NMTAP	23	96	7
NMTAP	23	144	0
NMTAP	23	144	5
NMTAP	23	192	1
NMTAP	23	240	1
NMTAP	23	288	0
NMTAP	23	288	1
NMTAP	23	312	2
NMHLD	23	336	3	48
NMTAP	24	0	7
NMTAP	24	24	6
NMHLD	24	48	5	48
NMTAP	24	96	0
NMTAP	24	120	1
NMTAP	24	144	2
NMTAP	24	168	3
NMHLD	24	192	6	72
NMTAP	24	264	4
NMTAP	24	288	5
NMTAP	24	336	3
NMTAP	24	336	6
NMTAP	25	0	4
NMHLD	25	0	7	48
NMHLD	25	96	1	72
NMTAP	25	168	3
NMTAP	25	192	2
NMTAP	25	240	1
NMTAP	25	240	4
NMHLD	25	288	0	48
NMTAP	25	288	3
NMSTR	26	0	6
NMSI_	26	0	6	96	48	3
NMTAP	26	48	7
NMTAP	26	96	0
NMTAP	26	144	1
NMTAP	26	192	2
NMTAP	26	240	2
NMTAP	26	288	1
NMSTR	26	288	3
NMSUR	26	288	3	96	96	0
NMSTR	27	0	0
NMSCR	27	0	0	96	96	3
NMTAP	27	96	3
NMHLD	27	192	0	72
NMTAP	27	264	3
NMSTR	27	288	1
NMSI_	27	288	1	96	48	4
NMTAP	27	336	2
NMTAP	28	0	5
NMHLD	28	96	6	72
NMTAP	28	168	4
NMSTR	28	192	5
NMSCL	28	192	5	96	48	2
NMTAP	28	240	6
EXTAP	28	288	0
NMTHO	29	0	0	288	C	0	M1
NMHLD	29	288	7	72
NMHLD	30	48	0	72
NMHLD	30	48	1	72
NMTAP	30	192	0
NMSTR	30	192	1
NMSCR	30	192	1	96	96	3
NMSTR	30	288	3
NMSCR	30	288	3	96	96	5
NMTAP	31	0	7
NMHLD	31	96	6	96
NMTAP	31	192	7
NMTAP	31	240	7
NMTAP	31	336	0
NMTAP	31	336	1
NMTAP	32	0	0
NMHLD	32	0	1	96
NMTAP	32	96	2
NMTAP	32	128	3
NMTAP	32	160	4
NMHLD	32	192	5	144
NMHLD	32	288	7	48
NMHLD	32	360	0	48
NMHLD	32	360	6	48
EXTAP	33	48	1
EXTAP	33	48	7
EXTAP	33	96	1
EXTAP	33	96	7
BRTAP	33	192	6
NMTAP	33	216	4
NMTAP	33	240	5
NMTAP	33	264	4
BRTAP	33	336	1
NMTAP	33	360	3
NMTAP	34	0	2
NMTAP	34	24	3
NMTAP	34	96	1
NMTAP	34	96	7
NMTAP	34	144	1
NMSTR	34	144	7
BRSLL	34	144	7	96	96	3
NMTAP	34	240	2
NMTAP	34	288	2
NMTAP	35	0	0
EXTAP	35	0	4
NMTAP	35	24	1
NMTAP	35	48	2
NMTAP	35	72	3
NMTAP	35	96	6
NMTAP	35	120	5
NMTAP	35	144	4
NMTAP	35	168	3
NMTAP	35	192	1
NMTAP	35	216	2
NMTAP	35	240	3
NMTAP	35	264	4
NMTAP	35	288	0
NMTAP	35	312	7
NMTAP	35	336	6
NMTAP	35	360	5
NMTAP	36	0	2
NMTAP	36	24	3
NMTAP	36	48	2
NMTAP	36	72	3
BRTAP	36	96	0
NMSTR	36	192	6
NMSV_	36	192	6	96	48	3
NMSTR	36	192	7
NMSI_	36	192	7	96	48	2
NMTAP	36	240	5
EXTAP	36	288	6
EXTAP	36	288	7
NMSTR	37	0	0
NMSI_	37	0	0	96	48	5
NMSTR	37	0	1
NMSV_	37	0	1	96	48	4
NMTAP	37	48	2
EXTAP	37	96	0
EXTAP	37	96	1
NMTAP	37	192	7
NMTAP	37	240	0
NMTAP	37	240	6
NMTAP	37	288	1
NMTAP	37	288	5
NMTAP	37	336	2
NMTAP	37	360	3
NMSTR	38	0	1
NMSCR	38	0	1	96	48	4
NMTAP	38	48	0
BXTAP	38	96	1
BXTAP	38	96	7
NMSTR	38	192	6
NMSI_	38	192	6	96	48	2
NMTAP	38	192	7
NMTAP	38	240	5
NMSTR	38	288	0
NMSI_	38	288	0	96	96	4
NMTAP	38	288	6
NMTAP	39	0	4
NMTAP	39	48	5
CNSCL	39	96	4	0	96	1
NMTAP	39	96	6
NMTAP	39	144	7
NMTAP	39	192	0
NMTAP	39	240	0
NMSTR	39	288	1
NMSI_	39	288	1	96	48	5
NMSTR	39	288	7
NMSI_	39	288	7	96	48	4
NMTAP	40	0	1
NMTAP	40	0	7
BRTAP	40	96	3
BRTAP	40	96	6
NMSTR	40	192	0
NMSV_	40	192	0	96	48	5
NMSTR	40	192	1
NMSCR	40	192	1	96	48	4
NMTAP	40	240	7
NMTAP	40	288	0
NMTAP	40	288	1
NMTAP	41	0	6
NMTAP	41	24	7
NMTAP	41	48	6
NMTAP	41	72	7
NMHLD	41	96	5	72
NMTAP	41	168	0
NMTAP	41	192	0
NMTAP	41	240	1
NMTAP	41	240	7
NMSTR	41	288	2
NMSI_	41	288	2	96	48	4
NMSTR	41	288	6
NMSI_	41	288	6	96	48	4
NMSTR	42	0	2
NMSI_	42	0	2	96	48	0
NMSTR	42	0	6
NMSI_	42	0	6	96	48	0
NMTAP	42	96	2
NMSTR	42	96	6
NMSI_	42	96	6	96	48	2
BRTAP	42	192	2
BRTAP	42	192	6
NMSTR	42	288	0
NMSI_	42	288	0	96	48	4
NMTAP	42	336	1
NMSTR	43	0	0
NMSCL	43	0	0	96	48	5
NMHLD	43	0	2	96
NMTAP	43	96	0
EXSTR	43	192	1
BRSI_	43	192	1	96	48	5
EXTAP	43	192	4
NMTAP	43	288	1
NMSTR	43	288	7
BRSI_	43	288	7	96	48	3
NMSTR	44	0	0
NMSCL	44	0	0	96	48	5
NMSCR	44	0	0	96	48	3
NMTAP	44	0	7
NMTAP	44	96	0
NMSTR	44	192	1
NMSI_	44	192	1	96	48	4
NMSTR	44	192	7
NMSI_	44	192	7	96	48	4
NMTAP	44	240	0
BRSTR	44	288	1
NMSCL	44	288	1	96	384	1
BRSTR	44	288	7
NMSCR	44	288	7	96	384	7
NMTAP	46	96	0
NMTAP	46	96	6
NMTAP	46	144	1
NMTAP	46	144	5
NMTAP	46	192	2
NMTAP	46	192	4
NMHLD	46	288	6	72
NMTTP	46	360	3	B	0	M1
NMTTP	47	0	4	E	0	M1
NMTAP	47	48	7
NMSTR	47	96	1
NMSI_	47	96	1	96	48	3
NMTAP	47	144	0
NMTAP	47	192	1
NMHLD	47	288	5	72
NMTTP	47	360	0	E	0	M1
NMTTP	48	0	0	B	0	M1
NMTAP	48	48	6
NMTAP	48	96	6
EXTAP	48	144	6
EXTAP	48	144	7
EXTAP	48	168	0
EXTAP	48	168	5
EXSTR	48	192	1
NMSI_	48	192	1	96	48	4
EXTAP	48	192	4
EXTAP	48	288	1
EXTAP	48	288	5
NMTAP	48	360	7
NMTAP	49	0	7
NMTAP	49	48	4
NMTAP	49	48	6
NMTAP	49	96	3
NMTAP	49	96	5
NMTAP	49	144	2
NMTAP	49	168	3
NMTAP	49	192	1
NMTAP	49	240	7
NMTAP	49	288	3
NMTAP	49	288	6
NMTAP	49	336	5
NMTAP	49	360	4
NMTAP	50	0	5
NMTAP	50	24	4
NMTAP	50	48	6
NMTAP	50	72	3
NMSTR	50	96	7
BRSCL	50	96	7	96	48	4
NMTAP	50	144	0
BXTAP	50	192	2
BXTAP	50	192	7
NMTAP	50	288	1
NMTAP	50	312	2
NMTAP	50	336	1
NMTAP	50	360	2
NMTAP	51	0	1
NMTAP	51	48	5
NMTAP	51	72	4
NMTAP	51	96	5
NMTAP	51	120	4
NMTAP	51	144	5
NMTAP	51	192	6
NMTAP	51	216	7
NMTAP	51	240	6
NMTAP	51	264	7
NMSTR	51	288	5
NMSI_	51	288	5	96	48	0
NMSTR	52	0	1
NMSI_	52	0	1	96	48	4
NMTAP	52	96	7
NMTAP	52	144	6
BRTAP	52	192	0
BRTAP	52	192	5
NMTAP	52	288	3
NMTAP	53	0	2
NMSTR	53	0	3
NMSCR	53	0	3	96	96	5
NMTTP	53	96	0	B	0	M1
NMTTP	53	96	0	A	0	M1
NMTTP	53	96	1	E	0	M1
NMTTP	53	96	1	D	0	M1
NMTAP	53	288	3
NMSTR	54	0	3
NMSCR	54	0	3	96	96	5
NMTTP	54	96	0	B	0	M1
NMTTP	54	96	0	A	0	M1
NMTTP	54	96	1	E	0	M1
NMTTP	54	96	1	D	0	M1
NMHLD	54	288	2	96
NMSTR	54	288	3
NMSI_	54	288	3	96	96	7
NMHLD	55	96	1	96
CNSI_	55	96	7	0	96	5
CNSI_	55	192	5	0	96	2
NMHLD	55	288	0	96
NMTTP	56	96	2	E	0	M1
NMTTP	56	144	3	E	0	M1
NMTTP	56	192	5	E	0	M1
NMTTP	56	240	6	E	0	M1
EXTAP	56	288	6
BXSTR	56	288	7
NMSI_	56	288	7	96	96	2
CNSI_	57	96	2	0	96	5
NMSTR	57	96	5
NMSI_	57	96	5	96	96	1
NMTAP	57	192	6
NMSTR	57	288	0
NMSCL	57	288	0	96	96	5
NMTAP	58	0	2
NMTAP	58	96	2
CNSI_	58	96	5	0	96	3
NMSTR	58	192	1
NMSUR	58	192	1	96	288	6
NMHLD	58	288	0	384
CNSUL	59	192	6	0	288	1
EXTAP	60	96	7
NMSTR	60	192	0
NMSV_	60	192	0	96	48	3
NMSTR	60	192	5
NMSI_	60	192	5	96	48	0
BXTAP	60	288	0
BXTAP	60	288	5
NMTTP	61	96	2	E	0	M1
NMTTP	61	120	2	B	0	M1
NMTTP	61	144	3	B	0	M1
NMTTP	61	168	4	E	0	M1
EXTAP	61	192	7
NMTAP	61	288	5
NMTAP	61	336	4
NMSTR	62	0	3
NMSUR	62	0	3	96	120	0
NMTAP	62	48	2
NMHLD	62	96	1	192
EXHLD	62	288	0	96
NMSTR	63	0	2
NMSCL	63	0	2	96	120	6
NMSTR	63	48	2
NMSUL	63	48	2	96	72	5
NMTAP	63	288	4
NMTAP	63	336	4
NMTAP	64	0	0
NMTAP	64	48	0
NMTTP	64	96	6	E	0	M1
NMTTP	64	96	6	A	0	M1
NMTTP	64	144	2	A	0	M1
NMTTP	64	144	3	E	0	M1
NMTTP	64	192	4	B	0	M1
NMTTP	64	192	4	A	0	M1
BXTAP	64	288	1
BXTAP	64	288	7
NMTTP	65	0	6	E	0	M1
NMTTP	65	24	5	B	0	M1
NMTTP	65	48	4	B	0	M1
NMTTP	65	72	4	E	0	M1
EXTAP	65	96	0
NMTAP	65	144	0
NMTAP	65	192	1
NMTAP	65	240	1
NMHLD	65	288	2	96
NMTTP	65	336	4	A	0	M1
NMTTP	65	352	5	D	0	M1
NMTTP	65	368	5	A	0	M1
NMTTP	66	0	6	D	0	M1
EXTAP	66	48	7
EXTAP	66	96	7
NMTAP	66	192	3
NMTAP	66	192	6
NMTAP	66	288	5
NMTAP	66	312	4
NMTAP	66	336	5
NMTAP	66	360	4
NMTAP	67	0	5
NMTAP	67	48	2
NMTAP	67	48	4
NMHLD	67	96	1	96
NMTAP	67	96	3
NMTAP	67	192	0
NMTAP	67	216	7
NMTAP	67	240	6
NMTAP	67	264	5
NMHLD	67	288	2	48
NMHLD	67	288	4	48
NMTAP	68	0	1
NMTAP	68	24	3
NMTAP	68	48	1
NMTAP	68	72	3
NMTAP	68	96	0
NMTAP	68	144	0
BXTAP	68	192	1
BXTAP	68	192	7
NMHLD	68	288	2	72
NMTAP	69	48	1
NMTAP	69	48	3
NMTAP	69	96	1
NMTAP	69	96	3
NMHLD	69	192	6	72
NMTAP	69	336	5
NMTAP	69	336	7
NMTAP	70	0	5
NMSTR	70	0	7
NMSCR	70	0	7	96	96	2
NMTAP	70	96	6
NMSTR	70	192	4
NMSCR	70	192	4	96	96	7
NMTAP	70	288	3
NMSTR	71	0	1
NMSCR	71	0	1	96	96	4
NMTAP	71	96	0
NMHLD	71	192	7	96
NMTAP	71	288	4
NMTAP	71	352	4
NMTAP	72	0	6
NMTAP	72	64	6
NMTAP	72	96	7
NMTAP	72	160	7
NMTAP	72	192	5
NMTAP	72	256	5
NMTAP	72	288	3
NMTAP	72	352	3
NMTAP	73	0	1
NMTAP	73	64	1
NMSTR	73	96	7
NMSCR	73	96	7	96	192	3
NMTAP	73	192	4
NMTAP	73	288	6
NMSTR	74	0	0
NMSCL	74	0	0	96	192	4
NMTAP	74	96	3
NMTAP	74	192	1
BRHLD	74	288	7	576
NMTHO	76	96	0	288	C	0	M1
EXTAP	77	160	0
EXTAP	77	160	7
NMSTR	77	288	1
NMSI_	77	288	1	96	96	4
NMTAP	78	0	3
CNSI_	78	96	4	0	96	7
NMTAP	78	96	5
NMSTR	78	192	0
NMSI_	78	192	0	96	96	5
NMTAP	78	288	3
NMTAP	79	0	1
CNSI_	79	0	5	0	96	2
NMHLD	79	96	0	96
NMHLD	79	192	2	96
NMHLD	79	288	4	96
EXTAP	80	0	6
NMTAP	80	72	6
NMTAP	80	72	7
NMTAP	80	144	0
NMTAP	80	144	5
NMHLD	80	216	1	72
NMTAP	80	216	4
BXHLD	80	288	3	72
NMTAP	80	360	2
NMTAP	81	0	4
NMTAP	81	48	5
NMTAP	81	96	4
NMHLD	81	96	6	96
BXHLD	81	192	4	72
NMTAP	81	264	5
NMTAP	81	288	3
NMTAP	81	336	0
NMTAP	81	336	2
NMTAP	82	0	0
NMHLD	82	0	2	96
NMTAP	82	96	1
NMTAP	82	120	2
NMTAP	82	168	2
NMTAP	82	192	3
NMTAP	82	240	2
NMTAP	82	240	4
NMTAP	82	288	3
NMTAP	82	288	5
NMTAP	82	336	4
NMTAP	82	336	6
NMTAP	83	0	3
NMTAP	83	0	7
NMTAP	83	48	6
NMTAP	83	64	4
NMTAP	83	80	6
NMTAP	83	96	4
NMTAP	83	144	3
NMTAP	83	144	5
BRTAP	83	192	2
BRTAP	83	192	6
BXHLD	83	288	4	72
NMTAP	83	288	6
NMTAP	83	360	5
NMTAP	84	0	3
NMTAP	84	48	0
NMTAP	84	48	1
NMTAP	84	96	0
NMTAP	84	96	1
NMTAP	84	192	1
BXHLD	84	192	3	72
NMTAP	84	264	2
NMTAP	84	288	4
NMTAP	84	336	6
NMTAP	84	336	7
NMHLD	85	0	6	96
NMTAP	85	0	7
NMTAP	85	96	5
NMTAP	85	120	6
NMTAP	85	168	6
NMTAP	85	192	7
NMTAP	85	240	0
NMTAP	85	240	5
NMTAP	85	288	1
NMTAP	85	288	4
NMTAP	85	336	2
NMTAP	85	336	3
NMTAP	86	0	2
NMTAP	86	24	1
NMHLD	86	48	0	48
NMTAP	86	96	4
NMTAP	86	120	5
NMHLD	86	144	6	48
NMTAP	86	192	7
NMTAP	86	216	0
NMTAP	86	240	1
NMTAP	86	264	2
NMHLD	86	288	5	72
NMTAP	86	360	2
NMTAP	87	0	4
NMTAP	87	48	1
NMTAP	87	48	3
NMTAP	87	96	0
NMTAP	87	96	2
NMHLD	87	192	1	72
NMTAP	87	192	3
NMTAP	87	264	4
NMTAP	87	288	2
NMTAP	87	336	3
NMTAP	87	336	5
NMTAP	88	0	4
NMTAP	88	0	6
NMSTR	88	96	7
NMSCL	88	96	7	96	96	3
NMTAP	88	144	0
NMTAP	88	192	1
NMTAP	88	240	2
NMTAP	88	288	1
NMTAP	88	336	1
NMTAP	89	0	1
NMSTR	89	0	3
NMSUR	89	0	3	96	96	0
NMSTR	89	96	0
NMSCR	89	96	0	96	96	3
NMTAP	89	192	3
NMHLD	89	288	0	72
NMTAP	89	360	3
NMSTR	90	0	1
NMSI_	90	0	1	96	48	4
NMTAP	90	48	2
NMTAP	90	96	5
NMHLD	90	192	6	72
NMTAP	90	264	4
NMSTR	90	288	5
NMSCL	90	288	5	96	48	2
NMTAP	90	336	6
EXTAP	91	0	0
NMTHO	91	96	0	288	C	0	M1
NMHLD	92	0	0	72
NMHLD	92	144	1	72
NMHLD	92	144	7	72
NMSTR	92	288	6
NMSCL	92	288	6	96	192	2
NMSTR	93	0	4
NMSCL	93	0	4	96	96	2
NMTTP	93	96	0	C	0	M1
NMHLD	93	192	1	96
NMTAP	93	288	0
NMTAP	93	336	0
NMTAP	94	48	6
NMTAP	94	48	7
NMHLD	94	96	6	96
NMTAP	94	96	7
NMTAP	94	192	5
NMTAP	94	224	4
NMTAP	94	256	3
NMHLD	94	288	2	144
NMHLD	95	0	0	48
NMHLD	95	72	1	48
NMHLD	95	72	7	48
NMTAP	95	144	0
NMTAP	95	144	6
EXTAP	95	192	0
EXTAP	95	192	6
BRTAP	95	288	1
NMTAP	95	312	3
NMTAP	95	336	2
NMTAP	95	360	4
BRTAP	96	48	6
NMTAP	96	72	4
NMTAP	96	96	5
NMTAP	96	120	3
NMTAP	96	192	1
NMTAP	96	192	7
NMTAP	96	240	1
NMSTR	96	240	7
BRSLL	96	240	7	96	72	3
NMTAP	96	336	2
NMTAP	97	0	2
NMTAP	97	96	0
NMTAP	97	96	4
NMTAP	97	120	1
NMTAP	97	144	2
NMTAP	97	168	3
NMTAP	97	192	6
NMTAP	97	216	5
NMTAP	97	240	4
NMTAP	97	264	3
NMTAP	97	288	7
NMTAP	97	312	0
NMTAP	97	336	1
NMTAP	97	360	2
NMTAP	98	0	4
NMTAP	98	24	5
NMTAP	98	48	6
NMTAP	98	72	7
NMTAP	98	96	4
NMTAP	98	120	3
NMTAP	98	144	2
NMTAP	98	168	1
NMTAP	98	192	4
NMTAP	98	216	5
NMTAP	98	240	6
NMTAP	98	264	7
NMTAP	98	288	0
NMSTR	98	288	1
NMSI_	98	288	1	96	48	4
NMSI_	98	288	1	96	48	5
BRTAP	99	0	1
NMTAP	99	96	6
NMSTR	99	96	7
NMSI_	99	96	7	96	48	2
NMSI_	99	96	7	96	48	3
BRTAP	99	192	7
NMSTR	99	288	0
NMSI_	99	288	0	96	48	2
NMSTR	99	288	7
NMSI_	99	288	7	96	48	5
BRSTR	100	0	0
NMSI_	100	0	0	96	48	4
BRSTR	100	0	7
NMSI_	100	0	7	96	48	3
BRTAP	100	96	0
BRTAP	100	96	7
BRTAP	100	192	2
BRTAP	100	192	5
NMSTR	100	288	1
BRSV_	100	288	1	96	48	4
NMSTR	100	288	5
BRSV_	100	288	5	96	48	0
BRTAP	101	0	1
BRTAP	101	0	5
NMTAP	101	96	3
NMTAP	101	96	7
NMTAP	101	144	2
NMTAP	101	192	3
NMSTR	101	192	6
NMSCL	101	192	6	96	48	4
NMTAP	101	240	7
NMSTR	101	288	0
NMSCR	101	288	0	96	48	2
NMTAP	101	288	6
NMTAP	101	336	7
NMTAP	102	0	0
NMSTR	102	0	3
NMSV_	102	0	3	96	48	0
NMSV_	102	0	3	96	48	6
NMTAP	102	96	3
BRTAP	102	192	1
BRTAP	102	192	5
NMSTR	102	288	2
BRSI_	102	288	2	96	48	4
NMSTR	102	288	5
BRSI_	102	288	5	96	48	1
NMTAP	102	336	4
NMTAP	103	0	2
NMTAP	103	0	5
EXTAP	103	96	0
NMTAP	103	120	7
NMTAP	103	144	6
NMTAP	103	168	5
NMHLD	103	192	2	72
NMHLD	103	192	4	72
NMTAP	103	288	1
NMTAP	103	288	3
NMTAP	103	336	2
NMTAP	103	336	4
BRSTR	104	0	0
NMSI_	104	0	0	96	48	4
BRSTR	104	0	6
NMSI_	104	0	6	96	48	2
BRSTR	104	96	0
NMSCR	104	96	0	96	48	3
BRSTR	104	96	6
NMSCL	104	96	6	96	48	3
BRSTR	104	192	0
NMSF_	104	192	0	96	48	4
BRTAP	104	192	6
BRTAP	104	288	0
EXTAP	105	0	2
EXTAP	105	0	6
NMTAP	105	48	5
NMTAP	105	64	3
NMTAP	105	80	5
NMTAP	105	96	3
NMTAP	105	144	4
NMTAP	105	144	6
NMSTR	105	192	3
NMSCL	105	192	3	96	48	0
NMSTR	105	192	7
NMSCL	105	192	7	96	48	4
NMTAP	105	288	3
NMTAP	105	288	7
NMSTR	106	0	3
NMSV_	106	0	3	96	48	6
NMSTR	106	0	7
NMSV_	106	0	7	96	48	2
NMTAP	106	96	3
NMTAP	106	96	7
BRTAP	106	192	0
BRTAP	106	192	4
EXSTR	106	288	1
BRSI_	106	288	1	96	48	4
EXSTR	106	288	5
BRSI_	106	288	5	96	48	0
NMTAP	106	336	2
NMTAP	106	336	6
NMTTP	107	0	0	C	1	M1
BRTAP	107	0	1
BRSTR	107	0	5
BRSCL	107	0	5	96	384	5
EXTAP	108	192	6
EXTAP	108	240	4
EXTAP	108	288	3
EXTAP	108	336	1
NMTAP	109	0	0
NMTAP	109	0	7
NMTAP	109	48	2
NMTAP	109	72	3
NMTAP	109	96	1
NMTAP	109	144	5
NMTAP	109	168	4
NMTAP	109	192	6
NMTAP	109	240	1
NMTAP	109	264	0
NMTAP	109	288	2
NMTAP	109	336	6
NMTAP	109	360	7
NMTAP	110	0	5
NMTAP	110	48	2
NMTAP	110	72	3
NMTAP	110	96	2
NMTAP	110	120	3
NMTAP	110	144	1
NMTAP	110	168	4
NMSTR	110	192	0
BRSCR	110	192	0	96	48	3
NMTAP	110	240	7
BXTAP	110	288	0
BXTAP	110	288	6
NMTAP	111	0	5
NMTAP	111	24	4
NMTAP	111	48	5
NMTAP	111	72	4
NMTAP	111	96	6
NMTAP	111	144	0
NMTAP	111	192	2
NMTAP	111	216	3
NMTAP	111	240	2
NMTAP	111	264	3
NMTAP	111	288	1
NMTAP	111	336	7
NMTAP	112	0	0
NMTAP	112	0	5
NMTAP	112	48	0
NMTAP	112	48	5
NMTAP	112	72	4
NMTAP	112	96	3
NMTAP	112	120	2
NMTAP	112	144	1
NMTAP	112	168	0
NMSTR	112	192	3
NMSV_	112	192	3	96	48	0
NMSTR	112	192	7
NMSCL	112	192	7	96	48	4
NMTAP	112	240	3
NMTAP	112	240	7
BRTAP	113	0	1
NMTAP	113	24	3
NMTAP	113	48	1
NMTAP	113	72	3
NMHLD	113	96	2	24
BRTAP	113	144	6
NMTAP	113	168	4
NMTAP	113	192	6
NMTAP	113	216	4
NMHLD	113	240	5	24
BRSTR	113	288	0
NMSCR	113	288	0	96	192	7
NMTAP	113	312	7
NMTAP	113	336	0
NMTAP	113	360	7
BRTAP	114	0	0
CNSSR	114	192	7	0	96	3
NMTAP	115	0	2
NMTAP	115	0	4
NMTAP	115	48	6
NMTAP	115	96	3
NMTAP	115	96	5
NMTAP	115	144	1
NMTAP	115	192	0
NMTAP	115	192	7
NMTAP	115	240	0
NMTAP	115	240	7
NMTAP	115	256	1
NMTAP	115	256	6
NMTAP	115	272	2
NMTAP	115	272	5
NMTAP	115	288	3
NMSTR	115	288	4
NMSI_	115	288	4	96	192	1
CNSI_	116	192	1	0	192	6
CNSI_	117	0	6	0	192	3
NMTAP	118	0	3
NMTAP	118	0	4
NMTTP	118	96	6	E	0	M1
NMTTP	118	120	5	E	0	M1
NMTTP	118	144	4	E	0	M1
NMTTP	118	168	3	E	0	M1
NMTTP	118	192	2	E	0	M1
NMTAP	118	288	0
NMTAP	118	312	7
NMTAP	118	336	0
NMTAP	118	360	7
NMSTR	119	0	1
NMSCR	119	0	1	96	48	3
NMSTR	119	96	4
NMSI_	119	96	4	96	48	0
BRSI_	119	96	4	96	48	1

T_REC_TAP	583
T_REC_BRK	34
T_REC_XTP	51
T_REC_BXX	16
T_REC_HLD	76
T_REC_XHO	3
T_REC_BHO	1
T_REC_BXH	4
T_REC_STR	98
T_REC_BST	11
T_REC_XST	5
T_REC_XBS	1
T_REC_TTP	45
T_REC_THO	3
T_REC_SLD	102
T_REC_BSL	19
T_REC_ALL	1052
T_NUM_TAP	782
T_NUM_BRK	86
T_NUM_HLD	82
T_NUM_SLD	102
T_NUM_ALL	1052
T_JUDGE_TAP	844
T_JUDGE_HLD	187
T_JUDGE_SLD	121
T_JUDGE_ALL	1152
TTM_EACHPAIRS	187
TTM_SCR_TAP	391000
TTM_SCR_BRK	223600
TTM_SCR_HLD	82000
TTM_SCR_SLD	153000
TTM_SCR_ALL	849600
TTM_SCR_S	815800
TTM_SCR_SS	841000
TTM_RAT_ACV	10102

