VERSION	0.00.00	1.05.00
FES_MODE	0
BPM_DEF	192.000	192.000	192.000	192.000
MET_DEF	4	4
RESOLUTION	384
CLK_DEF	384
COMPATIBLE_CODE	MA2

BPM	0	0	192.000
MET	0	0	4	4
MET	11	0	4	3
MET	14	0	4	2
MET	14	192	4	4
MET	18	192	4	3
MET	35	288	4	4
MET	42	288	4	4
MET	68	288	4	6
MET	97	96	4	3
MET	98	0	4	4

NMHLD	1	0	3	192
NMHLD	1	0	4	192
NMTAP	1	288	2
NMTAP	1	288	5
BRTAP	2	0	1
BRTAP	2	0	6
NMTAP	2	96	0
NMTAP	2	144	0
NMTAP	2	240	2
NMTAP	2	240	3
NMTAP	2	336	5
NMSTR	3	0	5
NMSI_	3	0	5	96	48	3
NMSTR	3	192	1
NMSI_	3	192	1	96	48	5
NMHLD	4	0	6	96
NMTAP	4	96	7
NMTAP	4	144	7
NMTAP	4	240	1
NMTAP	4	240	5
NMTAP	4	336	2
NMHLD	5	0	2	96
NMSTR	5	96	4
NMSXL	5	96	4	96	192	3
NMHLD	6	0	1	96
NMHLD	6	96	2	96
NMTAP	6	192	3
NMTAP	6	288	1
NMTAP	6	288	4
NMHLD	7	0	6	96
NMHLD	7	96	5	96
NMTAP	7	192	4
NMTAP	7	288	3
NMTAP	7	288	6
NMHLD	8	0	2	96
NMTAP	8	0	3
NMTAP	8	96	0
NMTAP	8	192	4
NMHLD	8	192	5	96
NMTAP	8	288	7
NMTAP	9	0	1
NMTAP	9	0	6
NMSTR	9	96	3
NMSI_	9	96	3	96	72	7
NMSTR	9	96	4
NMSI_	9	96	4	96	72	0
NMHLD	10	0	1	96
NMTAP	10	96	3
NMTAP	10	192	4
NMTAP	10	240	4
NMTAP	10	288	3
NMHLD	11	0	6	96
NMTAP	11	96	4
NMTAP	11	192	3
NMTAP	11	192	5
NMHLD	11	288	2	96
NMTAP	12	0	3
NMTAP	12	96	2
NMTAP	12	96	4
NMHLD	12	192	1	96
NMTAP	12	288	7
NMSTR	13	0	0
BRSCR	13	0	0	96	216	6
NMTAP	13	0	6
EXTAP	14	0	7
BRHLD	14	96	0	96
BRHLD	14	96	6	96
NMTAP	14	288	2
NMTAP	14	288	3
NMTAP	15	0	1
NMTAP	15	48	1
NMTAP	15	96	3
NMTAP	15	192	4
NMTAP	15	192	6
NMTAP	15	288	3
NMTAP	15	288	4
NMTAP	16	0	1
NMTAP	16	0	3
NMTAP	16	96	0
EXHLD	16	192	6	96
EXHLD	16	192	7	96
EXHLD	17	0	0	96
EXHLD	17	0	1	96
NMTAP	17	192	3
NMTAP	17	192	4
NMSTR	17	288	2
NMSI_	17	288	2	96	96	5
NMSTR	17	288	6
NMSI_	17	288	6	96	96	1
NMHLD	18	192	0	96
NMHLD	18	192	7	96
EXTAP	19	0	1
EXTAP	19	0	3
NMHLD	19	96	0	96
NMHLD	19	96	7	96
EXTAP	19	288	4
EXTAP	19	288	6
NMHLD	20	0	3	96
NMHLD	20	96	2	96
NMTAP	20	192	1
NMHLD	20	288	4	96
NMHLD	21	0	5	96
NMTAP	21	96	6
NMHLD	21	192	2	96
NMHLD	21	192	4	96
EXTAP	22	0	0
EXTAP	22	0	3
NMHLD	22	96	3	96
NMHLD	22	96	5	96
EXTAP	22	288	4
EXTAP	22	288	7
NMTAP	23	0	3
NMTAP	23	0	4
NMHLD	23	96	1	96
NMHLD	23	192	2	96
NMHLD	23	288	3	96
NMHLD	24	0	4	96
NMHLD	24	96	5	96
NMSTR	24	192	6
NMSCL	24	192	6	96	48	3
NMTAP	25	0	2
NMSTR	25	96	1
NMSI_	25	96	1	96	48	5
NMTAP	25	288	6
NMSTR	26	0	7
NMSSR	26	0	7	96	144	3
NMHLD	26	288	2	96
NMHLD	27	0	1	96
NMTAP	27	96	0
NMSTR	27	192	6
NMSI_	27	192	6	96	72	3
NMSTR	27	192	7
NMSI_	27	192	7	96	72	2
NMSTR	28	96	0
NMSI_	28	96	0	96	72	5
NMSTR	28	96	1
NMSI_	28	96	1	96	72	4
NMTTP	29	0	0	C	1	M1
NMTTP	29	0	2	B	0	M1
NMTTP	29	0	2	E	0	M1
NMTTP	29	0	6	B	0	M1
NMTTP	29	0	6	E	0	M1
NMHLD	29	288	6	96
NMHLD	29	288	7	96
NMHLD	30	48	0	96
NMHLD	30	48	5	96
NMTAP	30	192	1
NMTAP	30	192	4
NMTAP	30	288	2
NMTAP	31	0	3
NMTAP	31	96	4
NMTAP	31	96	6
NMTAP	31	192	5
NMTAP	31	288	4
NMTAP	32	0	3
NMSTR	32	0	5
NMSCR	32	0	5	96	96	0
NMTAP	32	288	0
NMSTR	32	288	1
NMSUR	32	288	1	96	96	5
EXTAP	33	192	7
EXTAP	33	240	7
EXTAP	33	336	0
EXTAP	33	336	6
EXSTR	34	0	0
NMSV_	34	0	0	96	96	1
EXSTR	34	0	6
NMSV_	34	0	6	96	96	5
CNSI_	34	192	1	0	96	3
CNSI_	34	192	5	0	96	3
EXTAP	35	0	2
EXTAP	35	0	4
NMTAP	35	96	5
NMTAP	35	192	6
EXTAP	35	288	3
EXTAP	35	288	5
NMTAP	36	0	2
NMTAP	36	96	1
NMTAP	36	192	7
NMTAP	36	240	7
BXTAP	36	288	0
BXTAP	36	288	6
NMTAP	37	0	2
NMTAP	37	48	2
EXTAP	37	96	1
EXTAP	37	96	3
NMTAP	37	192	5
NMTAP	37	240	5
EXSTR	37	288	4
NMSI_	37	288	4	96	48	0
EXSTR	37	288	6
NMSCL	37	288	6	96	48	3
EXTAP	38	96	7
NMTAP	38	192	0
NMTAP	38	240	0
EXTAP	38	288	1
EXTAP	38	288	7
NMTAP	39	0	6
NMTAP	39	48	5
NMTAP	39	96	4
NMTAP	39	144	3
NMTAP	39	192	2
NMSTR	39	288	0
NMSCR	39	288	0	96	48	3
NMSTR	39	288	6
NMSCL	39	288	6	96	48	3
EXTAP	40	96	1
EXTAP	40	96	5
NMTAP	40	192	7
NMTAP	40	240	7
EXTAP	40	288	0
EXTAP	40	288	6
NMTAP	41	0	2
NMTAP	41	48	2
EXTAP	41	96	1
EXSTR	41	96	3
NMSI_	41	96	3	96	48	7
NMHLD	41	288	0	96
NMHLD	42	0	2	96
NMHLD	42	96	4	96
NMHLD	42	192	6	96
NMSTR	42	288	0
NMSCR	42	288	0	96	48	3
NMSTR	43	96	7
NMSCL	43	96	7	96	48	4
NMTAP	43	288	0
NMTAP	44	0	2
NMTAP	44	0	3
NMTAP	44	96	4
NMTAP	44	96	5
NMSTR	44	192	6
NMSXR	44	192	6	96	480	3
NMSTR	44	192	7
NMSXL	44	192	7	96	480	2
NMHLD	46	288	2	96
NMHLD	46	288	7	96
NMTAP	47	96	0
NMTAP	47	96	1
NMTAP	47	192	6
NMTAP	47	192	7
NMHLD	47	288	0	96
NMHLD	47	288	5	96
NMTAP	48	96	6
NMTAP	48	144	6
NMTAP	48	192	7
NMHLD	48	288	5	96
NMTAP	49	0	4
NMHLD	49	96	1	96
NMTAP	49	192	3
NMHLD	49	288	7	96
NMTAP	50	0	0
NMTAP	50	96	5
NMTAP	50	144	5
NMTAP	50	192	4
EXTAP	50	288	6
EXTAP	50	288	7
NMTAP	51	0	0
NMTAP	51	0	1
EXTAP	51	48	0
EXTAP	51	48	1
NMTAP	51	144	3
NMTAP	51	144	4
EXTAP	51	192	3
EXTAP	51	192	4
NMSTR	51	288	6
NMSI_	51	288	6	96	48	2
NMSTR	52	0	1
NMSI_	52	0	1	96	48	5
BRTAP	52	192	0
BRTAP	52	192	7
NMHLD	52	288	1	192
NMHLD	53	96	3	192
NMTTP	53	288	5	E	0	M1
NMTTP	54	0	0	C	0	M1
NMTTP	54	96	1	E	0	M1
NMHLD	54	288	6	192
NMHLD	55	96	4	192
NMTTP	55	288	3	E	0	M1
NMTTP	56	0	0	C	0	M1
NMTTP	56	96	7	E	0	M1
NMSTR	56	288	0
NMSXL	56	288	0	96	192	0
NMSTR	57	288	7
NMSXR	57	288	7	96	192	7
NMSTR	58	288	0
NMSSL	58	288	0	96	192	4
NMTTP	59	288	5	E	0	M1
NMTTP	60	0	7	E	0	M1
NMTTP	60	96	1	E	0	M1
NMTTP	60	192	3	E	0	M1
NMHLD	60	288	5	192
NMSTR	61	96	4
NMSCL	61	96	4	96	72	2
NMTTP	61	288	6	E	0	M1
NMTTP	62	0	5	E	0	M1
NMTTP	62	96	4	E	0	M1
NMHLD	62	288	2	192
NMSTR	63	96	3
NMSCR	63	96	3	96	72	5
NMTTP	63	288	2	E	0	M1
NMTTP	64	0	3	E	0	M1
NMTTP	64	96	4	E	0	M1
NMHLD	64	288	6	192
NMHLD	65	96	4	192
NMTTP	65	288	3	E	0	M1
NMTTP	66	0	1	E	0	M1
NMTTP	66	96	7	E	0	M1
NMTTP	66	192	5	E	0	M1
NMHLD	66	288	1	192
NMHLD	67	96	3	192
NMTTP	67	288	5	E	0	M1
NMTTP	68	0	0	C	0	M1
NMTTP	68	96	1	E	0	M1
NMTAP	68	288	6
NMSTR	68	288	7
NMSCR	68	288	7	96	96	2
NMTAP	69	192	4
NMSTR	69	192	5
NMSCR	69	192	5	96	96	0
NMTAP	70	96	1
NMTAP	70	160	3
NMTAP	70	192	2
NMTAP	70	288	3
NMTAP	70	288	4
NMTAP	71	0	5
NMTAP	71	64	3
NMTAP	71	96	4
NMTAP	71	192	2
NMTAP	71	192	3
NMSTR	71	288	0
NMSCL	71	288	0	96	96	5
NMTAP	71	288	1
NMSTR	72	192	2
NMSCL	72	192	2	96	96	7
NMTAP	72	192	3
NMTAP	73	96	6
NMTAP	73	160	4
NMTAP	73	192	5
NMTAP	73	288	3
NMTAP	73	288	4
NMTAP	74	0	2
NMTAP	74	64	4
NMTAP	74	96	3
NMTAP	74	192	4
NMTAP	74	192	5
NMSTR	74	288	7
NMSI_	74	288	7	96	96	2
CNSCL	75	96	2	0	96	1
CNSI_	75	192	1	0	96	5
CNSCR	75	288	5	0	96	6
CNSI_	76	0	6	0	96	3
NMTHO	76	96	0	288	C	1	M1
NMTAP	77	288	7
NMTAP	78	0	6
NMTAP	78	96	5
NMTAP	78	192	0
NMTAP	78	288	1
NMTAP	79	0	2
NMTAP	79	96	4
NMTAP	79	96	6
NMTAP	79	192	5
NMTAP	79	288	4
NMTAP	80	0	1
NMTAP	80	0	3
NMTAP	80	96	2
NMTAP	80	192	3
NMSTR	80	288	4
NMSI_	80	288	4	96	48	0
NMSTR	80	288	5
NMSI_	80	288	5	96	48	7
EXTAP	81	96	1
NMSTR	81	192	2
NMSI_	81	192	2	96	48	0
NMSTR	81	192	3
NMSI_	81	192	3	96	48	7
EXTAP	82	0	6
NMTAP	82	96	4
NMTAP	82	96	5
NMTAP	82	192	3
NMTAP	82	192	4
NMSTR	82	288	2
NMSUR	82	288	2	96	192	4
NMTAP	82	288	3
NMSTR	83	288	5
NMSI_	83	288	5	96	48	0
NMSI_	83	288	5	96	48	2
EXTAP	84	96	1
NMSTR	84	192	2
NMSI_	84	192	2	96	48	5
NMSI_	84	192	2	96	48	7
EXTAP	85	0	6
NMHLD	85	96	0	96
NMHLD	85	192	1	96
NMTAP	85	288	2
NMHLD	86	0	7	96
NMHLD	86	96	6	96
NMTAP	86	192	5
NMSTR	86	288	0
NMSI_	86	288	0	96	48	2
NMSTR	87	0	7
NMSI_	87	0	7	96	48	3
NMSTR	87	192	0
NMSI_	87	192	0	96	48	4
NMSTR	87	288	7
NMSI_	87	288	7	96	48	5
NMTAP	88	96	3
NMTAP	88	192	2
NMTAP	88	192	4
NMTAP	88	288	1
NMTAP	88	288	5
NMHLD	89	0	7	96
NMTAP	89	96	0
NMTAP	89	192	1
NMTAP	89	192	6
NMTAP	89	288	4
NMHLD	89	288	5	96
NMTAP	90	0	7
NMTAP	90	96	0
NMTAP	90	96	6
NMHLD	90	192	2	96
NMTAP	90	192	3
NMTAP	90	288	0
NMTAP	91	0	1
NMTAP	91	0	7
NMTTP	91	96	0	C	1	M1
NMTTP	91	96	2	B	0	M1
NMTTP	91	96	2	E	0	M1
NMTTP	91	96	6	B	0	M1
NMTTP	91	96	6	E	0	M1
NMHLD	92	0	0	96
NMHLD	92	0	1	96
NMHLD	92	144	2	96
NMHLD	92	144	7	96
NMTAP	92	288	3
NMTAP	92	288	6
NMTAP	93	0	5
NMTAP	93	96	4
NMTAP	93	192	1
NMTAP	93	192	3
NMTAP	93	288	2
NMTAP	94	0	3
NMSTR	94	96	2
NMSV_	94	96	2	96	96	5
NMTAP	94	96	4
NMTAP	95	0	0
NMSTR	95	0	6
NMSV_	95	0	6	96	96	1
NMTAP	95	288	2
NMTAP	95	288	3
NMTAP	95	336	2
NMTAP	95	336	3
NMTAP	96	48	4
NMTAP	96	48	5
NMTAP	96	96	4
NMTAP	96	96	5
NMTAP	96	192	0
NMTAP	96	192	7
NMSTR	96	240	0
NMSCR	96	240	0	96	72	3
NMSTR	96	240	7
NMSCL	96	240	7	96	72	4
EXTAP	97	96	1
EXTAP	97	96	6
NMTAP	97	192	2
NMTAP	97	240	2
NMTAP	97	288	3
NMTAP	98	0	4
NMTAP	98	0	6
NMTAP	98	96	5
NMTAP	98	144	5
NMTAP	98	192	4
NMTAP	98	288	6
NMTAP	98	288	7
BXTAP	99	0	0
NMTTP	99	0	5	B	1	M1
NMTTP	99	0	5	E	0	M1
NMTTP	99	0	5	A	0	M1
NMTTP	99	192	2	B	1	M1
NMTTP	99	192	2	A	0	M1
NMTTP	99	192	3	E	0	M1
BXTAP	99	192	7
BRTAP	100	0	4
BRTAP	100	0	6
BRTAP	100	96	1
BRTAP	100	96	3
NMTTP	100	192	0	B	0	M1
NMTTP	100	192	0	E	1	M1
NMTTP	100	192	0	A	0	M1
NMTTP	100	192	7	B	0	M1
NMTTP	100	192	7	A	0	M1
EXTAP	101	0	3
EXTAP	101	0	4
BRTAP	101	96	1
BRTAP	101	96	6
NMTAP	101	192	7
NMTAP	101	240	7
NMTAP	101	288	0
NMTAP	101	336	0
NMSTR	102	0	1
NMSCR	102	0	1	96	48	4
NMSTR	102	0	7
NMSCL	102	0	7	96	48	4
EXTAP	102	192	2
EXTAP	102	192	6
NMTAP	102	288	0
NMTAP	102	336	0
NMTAP	103	0	1
NMTAP	103	0	7
NMTAP	103	96	5
NMTAP	103	144	5
NMSTR	103	192	4
NMSI_	103	192	4	96	48	0
NMTAP	103	192	6
NMHLD	104	0	7	96
NMHLD	104	96	5	96
NMHLD	104	192	3	96
NMHLD	104	288	1	96
NMTAP	105	0	7
NMTAP	105	48	7
NMTAP	105	96	0
NMTAP	105	96	6
EXSTR	105	192	1
NMSI_	105	192	1	96	48	4
EXSTR	105	192	5
NMSI_	105	192	5	96	48	0
EXSTR	106	0	2
NMSI_	106	0	2	96	48	7
EXSTR	106	0	6
NMSI_	106	0	6	96	48	3
EXTAP	106	192	1
EXTAP	106	192	5
BRSTR	106	288	3
NMSXR	106	288	3	96	480	0
BRSTR	106	288	7
NMSXR	106	288	7	96	480	4
NMTAP	109	0	2
NMTAP	109	0	3
NMTAP	109	96	1
NMTAP	109	96	4
NMTAP	109	192	0
NMTAP	109	240	0
NMTAP	109	288	1
NMTAP	109	288	7
NMTAP	110	0	4
NMTAP	110	0	5
NMTAP	110	96	3
NMTAP	110	96	6
NMTAP	110	192	7
NMTAP	110	240	7
NMTAP	110	288	0
NMTAP	110	288	6
NMTAP	111	0	2
NMTAP	111	48	2
NMTAP	111	96	3
NMTAP	111	144	1
NMTAP	111	192	5
NMTAP	111	240	5
NMTAP	111	288	4
NMTAP	111	336	6
NMSTR	112	0	0
NMSCR	112	0	0	96	48	3
NMSTR	112	96	7
NMSCL	112	96	7	96	48	4
EXTAP	112	192	2
BXTAP	112	288	0
EXTAP	113	0	1
EXTAP	113	0	3
NMTAP	113	96	4
NMTAP	113	96	6
EXTAP	113	144	4
EXTAP	113	144	6
NMTAP	113	240	0
NMTAP	113	240	7
EXTAP	113	288	0
EXSTR	113	288	7
NMSI_	113	288	7	96	48	1
CNSI_	114	48	1	0	96	6
CNSI_	114	144	6	0	96	2
CNSI_	114	240	2	0	96	5
CNSI_	114	336	5	0	48	3
NMTAP	115	48	1
NMTAP	115	96	2
NMTAP	115	144	3
NMTAP	115	192	4
NMTAP	115	240	5
BRTAP	115	288	1
BRTAP	115	288	6
NMHLD	116	0	2	96
NMHLD	116	192	2	96
NMHLD	117	0	4	96
NMHLD	117	192	4	96
NMHLD	118	0	3	96
NMHLD	118	192	3	96
NMTTP	119	0	5	D	0	M1
NMTTP	119	96	4	E	0	M1
NMTTP	119	192	3	D	0	M1

T_REC_TAP	249
T_REC_BRK	12
T_REC_XTP	51
T_REC_BXX	5
T_REC_HLD	79
T_REC_XHO	4
T_REC_BHO	2
T_REC_BXH	0
T_REC_STR	55
T_REC_BST	2
T_REC_XST	10
T_REC_XBS	0
T_REC_TTP	47
T_REC_THO	1
T_REC_SLD	68
T_REC_BSL	1
T_REC_ALL	586
T_NUM_TAP	412
T_NUM_BRK	22
T_NUM_HLD	84
T_NUM_SLD	68
T_NUM_ALL	586
T_JUDGE_TAP	431
T_JUDGE_HLD	200
T_JUDGE_SLD	69
T_JUDGE_ALL	700
TTM_EACHPAIRS	127
TTM_SCR_TAP	206000
TTM_SCR_BRK	57200
TTM_SCR_HLD	84000
TTM_SCR_SLD	102000
TTM_SCR_ALL	449200
TTM_SCR_S	433600
TTM_SCR_SS	447000
TTM_RAT_ACV	10049

