VERSION	0.00.00	1.05.00
FES_MODE	0
BPM_DEF	192.000	192.000	192.000	192.000
MET_DEF	4	4
RESOLUTION	384
CLK_DEF	384
COMPATIBLE_CODE	MA2

BPM	0	0	192.000
MET	0	0	4	4
MET	11	0	4	3
MET	14	0	4	2
MET	14	192	4	4
MET	18	192	4	3
MET	35	288	4	2
MET	36	96	4	4
MET	42	96	4	2
MET	42	288	4	4
MET	68	288	4	6
MET	97	96	4	3
MET	98	0	4	4

NMTAP	2	0	2
NMTAP	2	96	2
NMTAP	2	192	2
NMTAP	3	0	1
NMTAP	3	96	1
NMTAP	3	192	1
NMTAP	4	0	0
NMTAP	4	96	0
NMTAP	4	192	0
NMTAP	5	0	6
NMTAP	5	0	7
NMTAP	5	192	6
NMTAP	5	192	7
NMTAP	6	0	5
NMTAP	6	96	5
NMTAP	6	192	5
NMTAP	7	0	6
NMTAP	7	96	6
NMTAP	7	192	6
NMTAP	8	0	7
NMTAP	8	96	7
NMTAP	8	192	7
NMTAP	9	0	0
NMTAP	9	0	1
BXTAP	9	192	0
BXTAP	9	192	1
NMSTR	10	0	1
NMSI_	10	0	1	96	288	5
NMSTR	11	192	6
NMSI_	11	192	6	96	288	2
NMSTR	13	0	1
NMSI_	13	0	1	96	288	4
NMSTR	14	192	6
NMSUL	14	192	6	96	480	3
NMSTR	16	192	1
NMSUR	16	192	1	96	480	4
NMTAP	18	192	5
NMTAP	18	288	5
NMTAP	19	0	5
NMTAP	19	96	4
NMTAP	19	96	5
NMTAP	20	0	6
NMTAP	20	96	6
NMTAP	20	192	6
NMTAP	20	288	6
NMTAP	20	288	7
NMTAP	21	192	0
NMTAP	21	288	0
NMTAP	22	0	0
NMTAP	22	96	0
NMTAP	22	96	1
NMTAP	23	0	2
NMTAP	23	0	3
NMTAP	23	96	2
NMTAP	23	96	3
NMTAP	23	192	2
NMTAP	23	192	3
NMTAP	23	288	2
NMTAP	23	288	3
NMTAP	24	192	2
NMTAP	24	288	2
NMTAP	25	0	2
NMTAP	25	96	2
NMTAP	25	96	3
NMTAP	26	0	1
NMTAP	26	96	1
NMTAP	26	192	1
NMTAP	26	288	0
NMTAP	26	288	1
NMTAP	27	192	7
NMTAP	27	288	7
NMTAP	28	0	7
NMTAP	28	96	6
NMTAP	28	96	7
NMTAP	29	0	4
NMTAP	29	0	5
NMTAP	29	96	4
NMTAP	29	96	5
NMTAP	29	192	4
NMTAP	29	192	5
NMTAP	29	288	4
NMTAP	29	288	5
NMTTP	30	192	6	E	0	L1
NMTTP	30	288	5	B	0	L1
NMTTP	31	0	4	B	0	L1
NMTTP	31	96	4	E	0	L1
NMTTP	32	0	2	E	0	L1
NMTTP	32	96	2	B	0	L1
NMTTP	32	192	3	B	0	L1
NMTTP	32	288	4	E	0	L1
NMTTP	33	192	6	B	0	L1
NMTTP	33	288	5	B	0	L1
NMTTP	34	0	4	B	0	L1
NMTTP	34	96	3	B	0	L1
NMTTP	34	192	2	B	0	L1
NMTTP	34	288	1	B	0	L1
NMTHO	35	0	0	288	C	1	L1
EXTAP	36	288	1
EXTAP	37	0	1
EXTAP	37	96	0
EXTAP	37	192	0
EXTAP	37	288	7
EXTAP	38	0	7
NMTAP	38	96	6
NMTAP	38	96	7
NMTAP	38	288	5
NMTAP	39	0	5
NMTAP	39	96	6
NMTAP	39	192	6
NMTAP	39	288	7
NMTAP	40	0	7
NMTAP	40	96	0
NMTAP	40	96	1
NMTAP	40	288	1
NMTAP	41	0	1
NMTAP	41	96	2
NMTAP	41	192	2
NMTAP	41	288	3
NMTAP	42	0	3
NMTAP	42	96	4
NMTAP	42	96	5
NMTAP	42	288	6
NMTAP	43	0	6
NMTAP	43	96	5
NMTAP	43	192	5
NMTAP	43	288	4
NMTAP	44	0	4
NMTAP	44	96	2
NMTAP	44	96	3
NMTAP	44	288	1
NMTAP	45	0	1
NMTAP	45	96	1
NMTAP	45	192	0
NMTAP	45	192	1
NMTAP	45	288	2
NMTAP	46	0	2
NMTAP	46	96	2
NMTAP	46	192	2
NMTAP	46	192	3
NMTAP	46	288	4
NMTAP	47	0	4
NMTAP	47	96	4
NMTAP	47	192	4
NMTAP	47	192	5
NMTAP	47	288	6
NMTAP	47	288	7
NMTAP	48	0	6
NMTAP	48	0	7
NMTAP	48	96	6
NMTAP	48	96	7
NMTAP	48	288	6
NMTAP	49	0	6
NMTAP	49	96	6
NMTAP	49	192	6
NMTAP	49	192	7
NMTAP	49	288	5
NMTAP	50	0	5
NMTAP	50	96	5
NMTAP	50	192	4
NMTAP	50	192	5
NMTAP	50	288	3
NMTAP	51	0	3
NMTAP	51	96	3
NMTAP	51	192	2
NMTAP	51	192	3
NMTAP	51	288	0
NMTAP	51	288	1
NMTAP	52	0	0
NMTAP	52	0	1
NMTAP	52	96	0
NMTAP	52	96	1
NMHLD	52	288	2	192
NMHLD	53	96	3	192
NMHLD	53	288	4	192
NMTAP	54	96	5
NMHLD	54	288	5	192
NMHLD	55	96	4	192
NMHLD	55	288	3	192
NMTAP	56	96	2
NMHLD	56	288	1	192
NMHLD	57	96	2	192
NMHLD	57	288	3	192
NMTAP	58	96	4
NMHLD	58	288	6	192
NMHLD	59	96	5	192
NMHLD	59	288	4	192
NMTAP	60	96	3
NMSTR	60	288	2
NMSI_	60	288	2	96	192	5
NMSTR	61	288	6
NMSI_	61	288	6	96	192	3
NMSTR	62	288	1
NMSI_	62	288	1	96	192	5
NMTAP	63	288	6
NMTAP	64	96	6
NMTAP	64	96	7
NMSTR	64	288	6
NMSXL	64	288	6	96	480	3
NMSTR	66	288	1
NMSXR	66	288	1	96	480	4
NMTAP	68	288	5
NMTAP	69	0	5
NMTAP	69	96	5
NMTAP	69	192	4
NMTAP	69	192	5
NMTAP	69	288	4
NMTAP	69	288	5
NMTAP	70	96	6
NMTAP	70	192	6
NMTAP	70	288	6
NMTAP	71	0	6
NMTAP	71	0	7
NMTAP	71	96	6
NMTAP	71	96	7
NMTAP	71	288	0
NMTAP	72	0	0
NMTAP	72	96	0
NMTAP	72	192	0
NMTAP	72	192	1
NMTAP	72	288	0
NMTAP	72	288	1
NMTAP	73	96	2
NMTAP	73	96	3
NMTAP	73	192	2
NMTAP	73	192	3
NMTAP	73	288	2
NMTAP	73	288	3
NMTAP	74	0	1
NMTAP	74	0	4
NMTAP	74	288	2
NMTAP	75	0	2
NMTAP	75	96	2
NMTAP	75	192	2
NMTAP	75	192	3
NMTAP	75	288	2
NMTAP	75	288	3
NMTAP	76	96	1
NMTAP	76	192	1
NMTAP	76	288	1
NMTAP	77	0	0
NMTAP	77	0	1
NMTAP	77	96	0
NMTAP	77	96	1
NMTAP	77	288	7
NMTAP	78	0	7
NMTAP	78	96	7
NMTAP	78	192	6
NMTAP	78	192	7
NMTAP	78	288	6
NMTAP	78	288	7
NMTAP	79	96	4
NMTAP	79	96	5
NMTAP	79	192	4
NMTAP	79	192	5
NMTAP	79	288	4
NMTAP	79	288	5
NMTAP	80	0	3
NMTAP	80	0	6
NMTTP	80	288	6	B	0	L1
NMTTP	81	0	5	B	0	L1
NMTTP	81	96	4	B	0	L1
NMTTP	81	192	3	B	0	L1
NMTTP	82	96	1	B	0	L1
NMTTP	82	192	2	B	0	L1
NMTTP	82	288	3	B	0	L1
NMTTP	83	0	4	B	0	L1
NMTTP	83	288	6	B	0	L1
NMTTP	84	0	5	B	0	L1
NMTTP	84	96	4	B	0	L1
NMTTP	84	192	3	B	0	L1
NMTTP	84	288	2	B	0	L1
NMTTP	85	0	1	B	0	L1
NMTTP	85	96	0	C	1	L1
NMTTP	86	288	1	E	0	L1
NMTTP	87	0	2	E	0	L1
NMTTP	87	96	3	E	0	L1
NMTTP	87	192	4	B	0	L1
NMTTP	87	192	4	E	0	L1
NMTTP	88	96	7	E	0	L1
NMTTP	88	192	6	E	0	L1
NMTTP	88	288	5	E	0	L1
NMTTP	89	0	3	B	0	L1
NMTTP	89	0	4	E	0	L1
NMTTP	89	288	1	E	0	L1
NMTTP	90	0	2	E	0	L1
NMTTP	90	96	3	E	0	L1
NMTTP	90	192	4	E	0	L1
NMTTP	90	288	5	E	0	L1
NMTTP	91	0	6	E	0	L1
NMTTP	91	96	0	C	1	L1
NMHLD	92	288	6	192
NMTAP	93	96	7
NMTAP	93	288	6
NMTAP	93	288	7
NMHLD	94	96	5	192
NMTAP	94	288	4
NMTAP	95	96	4
NMTAP	95	96	5
NMHLD	95	288	2	192
NMTAP	96	96	3
NMTAP	96	288	2
NMTAP	96	288	3
NMSTR	97	96	1
NMSUL	97	96	1	96	384	3
EXTAP	99	0	2
NMTAP	99	96	2
EXTAP	99	192	0
EXTAP	99	192	1
NMTAP	99	288	0
NMTAP	99	288	1
EXTAP	100	0	7
EXTAP	100	96	7
BXTAP	100	192	6
BXTAP	100	192	7
NMTAP	101	0	5
NMTAP	101	96	5
NMTAP	101	192	6
NMTAP	101	192	7
NMTAP	101	288	6
NMTAP	101	288	7
NMTAP	102	0	0
NMTAP	102	96	0
NMTAP	102	192	0
NMTAP	102	192	1
NMTAP	103	0	1
NMTAP	103	96	1
NMTAP	103	192	2
NMTAP	103	192	3
NMTAP	103	288	2
NMTAP	103	288	3
NMTAP	104	0	4
NMTAP	104	96	4
NMTAP	104	192	4
NMTAP	104	192	5
NMTAP	105	0	6
NMTAP	105	96	6
NMTAP	105	192	4
NMTAP	105	192	5
NMTAP	105	288	4
NMTAP	105	288	5
NMTAP	106	0	3
NMTAP	106	96	3
NMTAP	106	192	2
NMTAP	106	192	3
NMTAP	107	0	2
NMTAP	107	96	2
NMTAP	107	192	0
NMTAP	107	192	1
NMTAP	107	288	0
NMTAP	107	288	1
NMTAP	108	0	7
NMTAP	108	96	7
NMTAP	108	192	6
NMTAP	108	192	7
NMTAP	108	288	6
NMTAP	108	288	7
NMTAP	109	0	5
NMTAP	109	96	5
NMTAP	109	192	6
NMTAP	109	192	7
NMTAP	109	288	6
NMTAP	109	288	7
NMTAP	110	0	0
NMTAP	110	96	0
NMTAP	110	192	0
NMTAP	110	192	1
NMTAP	111	0	0
NMTAP	111	96	1
NMTAP	111	192	2
NMTAP	111	288	3
NMTAP	112	0	4
NMTAP	112	96	5
NMTAP	112	192	6
NMTAP	112	192	7
NMTAP	113	0	7
NMTAP	113	96	6
NMTAP	113	192	5
NMTAP	113	288	4
NMTAP	114	0	3
NMTAP	114	96	2
NMTAP	114	192	1
NMTAP	114	288	0
NMTAP	115	0	0
NMTAP	115	0	7
NMTAP	115	96	0
NMTAP	115	96	7
NMTAP	115	192	1
NMTAP	115	192	6
BRTAP	115	288	2
BRTAP	115	288	5
NMSTR	116	192	3
NMSXR	116	192	3	96	672	0
NMSTR	116	192	4
NMSXL	116	192	4	96	672	7
NMTAP	119	0	0
NMTAP	119	0	7
NMTAP	119	96	0
NMTAP	119	96	7
NMTAP	119	192	1
NMTAP	119	192	6

T_REC_TAP	295
T_REC_BRK	2
T_REC_XTP	11
T_REC_BXX	4
T_REC_HLD	15
T_REC_XHO	0
T_REC_BHO	0
T_REC_BXH	0
T_REC_STR	13
T_REC_BST	0
T_REC_XST	0
T_REC_XBS	0
T_REC_TTP	46
T_REC_THO	1
T_REC_SLD	13
T_REC_BSL	0
T_REC_ALL	400
T_NUM_TAP	365
T_NUM_BRK	6
T_NUM_HLD	16
T_NUM_SLD	13
T_NUM_ALL	400
T_JUDGE_TAP	371
T_JUDGE_HLD	66
T_JUDGE_SLD	13
T_JUDGE_ALL	450
TTM_EACHPAIRS	86
TTM_SCR_TAP	182500
TTM_SCR_BRK	15600
TTM_SCR_HLD	16000
TTM_SCR_SLD	19500
TTM_SCR_ALL	233600
TTM_SCR_S	226050
TTM_SCR_SS	233000
TTM_RAT_ACV	10025

