VERSION	0.00.00	1.05.00
FES_MODE	0
BPM_DEF	192.000	192.000	192.000	192.000
MET_DEF	4	4
RESOLUTION	384
CLK_DEF	384
COMPATIBLE_CODE	MA2

BPM	0	0	192.000
MET	0	0	4	4
MET	11	0	4	3
MET	14	0	4	2
MET	14	192	4	4
MET	18	192	4	3
MET	35	288	4	2
MET	36	96	4	4
MET	42	96	4	2
MET	42	288	4	4
MET	68	288	4	6
MET	97	96	4	3
MET	98	0	4	4

NMTAP	2	0	0
NMTAP	2	192	0
NMTAP	3	0	1
NMTAP	3	192	1
NMTAP	4	0	2
NMTAP	4	192	2
NMTAP	5	0	3
NMTAP	5	0	4
NMTAP	6	0	4
NMTAP	6	192	4
NMTAP	7	0	5
NMTAP	7	192	5
NMTAP	8	0	6
NMTAP	8	192	6
NMTAP	9	0	0
NMTAP	9	0	7
NMSTR	10	0	7
NMSI_	10	0	7	96	288	3
EXSTR	11	288	0
NMSI_	11	288	0	96	288	4
EXSTR	14	192	6
NMSI_	14	192	6	96	288	2
NMSTR	16	192	1
NMSI_	16	192	1	96	288	5
EXTAP	18	192	7
EXTAP	18	288	7
EXTAP	19	96	6
EXTAP	19	192	6
NMTAP	20	0	5
NMTAP	20	96	5
NMTAP	20	288	3
NMTAP	20	288	4
NMTAP	21	192	3
NMTAP	21	288	3
NMTAP	22	96	2
NMTAP	22	192	2
NMTAP	23	0	1
NMTAP	23	96	1
NMTAP	23	288	0
NMTAP	23	288	7
NMTAP	24	192	0
NMTAP	24	288	0
NMTAP	25	96	1
NMTAP	25	192	1
NMTAP	26	0	2
NMTAP	26	96	2
NMTAP	26	288	3
NMTAP	26	288	4
NMTAP	27	192	4
NMTAP	27	288	4
NMTAP	28	96	5
NMTAP	28	192	5
NMTAP	29	0	6
NMTAP	29	96	6
NMTAP	29	288	0
NMTAP	29	288	7
NMHLD	30	192	0	288
NMHLD	30	192	1	288
NMHLD	32	0	6	288
NMHLD	32	0	7	288
NMTHO	33	192	0	480	C	0	L1
EXTAP	35	288	0
EXTAP	35	288	7
EXTAP	36	192	7
EXTAP	36	288	7
EXTAP	37	0	7
NMTAP	37	192	6
NMTAP	37	288	6
NMTAP	38	0	6
NMTAP	38	192	5
NMTAP	38	288	5
NMTAP	39	0	5
NMTAP	39	192	4
NMTAP	39	288	4
NMTAP	40	0	3
NMTAP	40	0	4
NMTAP	40	192	2
NMTAP	40	288	2
NMTAP	41	0	2
NMTAP	41	192	1
NMTAP	41	288	1
NMTAP	42	0	1
EXTAP	42	192	0
EXTAP	42	192	7
EXHLD	42	288	0	384
EXHLD	42	288	7	384
NMTAP	44	96	0
NMTAP	44	96	7
NMTAP	44	288	0
NMTAP	45	0	0
NMTAP	45	96	0
NMTAP	45	288	1
NMTAP	46	96	0
NMTAP	46	96	1
NMTAP	46	288	2
NMTAP	47	0	2
NMTAP	47	96	2
NMTAP	47	288	3
NMTAP	48	96	3
NMTAP	48	96	4
NMTAP	48	288	4
NMTAP	49	0	4
NMTAP	49	96	4
NMTAP	49	288	5
NMTAP	50	96	4
NMTAP	50	96	5
NMTAP	50	288	6
NMTAP	51	0	6
NMTAP	51	96	6
BRTAP	51	288	0
BRTAP	51	288	7
NMTAP	52	288	7
NMTAP	53	0	7
NMTAP	53	96	7
NMTAP	53	288	6
NMTAP	53	288	7
NMTAP	54	288	5
NMTAP	55	0	5
NMTAP	55	96	5
NMTAP	55	288	4
NMTAP	55	288	5
NMTAP	56	288	3
NMTAP	57	0	3
NMTAP	57	96	3
NMTAP	57	288	2
NMTAP	57	288	3
NMTAP	58	288	1
NMTAP	59	0	1
NMTAP	59	96	1
NMTAP	59	288	0
NMTAP	59	288	1
NMTTP	60	288	0	B	0	L1
NMTTP	61	288	7	B	0	L1
NMTTP	62	288	1	B	0	L1
NMTTP	63	288	6	B	0	L1
NMTTP	64	288	2	B	0	L1
NMTTP	65	288	5	B	0	L1
NMTTP	66	288	3	B	0	L1
NMTTP	67	288	0	C	1	L1
NMHLD	68	288	0	288
NMHLD	68	288	1	288
NMHLD	70	96	2	288
NMHLD	70	96	3	288
NMHLD	71	288	4	288
NMHLD	71	288	5	288
NMHLD	73	96	6	288
NMHLD	73	96	7	288
NMHLD	74	288	4	288
NMHLD	74	288	5	288
NMHLD	76	96	2	288
NMHLD	76	96	3	288
NMHLD	77	288	0	288
NMHLD	77	288	1	288
NMHLD	79	96	0	288
NMHLD	79	96	7	288
BRTAP	80	288	0
NMTAP	81	0	0
NMTAP	81	192	1
NMTAP	81	288	1
NMTAP	82	96	2
NMTAP	82	192	2
NMTAP	83	0	3
NMTAP	83	0	4
NMTAP	83	96	3
NMTAP	83	96	4
NMTAP	83	288	4
NMTAP	84	0	4
NMTAP	84	192	5
NMTAP	84	288	5
NMTAP	85	96	6
NMTAP	85	192	6
NMTAP	86	0	0
NMTAP	86	0	7
NMTAP	86	96	0
NMTAP	86	96	7
NMTAP	86	288	6
NMTAP	87	0	6
NMTAP	87	192	6
NMTAP	87	192	7
NMTAP	87	288	6
NMTAP	87	288	7
NMTAP	88	96	5
NMTAP	88	192	5
NMTAP	89	0	3
NMTAP	89	0	4
NMTAP	89	96	3
NMTAP	89	96	4
NMTAP	89	288	2
NMTAP	90	0	2
NMTAP	90	192	2
NMTAP	90	192	3
NMTAP	90	288	2
NMTAP	90	288	3
NMTAP	91	96	1
NMTAP	91	192	1
NMTAP	92	0	0
NMTAP	92	0	7
NMTAP	92	288	6
NMTAP	93	0	6
NMTAP	93	96	6
NMTAP	93	192	6
NMTAP	93	192	7
NMTAP	94	96	1
NMTAP	94	192	1
NMTAP	94	288	1
NMTAP	95	0	0
NMTAP	95	0	1
NMHLD	95	288	6	288
NMHLD	95	288	7	288
NMHLD	97	96	0	288
NMHLD	97	96	1	288
EXTAP	99	0	0
EXTAP	99	0	7
EXTAP	99	192	0
EXTAP	99	192	7
EXTAP	100	0	0
EXTAP	100	0	7
NMTAP	101	0	0
NMTAP	101	96	0
NMTAP	101	192	0
NMTAP	101	288	0
NMTAP	102	0	1
NMTAP	102	96	1
NMTAP	102	192	0
NMTAP	102	192	1
NMTAP	103	0	2
NMTAP	103	96	2
NMTAP	103	192	2
NMTAP	103	288	2
NMTAP	104	0	3
NMTAP	104	96	3
NMTAP	104	192	3
NMTAP	104	192	4
NMTAP	105	0	5
NMTAP	105	96	5
NMTAP	105	192	5
NMTAP	105	288	5
NMTAP	106	0	6
NMTAP	106	96	6
NMTAP	106	192	6
NMTAP	106	192	7
NMTAP	107	0	7
NMTAP	107	96	7
NMTAP	107	192	7
NMTAP	107	288	7
NMTAP	108	0	6
NMTAP	108	96	6
NMTAP	108	192	6
NMTAP	108	192	7
NMTAP	109	0	5
NMTAP	109	96	5
NMTAP	109	192	5
NMTAP	109	288	5
NMTAP	110	0	4
NMTAP	110	96	4
NMTAP	110	192	3
NMTAP	110	192	4
NMTAP	111	0	3
NMTAP	111	96	3
NMTAP	111	192	3
NMTAP	111	288	3
NMTAP	112	0	2
NMTAP	112	96	2
NMTAP	112	192	2
NMTAP	112	192	3
NMTAP	113	0	1
NMTAP	113	96	1
NMTAP	113	192	1
NMTAP	113	288	1
NMHLD	114	0	0	384
NMHLD	114	0	7	384
NMTTP	116	0	0	E	0	L1
NMTTP	117	0	0	B	0	L1
NMTTP	117	0	7	B	0	L1
NMTTP	118	0	1	B	0	L1
NMTTP	118	0	6	B	0	L1
NMTHO	119	0	0	192	C	0	L1
NMTTP	119	0	2	B	0	L1
NMTTP	119	0	5	B	0	L1

T_REC_TAP	206
T_REC_BRK	3
T_REC_XTP	17
T_REC_BXX	0
T_REC_HLD	26
T_REC_XHO	2
T_REC_BHO	0
T_REC_BXH	0
T_REC_STR	2
T_REC_BST	0
T_REC_XST	2
T_REC_XBS	0
T_REC_TTP	15
T_REC_THO	2
T_REC_SLD	4
T_REC_BSL	0
T_REC_ALL	279
T_NUM_TAP	242
T_NUM_BRK	3
T_NUM_HLD	30
T_NUM_SLD	4
T_NUM_ALL	279
T_JUDGE_TAP	245
T_JUDGE_HLD	190
T_JUDGE_SLD	4
T_JUDGE_ALL	439
TTM_EACHPAIRS	54
TTM_SCR_TAP	121000
TTM_SCR_BRK	7800
TTM_SCR_HLD	30000
TTM_SCR_SLD	6000
TTM_SCR_ALL	164800
TTM_SCR_S	159600
TTM_SCR_SS	164500
TTM_RAT_ACV	10018

