VERSION	0.00.00	1.05.00
FES_MODE	0
BPM_DEF	182.000	182.000	182.000	182.000
MET_DEF	4	4
RESOLUTION	384
CLK_DEF	384
COMPATIBLE_CODE	MA2

BPM	0	0	182.000
MET	0	0	4	4

NMTAP	1	0	1
NMTTP	1	0	5	E	0	M1
NMTTP	1	72	3	E	0	M1
NMTAP	1	72	6
NMTAP	1	144	0
NMTTP	1	144	4	B	0	M1
NMTTP	1	216	3	B	0	M1
NMSTR	1	216	7
NMSLL	1	216	7	96	72	3
BXTAP	2	0	1
NMTAP	2	96	0
NMTAP	2	96	4
NMTAP	2	144	1
NMTAP	2	168	3
NMTAP	2	216	6
NMTAP	2	240	4
NMSTR	2	288	7
NMSI_	2	288	7	96	48	3
NMTAP	2	336	7
NMTAP	3	0	2
NMTAP	3	96	1
NMTAP	3	96	5
NMTAP	3	144	6
NMTAP	3	168	0
NMTAP	3	216	2
NMTAP	3	240	4
NMSTR	3	288	5
BRSCR	3	288	5	96	48	7
NMTAP	3	336	5
NMTAP	4	0	3
NMTAP	4	96	2
NMTAP	4	96	6
NMTAP	4	144	1
NMTAP	4	168	7
NMTAP	4	216	5
NMTAP	4	240	3
NMTAP	4	288	2
NMTAP	4	336	2
NMTAP	5	0	5
NMTAP	5	24	4
NMTAP	5	48	6
NMSTR	5	96	1
NMSI_	5	96	1	96	48	5
NMTAP	5	120	0
NMTAP	5	144	2
BRTAP	5	192	1
NMSTR	5	192	7
NMSI_	5	192	7	96	48	4
NMSTR	5	288	0
NMSI_	5	288	0	96	48	3
BRTAP	5	288	7
BRTAP	6	0	0
NMTAP	6	0	5
NMTAP	6	96	3
NMTAP	6	96	7
NMTAP	6	144	6
NMTAP	6	168	4
NMTAP	6	216	1
NMTAP	6	240	3
NMSTR	6	288	0
NMSI_	6	288	0	96	48	4
NMTAP	6	336	0
NMTAP	7	0	5
NMTAP	7	96	2
NMTAP	7	96	6
NMTAP	7	144	1
NMTAP	7	168	7
NMTAP	7	216	5
NMTAP	7	240	3
NMSTR	7	288	2
BRSCL	7	288	2	96	48	0
NMTAP	7	336	2
NMTAP	8	0	4
NMTAP	8	96	1
NMTAP	8	96	5
NMTAP	8	144	6
NMTAP	8	168	0
NMTAP	8	216	2
NMTAP	8	240	4
NMTAP	8	288	5
NMTAP	8	336	5
NMTAP	9	0	2
NMTAP	9	24	3
NMTAP	9	48	1
NMSTR	9	96	5
NMSCL	9	96	5	96	48	3
NMTAP	9	120	4
NMTAP	9	144	6
NMSTR	9	192	0
NMSF_	9	192	0	96	48	4
BRTAP	9	192	5
BRTAP	9	288	0
BXTAP	10	0	2
BXSTR	10	0	6
NMSI_	10	0	6	96	48	1
CNSLL	10	144	1	0	120	5
NMTAP	10	192	4
NMTAP	10	264	3
NMTAP	10	336	2
NMTAP	10	336	6
NMSTR	11	0	2
NMSI_	11	0	2	96	48	7
NMTAP	11	0	6
NMTAP	11	96	4
CNSLR	11	144	7	0	120	3
NMTAP	11	192	4
NMTAP	11	264	5
NMTAP	11	336	2
NMTAP	11	336	6
NMTAP	12	0	2
NMSTR	12	0	6
NMSI_	12	0	6	96	48	3
NMTAP	12	96	0
CNSLR	12	144	3	0	120	7
NMTAP	12	192	0
NMTAP	12	264	1
NMTAP	12	336	2
NMTAP	12	336	6
NMTAP	13	0	2
NMTAP	13	0	6
NMSTR	13	96	0
NMSCR	13	96	0	96	48	3
NMSTR	13	96	4
NMSCR	13	96	4	96	48	7
NMSTR	14	0	1
NMSI_	14	0	1	96	48	6
NMTAP	14	0	5
CNSLR	14	144	6	0	120	2
NMTAP	14	192	3
NMTAP	14	264	4
NMTAP	14	336	1
NMTAP	14	336	5
NMTAP	15	0	1
NMSTR	15	0	5
NMSI_	15	0	5	96	48	0
NMTAP	15	96	3
CNSLL	15	144	0	0	120	4
NMTAP	15	192	3
NMTAP	15	264	2
NMTAP	15	336	1
NMTAP	15	336	5
NMSTR	16	0	1
NMSI_	16	0	1	96	48	4
NMTAP	16	0	5
NMTAP	16	96	7
CNSLL	16	144	4	0	120	0
NMTAP	16	192	7
NMTAP	16	264	6
NMTAP	16	336	1
NMTAP	16	336	5
NMSTR	17	0	1
NMSCL	17	0	1	96	48	6
NMSTR	17	0	5
NMSCL	17	0	5	96	48	2
NMSTR	17	192	0
NMSI_	17	192	0	96	48	4
NMSTR	17	240	4
NMSI_	17	240	4	96	48	0
NMHLD	18	0	5	96
NMSTR	18	96	7
NMSCR	18	96	7	96	96	3
NMTAP	18	192	5
NMTAP	18	240	6
NMSTR	18	288	7
NMSXR	18	288	7	96	96	0
NMSTR	19	0	3
NMSXR	19	0	3	96	96	4
EXTAP	19	192	7
NMSTR	19	288	6
NMSI_	19	288	6	96	48	3
NMHLD	19	336	6	96
NMSTR	20	96	2
NMSI_	20	96	2	96	48	7
NMHLD	20	144	2	96
NMTAP	20	288	6
NMSTR	20	336	6
NMSCL	20	336	6	96	96	2
NMSTR	21	48	2
NMSLR	21	48	2	96	96	6
NMTAP	21	96	1
NMTAP	21	144	0
NMSTR	21	192	0
NMSI_	21	192	0	96	48	4
NMTAP	21	288	0
NMSTR	22	0	6
NMSI_	22	0	6	96	48	0
NMSTR	22	96	2
NMSI_	22	96	2	96	48	4
NMTAP	22	192	5
NMTAP	22	240	6
NMTAP	22	288	7
NMSTR	22	336	1
NMSI_	22	336	1	96	48	5
NMSTR	23	0	5
NMSI_	23	0	5	96	48	1
NMTAP	23	48	6
NMSTR	23	96	7
NMSCL	23	96	7	96	48	4
NMSTR	23	288	0
NMSI_	23	288	0	96	48	4
NMSTR	23	288	1
NMSI_	23	288	1	96	48	5
NMTAP	24	0	0
NMTAP	24	0	1
NMSTR	24	96	6
NMSI_	24	96	6	96	48	2
NMSTR	24	96	7
NMSI_	24	96	7	96	48	3
NMTAP	24	192	6
NMTAP	24	192	7
BRTAP	24	288	1
BRHLD	24	336	1	96
BRTAP	25	48	0
BRSTR	25	96	0
NMSCL	25	96	0	96	48	5
NMSTR	25	192	0
NMSCR	25	192	0	96	48	3
NMSTR	25	288	0
NMSI_	25	288	0	96	48	4
NMTAP	26	0	0
NMTAP	26	192	3
NMTAP	26	192	5
NMTAP	26	288	3
NMTAP	26	288	5
NMHLD	27	0	6	384
NMTTP	27	192	5	E	0	M1
NMTTP	27	288	6	E	0	M1
NMTTP	28	0	7	E	0	M1
NMSTR	28	192	0
NMSCR	28	192	0	96	96	3
NMSTR	29	0	7
NMSCL	29	0	7	96	96	4
NMTAP	29	96	3
NMTAP	29	192	2
NMTAP	29	288	2
NMTAP	29	336	1
NMTAP	29	336	4
NMTAP	30	0	1
NMTAP	30	0	4
NMTAP	30	72	2
NMTAP	30	72	5
NMTAP	30	144	3
NMTAP	30	144	6
NMSTR	30	192	3
NMSV_	30	192	3	96	48	5
NMSTR	30	192	6
NMSV_	30	192	6	96	48	4
NMTAP	31	0	3
NMTAP	31	0	6
NMTAP	31	72	2
NMTAP	31	72	5
NMTAP	31	144	1
NMTAP	31	144	4
NMSTR	31	192	1
NMSV_	31	192	1	96	48	3
NMSTR	31	192	4
NMSI_	31	192	4	96	48	6
NMTAP	32	0	7
NMTAP	32	48	7
NMTAP	32	96	4
NMTAP	32	144	2
NMTAP	32	192	0
NMTAP	32	240	0
NMSTR	32	288	3
NMSUR	32	288	3	96	48	0
NMSTR	33	0	1
NMSV_	33	0	1	96	48	2
NMTTP	33	192	5	B	0	M1
NMTTP	33	192	6	B	0	M1
NMTTP	33	192	6	E	0	M1
BRTAP	33	288	0
NMSTR	34	0	2
NMSCL	34	0	2	96	48	7
NMSTR	34	0	3
NMSCR	34	0	3	96	48	6
NMTAP	34	96	2
NMTAP	34	96	3
NMSTR	34	192	4
NMSCL	34	192	4	96	48	1
NMSTR	34	192	5
NMSCR	34	192	5	96	48	0
NMTAP	34	288	4
NMTAP	34	288	5
EXSTR	35	0	2
NMSI_	35	0	2	96	48	5
EXSTR	35	48	5
NMSI_	35	48	5	96	48	7
EXSTR	35	96	7
NMSI_	35	96	7	96	48	2
NMTAP	35	288	7
NMTAP	35	336	7
NMSTR	36	0	0
NMSCR	36	0	0	96	48	3
NMSTR	36	96	4
NMSCR	36	96	4	96	48	7
NMTAP	36	192	0
NMTAP	36	240	1
NMSTR	36	288	2
NMSUR	36	288	2	96	96	4
NMTAP	36	336	3
NMSTR	37	0	4
NMSCR	37	0	4	96	96	3
NMTTP	37	192	5	E	1	M1
NMSTR	37	288	6
NMSCL	37	288	6	96	48	3
NMSTR	37	288	7
NMSUL	37	288	7	96	48	3
NMTAP	38	0	6
NMTAP	38	0	7
NMSTR	38	96	0
NMSLR	38	96	0	96	48	4
NMSTR	38	96	1
NMSI_	38	96	1	96	48	4
NMTAP	38	192	0
NMTAP	38	192	1
NMSTR	38	288	7
NMSCR	38	288	7	96	96	3
NMSTR	39	0	3
NMSCR	39	0	3	96	96	7
NMTAP	39	96	7
NMTAP	39	192	3
NMTAP	39	288	2
NMTAP	39	288	4
NMTAP	39	336	1
NMSTR	40	0	0
NMSCR	40	0	0	96	48	3
NMTAP	40	48	7
NMTAP	40	96	6
NMTAP	40	144	5
NMSTR	40	192	4
NMSCR	40	192	4	96	48	7
NMTAP	40	240	3
NMTAP	40	288	2
NMHLD	40	336	1	96
NMSTR	41	48	0
NMSLL	41	48	0	96	48	4
NMSTR	41	144	0
NMSLR	41	144	0	96	48	4
NMTAP	41	240	7
NMSTR	41	288	7
NMSSR	41	288	7	96	96	3
NMSTR	42	0	3
NMSSR	42	0	3	96	96	7
NMTAP	42	96	2
NMTAP	42	192	1
NMTAP	42	240	1
NMTAP	42	288	2
NMTAP	42	288	6
NMTAP	43	0	3
NMTAP	43	0	5
NMTAP	43	48	2
NMTAP	43	48	6
NMSTR	43	96	1
NMSV_	43	96	1	96	48	4
NMSTR	43	96	7
NMSV_	43	96	7	96	48	4
NMTAP	43	192	1
NMTAP	43	192	7
NMSTR	43	288	6
NMSI_	43	288	6	96	48	4
NMTAP	43	336	3
NMSTR	44	0	1
NMSI_	44	0	1	96	48	3
NMTAP	44	0	6
NMTAP	44	96	1
NMSTR	44	96	7
NMSCL	44	96	7	96	48	4
NMSTR	44	192	0
NMSCR	44	192	0	96	48	3
NMTAP	44	192	7
NMTAP	44	288	0
NMSTR	44	288	5
NMSI_	44	288	5	96	48	0
NMTAP	45	0	2
CNSI_	45	48	0	0	48	6
NMSTR	45	96	1
NMSCR	45	96	1	96	96	5
CNSI_	45	96	6	0	48	3
NMTTP	45	192	0	E	1	M1
NMTAP	45	336	7
NMSTR	46	0	7
NMSI_	46	0	7	96	48	3
NMSTR	46	96	0
NMSI_	46	96	0	96	48	4
NMTAP	46	192	7
NMTAP	46	288	2
NMTAP	46	288	6
NMTAP	46	336	1
NMTAP	46	336	5
NMTAP	47	0	2
NMTAP	47	0	6
NMTAP	47	48	1
NMTAP	47	48	5
NMSTR	47	96	2
NMSI_	47	96	2	96	48	7
NMSTR	47	96	6
NMSI_	47	96	6	96	48	3
BRTAP	47	192	2
BRTAP	47	192	6
NMTAP	47	336	0
NMSTR	48	0	0
NMSCR	48	0	0	96	96	4
NMSTR	48	96	4
NMSCR	48	96	4	96	96	0
NMTAP	48	192	0
NMTAP	48	288	4
NMHLD	48	336	4	96
NMTAP	49	48	6
NMTAP	49	96	7
NMTAP	49	144	0
NMTAP	49	192	1
NMTAP	49	192	3
NMSTR	49	288	3
NMSCL	49	288	3	96	48	0
NMSTR	49	288	5
NMSCR	49	288	5	96	48	0
EXTAP	50	0	3
EXTAP	50	0	5
NMTTP	51	0	0	E	0	M1
NMTTP	51	96	7	E	0	M1
NMTTP	51	192	6	E	0	M1
NMTTP	51	288	5	E	0	M1
NMTAP	52	0	3
NMTAP	52	48	2
NMTAP	52	96	4
NMTAP	52	144	5
NMTAP	52	192	1
NMTAP	52	240	1
NMTAP	52	288	3
NMTAP	52	336	2
NMTAP	53	0	4
NMTAP	53	48	5
NMTAP	53	96	2
NMTAP	53	144	1
NMTAP	53	192	6
NMTAP	53	240	7
NMHLD	53	288	0	96
NMTTP	54	0	4	E	0	M1
NMTTP	54	96	5	E	0	M1
NMTTP	54	192	6	E	0	M1
NMTTP	54	288	7	E	0	M1
NMTTP	55	0	0	C	0	M1
NMTTP	55	0	0	E	0	M1
NMTTP	55	96	1	E	0	M1
NMTTP	55	192	2	E	0	M1
NMTTP	55	288	3	E	0	M1
NMTAP	56	0	4
NMTAP	56	48	5
NMTAP	56	96	3
NMTAP	56	144	2
NMTAP	56	192	6
NMTAP	56	240	6
NMTAP	56	288	4
NMTAP	56	336	5
NMTAP	57	0	3
NMTAP	57	48	2
NMTAP	57	96	2
NMTAP	57	144	3
NMTAP	57	192	4
NMTAP	57	240	5
NMTAP	57	288	6
NMHLD	58	0	6	72
NMTAP	58	72	4
NMTAP	58	96	5
NMTAP	58	144	5
NMHLD	58	192	2	72
NMTAP	58	264	4
NMTAP	58	288	3
NMTAP	58	336	3
NMHLD	59	0	6	72
NMTAP	59	72	4
NMTAP	59	96	5
NMTAP	59	144	5
NMHLD	59	192	1	72
NMTAP	59	264	3
NMTAP	59	288	2
NMTAP	59	336	2
NMHLD	60	0	5	72
NMTAP	60	72	3
NMTAP	60	96	4
NMTAP	60	144	4
NMHLD	60	192	1	72
NMTAP	60	264	3
NMTAP	60	288	2
NMTAP	60	336	2
NMHLD	61	0	5	72
NMTAP	61	72	3
NMTAP	61	96	4
NMTAP	61	144	4
NMHLD	61	192	2	72
NMTAP	61	264	4
NMTAP	61	288	3
NMTAP	61	336	3
NMTAP	62	0	5
NMTAP	62	48	5
NMTAP	62	96	3
NMTAP	62	96	5
NMTAP	62	144	3
NMTAP	62	144	5
NMTAP	62	192	2
NMTAP	62	240	2
NMTAP	62	288	2
NMTAP	62	288	4
NMTAP	62	336	2
NMTAP	62	336	4
NMTAP	63	0	5
NMTAP	63	48	5
NMTAP	63	96	4
NMTAP	63	96	6
NMTAP	63	144	4
NMTAP	63	144	6
NMTAP	63	192	2
NMTAP	63	240	2
NMTAP	63	288	1
NMTAP	63	288	3
NMTAP	63	336	1
NMTAP	63	336	3
NMTAP	64	0	2
NMTAP	64	24	4
NMTAP	64	48	2
NMTAP	64	72	4
NMTAP	64	96	2
NMTAP	64	120	4
NMTAP	64	144	2
NMTAP	64	168	4
NMTAP	64	192	1
NMTAP	64	216	5
NMTAP	64	240	1
NMTAP	64	264	5
NMTAP	64	288	1
NMTAP	64	312	5
NMTAP	64	336	1
NMTAP	64	360	5
NMTAP	65	0	0
NMTAP	65	24	6
NMTAP	65	48	0
NMTAP	65	72	6
NMTAP	65	96	0
NMTAP	65	108	1
NMTAP	65	120	2
NMTAP	65	132	3
NMTAP	65	144	7
NMTAP	65	156	6
NMTAP	65	168	5
NMTAP	65	180	4
EXSTR	65	192	0
NMSF_	65	192	0	96	48	4
EXTAP	65	240	0
EXSTR	66	0	2
NMSI_	66	0	2	96	48	5
EXSTR	66	0	6
NMSI_	66	0	6	96	48	1
BRTAP	66	96	2
BRTAP	66	96	6
EXTAP	66	192	3
EXTAP	66	192	7
NMTAP	66	240	2
NMSTR	66	288	1
NMSI_	66	288	1	96	48	5
NMTAP	66	288	5
NMHLD	67	0	6	48
NMHLD	67	96	6	48
NMSTR	67	96	7
NMSI_	67	96	7	96	48	4
NMHLD	67	192	5	48
NMTAP	67	192	7
NMSTR	67	288	3
NMSI_	67	288	3	96	48	7
NMHLD	67	288	5	48
NMTAP	68	0	3
NMHLD	68	0	6	48
NMSTR	68	96	0
NMSI_	68	96	0	96	48	2
NMHLD	68	96	6	48
NMTAP	68	192	0
NMHLD	68	192	5	48
NMSTR	68	288	3
NMSI_	68	288	3	96	72	0
NMHLD	68	288	5	48
NMHLD	69	0	6	48
CNSI_	69	72	0	0	48	4
NMHLD	69	96	6	48
CNSI_	69	120	4	0	72	7
NMTAP	69	192	5
NMSTR	69	240	0
NMSCR	69	240	0	96	48	3
NMSTR	69	288	7
NMSI_	69	288	7	96	48	3
NMTAP	69	336	0
NMTAP	70	0	7
BRTAP	70	96	1
BRTAP	70	96	4
NMTAP	70	192	2
NMTAP	70	192	5
NMTAP	70	240	6
NMTAP	70	288	3
NMSTR	70	288	7
NMSV_	70	288	7	96	48	2
NMHLD	71	0	1	48
NMHLD	71	96	1	48
NMSTR	71	96	3
NMSUR	71	96	3	96	48	7
NMHLD	71	192	2	48
NMSTR	71	288	0
NMSUL	71	288	0	96	48	4
NMHLD	71	288	2	48
NMHLD	72	0	1	48
NMHLD	72	96	1	48
NMSTR	72	96	3
NMSV_	72	96	3	96	48	0
NMHLD	72	192	2	48
NMHLD	72	288	2	48
NMSTR	72	288	7
NMSI_	72	288	7	96	48	4
NMHLD	73	0	1	48
NMHLD	73	96	1	48
NMSTR	73	96	3
NMSI_	73	96	3	96	48	7
NMSTR	73	192	2
NMSI_	73	192	2	96	48	0
NMTAP	73	192	3
NMTAP	73	288	2
NMSTR	73	288	5
NMSI_	73	288	5	96	48	1
NMTAP	74	0	3
NMTAP	74	0	5
NMSTR	74	96	0
NMSI_	74	96	0	96	48	3
NMTAP	74	192	0
NMTAP	74	192	4
NMSTR	74	288	0
NMSI_	74	288	0	96	48	3
NMTAP	74	288	5
NMTAP	75	0	0
NMTAP	75	0	6
NMSTR	75	96	0
NMSI_	75	96	0	96	48	3
NMTAP	75	192	0
NMSTR	75	192	4
NMSI_	75	192	4	96	48	6
NMSTR	75	288	0
NMSI_	75	288	0	96	48	3
NMSTR	75	288	4
NMSI_	75	288	4	96	48	7
NMTAP	76	0	0
NMTAP	76	0	4
NMSTR	76	96	0
NMSI_	76	96	0	96	48	3
NMTAP	76	96	6
NMTAP	76	192	0
NMTAP	76	192	4
NMSTR	76	288	0
NMSI_	76	288	0	96	48	3
NMTAP	76	288	5
NMTAP	77	0	0
NMSTR	77	0	4
NMSXL	77	0	4	96	192	7
NMSTR	77	96	0
NMSI_	77	96	0	96	48	3
NMTAP	77	192	0
NMTAP	77	288	1
NMTAP	77	336	0
BRTAP	78	0	7
NMSTR	78	96	7
NMSI_	78	96	7	96	48	4
NMTAP	78	192	3
NMTAP	78	192	7
NMTAP	78	288	2
NMSTR	78	288	7
NMSI_	78	288	7	96	48	4
NMTAP	79	0	1
NMTAP	79	0	7
NMSTR	79	96	0
NMSI_	79	96	0	96	48	4
NMSTR	79	96	7
NMSI_	79	96	7	96	48	4
NMTAP	79	192	0
NMTAP	79	192	7
NMTAP	79	288	2
NMSTR	79	288	7
NMSI_	79	288	7	96	48	4
NMSTR	80	0	3
NMSI_	80	0	3	96	48	1
NMTAP	80	0	7
NMTAP	80	96	3
NMSTR	80	96	7
NMSI_	80	96	7	96	48	4
NMSTR	80	192	0
NMSI_	80	192	0	96	48	3
NMTAP	80	192	7
NMTAP	80	288	0
NMSTR	80	288	7
NMSI_	80	288	7	96	48	4
NMTAP	81	0	2
NMTAP	81	0	7
NMTAP	81	96	1
EXSTR	81	96	7
NMSI_	81	96	7	96	48	4
EXSTR	81	192	2
NMSI_	81	192	2	96	48	4
BRTAP	81	192	7
BRTAP	81	288	2
BRTAP	81	288	6
NMTAP	82	0	3
NMTAP	82	0	6
NMTAP	82	72	2
NMTAP	82	72	5
NMTAP	82	144	1
NMTAP	82	144	4
NMSTR	82	192	1
NMSV_	82	192	1	96	48	3
NMSTR	82	192	4
NMSV_	82	192	4	96	48	2
NMTAP	83	0	1
NMTAP	83	0	4
NMTAP	83	72	2
NMTAP	83	72	5
NMTAP	83	144	3
NMTAP	83	144	6
NMSTR	83	192	3
NMSI_	83	192	3	96	48	1
NMSTR	83	192	6
NMSV_	83	192	6	96	48	4
NMSTR	84	0	5
NMSCR	84	0	5	96	96	1
NMTAP	84	96	3
NMTAP	84	144	2
NMSTR	84	192	2
NMSLL	84	192	2	96	96	6
NMTAP	84	288	4
NMTAP	84	336	5
NMHLD	85	0	5	96
NMHLD	85	96	7	96
NMHLD	85	192	0	96
NMTAP	85	288	2
NMTAP	86	0	2
NMTAP	86	0	7
NMTAP	86	72	1
NMTAP	86	72	6
NMTAP	86	144	0
NMTAP	86	144	5
NMSTR	86	192	0
NMSV_	86	192	0	96	48	6
NMSTR	86	192	5
NMSV_	86	192	5	96	48	7
NMTAP	87	0	0
NMTAP	87	0	5
NMTAP	87	72	1
NMTAP	87	72	6
NMTAP	87	144	2
NMTAP	87	144	7
NMSTR	87	192	2
NMSI_	87	192	2	96	48	0
NMSTR	87	192	7
NMSV_	87	192	7	96	48	5
NMSTR	88	0	6
NMSCL	88	0	6	96	48	3
NMSTR	88	0	7
NMSUL	88	0	7	96	48	3
NMSTR	88	192	0
NMSI_	88	192	0	96	48	4
NMSTR	88	192	1
NMSI_	88	192	1	96	48	4
NMTTP	89	0	6	B	0	M1
NMTTP	89	0	7	B	0	M1
NMTTP	89	0	7	E	0	M1
NMTTP	89	0	7	A	0	M1
NMTTP	89	96	1	B	0	M1
NMTTP	89	96	1	E	0	M1
NMTTP	89	96	2	B	0	M1
NMTTP	89	96	2	E	0	M1
NMTTP	89	192	4	B	0	M1
NMTTP	89	192	4	A	0	M1
NMTTP	89	192	5	B	0	M1
NMTTP	89	192	5	E	0	M1
NMSTR	89	288	3
NMSCR	89	288	3	96	384	2
NMHLD	90	0	3	960
CNSCL	91	0	2	0	384	2
NMSTR	92	288	1
NMSCR	92	288	1	96	48	4
NMSTR	92	288	5
NMSCR	92	288	5	96	48	0
BRSTR	93	0	1
BRSUL	93	0	1	96	144	7
BRTAP	93	0	5
NMSTR	93	288	4
NMSUR	93	288	4	96	48	0
NMSTR	93	288	5
NMSCR	93	288	5	96	48	0
NMTAP	94	0	4
NMTAP	94	0	5
NMSTR	94	96	2
NMSI_	94	96	2	96	48	7
NMSTR	94	96	3
NMSLL	94	96	3	96	48	7
NMTAP	94	192	2
NMTAP	94	192	3
NMSTR	94	288	4
NMSCL	94	288	4	96	96	0
NMSTR	95	0	0
NMSCL	95	0	0	96	96	4
NMTAP	95	96	4
NMTAP	95	192	0
NMTAP	95	288	1
NMTAP	95	288	7
NMTAP	95	336	2
NMSTR	96	0	3
NMSCL	96	0	3	96	48	0
NMTAP	96	48	4
NMTAP	96	96	5
NMTAP	96	144	6
NMSTR	96	192	7
NMSCL	96	192	7	96	48	4
NMTAP	96	240	0
NMTAP	96	288	1
NMHLD	96	336	2	96
NMSTR	97	48	3
NMSLR	97	48	3	96	48	7
NMSTR	97	144	3
NMSLL	97	144	3	96	48	7
NMTAP	97	240	4
NMSTR	97	288	4
NMSSL	97	288	4	96	96	0
NMSTR	98	0	0
NMSSL	98	0	0	96	96	4
NMTAP	98	96	1
NMTAP	98	192	2
NMTAP	98	240	2
NMTAP	98	288	1
NMTAP	98	288	5
NMSTR	99	0	4
NMSCR	99	0	4	96	48	7
NMSTR	99	96	4
NMSCL	99	96	4	96	48	1
NMSTR	99	192	4
NMSI_	99	192	4	96	48	0
NMTAP	99	288	4
NMSTR	100	0	6
NMSI_	100	0	6	96	48	4
NMSTR	100	0	7
NMSI_	100	0	7	96	48	3
NMSTR	100	96	6
NMSI_	100	96	6	96	48	2
NMSTR	100	96	7
NMSI_	100	96	7	96	48	1
NMSTR	100	192	6
NMSI_	100	192	6	96	48	4
NMSTR	100	192	7
NMSI_	100	192	7	96	48	3
NMTAP	100	288	6
NMSTR	100	288	7
NMSCR	100	288	7	96	192	5
NMTAP	101	0	7
BRTAP	101	144	7
BRTAP	101	192	7
NMTAP	101	288	5
NMTAP	101	336	4
NMSTR	102	0	3
NMSF_	102	0	3	96	48	7
NMSTR	102	192	4
NMSF_	102	192	4	96	48	0
NMTAP	103	0	3
NMSTR	103	0	5
NMSCR	103	0	5	96	96	2
NMSTR	103	96	2
NMSCL	103	96	2	96	96	5
NMTAP	103	192	3
NMTAP	103	288	3
NMTAP	103	336	2
NMSTR	104	0	1
NMSCR	104	0	1	96	48	4
NMTAP	104	96	1
NMSTR	104	96	6
NMSCR	104	96	6	96	48	1
NMSTR	104	192	3
NMSI_	104	192	3	96	48	0
NMTAP	104	192	6
NMTAP	104	288	5
NMSTR	104	336	5
NMSI_	104	336	5	96	48	3
CNSI_	105	96	3	0	72	7
CNSI_	105	168	7	0	72	1
NMSTR	105	192	4
BRSF_	105	192	4	96	48	0
BXTAP	106	0	2
BXTAP	106	0	6
NMTAP	106	96	3
NMTAP	106	96	5
NMTAP	106	144	6
NMTAP	106	168	4
NMTAP	106	216	1
NMTAP	106	240	3
NMSTR	106	288	0
NMSI_	106	288	0	96	48	4
NMSTR	106	336	4
NMSV_	106	336	4	96	48	2
NMTAP	107	0	5
NMTAP	107	48	6
NMTAP	107	96	6
NMTAP	107	144	1
NMTAP	107	168	7
NMTAP	107	216	5
NMTAP	107	240	3
NMSTR	107	288	2
BRSCL	107	288	2	96	48	7
BRSV_	107	288	2	96	48	7
NMTAP	107	336	2
NMTAP	108	96	1
NMTAP	108	96	5
NMTAP	108	144	6
NMTAP	108	168	0
NMTAP	108	216	2
NMTAP	108	240	4
NMTAP	108	288	5
NMTAP	108	336	5
NMTAP	109	0	0
NMTAP	109	24	7
NMTAP	109	48	1
NMSTR	109	96	2
NMSI_	109	96	2	96	24	0
NMSTR	109	96	6
NMSI_	109	96	6	96	24	4
NMTAP	109	144	3
NMSTR	109	192	2
NMSV_	109	192	2	96	48	7
NMSTR	109	192	6
NMSV_	109	192	6	96	48	3
NMSTR	109	288	2
NMSCR	109	288	2	96	48	4
NMSTR	109	288	6
NMSCR	109	288	6	96	48	0
NMTAP	110	0	2
NMTAP	110	0	6
NMTAP	110	96	0
NMTAP	110	96	4
NMTAP	110	144	1
NMTAP	110	168	3
NMTAP	110	216	6
NMTAP	110	240	4
NMSTR	110	288	7
NMSI_	110	288	7	96	48	3
NMSTR	110	336	3
NMSV_	110	336	3	96	48	5
NMTAP	111	0	2
NMTAP	111	48	1
NMTAP	111	96	1
NMTAP	111	144	6
NMTAP	111	168	0
NMTAP	111	216	2
NMTAP	111	240	4
NMSTR	111	288	5
BRSCR	111	288	5	96	48	0
BRSV_	111	288	5	96	48	0
NMTAP	111	336	5
NMTAP	112	96	2
NMTAP	112	96	6
NMTAP	112	144	1
NMTAP	112	168	7
NMTAP	112	216	5
NMTAP	112	240	3
NMTAP	112	288	2
NMTAP	112	336	2
NMTAP	113	0	5
NMTAP	113	24	4
NMTAP	113	48	6
NMSTR	113	96	0
NMSI_	113	96	0	96	48	5
NMSTR	113	96	7
NMSI_	113	96	7	96	48	5
NMSTR	113	192	0
NMSI_	113	192	0	96	48	3
NMSTR	113	192	7
NMSI_	113	192	7	96	48	2
NMSTR	113	288	7
NMSCL	113	288	7	96	144	0
BRTAP	114	0	1
BRTAP	114	0	7

T_REC_TAP	464
T_REC_BRK	23
T_REC_XTP	6
T_REC_BXX	4
T_REC_HLD	40
T_REC_XHO	0
T_REC_BHO	1
T_REC_BXH	0
T_REC_STR	183
T_REC_BST	2
T_REC_XST	8
T_REC_XBS	1
T_REC_TTP	37
T_REC_THO	0
T_REC_SLD	188
T_REC_BSL	8
T_REC_ALL	965
T_NUM_TAP	698
T_NUM_BRK	39
T_NUM_HLD	40
T_NUM_SLD	188
T_NUM_ALL	965
T_JUDGE_TAP	728
T_JUDGE_HLD	86
T_JUDGE_SLD	196
T_JUDGE_ALL	1010
TTM_EACHPAIRS	166
TTM_SCR_TAP	349000
TTM_SCR_BRK	101400
TTM_SCR_HLD	40000
TTM_SCR_SLD	282000
TTM_SCR_ALL	772400
TTM_SCR_S	745450
TTM_SCR_SS	768500
TTM_RAT_ACV	10050

