VERSION	0.00.00	1.05.00
FES_MODE	0
BPM_DEF	182.000	182.000	182.000	182.000
MET_DEF	4	4
RESOLUTION	384
CLK_DEF	384
COMPATIBLE_CODE	MA2

BPM	0	0	182.000
MET	0	0	4	4

EXHLD	1	0	3	288
EXHLD	1	0	4	288
BXTAP	2	0	2
BXTAP	2	0	5
NMTAP	2	96	1
NMTAP	2	144	1
NMTAP	2	192	0
NMTAP	2	288	2
NMTAP	2	288	7
NMTAP	3	0	6
NMTAP	3	48	6
NMTAP	3	96	7
NMTAP	3	192	0
NMTAP	3	192	5
NMTAP	3	288	6
NMTAP	3	288	7
NMTAP	4	0	5
NMTAP	4	48	5
NMTAP	4	96	4
NMTAP	4	192	3
NMTAP	4	192	4
NMTAP	4	288	2
NMTAP	4	288	3
NMHLD	5	0	1	96
NMHLD	5	0	4	96
BRTAP	5	192	3
BRTAP	5	192	5
BRTAP	5	288	1
BRTAP	5	288	7
BRTAP	6	0	2
BRTAP	6	0	6
NMTAP	6	96	2
NMTAP	6	144	2
NMTAP	6	192	3
NMTAP	6	288	1
NMTAP	6	288	4
NMTAP	7	0	0
NMTAP	7	0	5
NMTAP	7	96	6
NMTAP	7	96	7
NMTAP	7	192	4
NMTAP	7	192	5
NMSTR	7	288	3
NMSCL	7	288	3	96	96	0
NMHLD	7	288	6	96
NMTAP	8	192	7
NMTAP	8	240	7
NMHLD	8	288	0	96
NMSTR	8	288	6
NMSCL	8	288	6	96	96	3
BRTAP	9	192	0
BRTAP	9	192	1
BRTAP	9	288	2
BRTAP	9	288	7
NMTAP	10	0	3
NMHLD	10	0	6	1152
NMTAP	10	192	4
NMTAP	10	288	4
NMTAP	11	0	3
NMTAP	11	96	3
NMTAP	11	192	4
NMTAP	11	288	4
NMTAP	12	0	5
NMTAP	12	96	5
NMTAP	12	192	4
NMTAP	12	288	4
NMTTP	13	0	5	E	0	M1
NMTTP	13	96	4	E	0	M1
NMTTP	13	192	3	E	0	M1
NMHLD	14	0	2	1344
NMTAP	14	96	4
NMTAP	14	192	4
NMTAP	14	288	3
NMTAP	15	0	4
NMTAP	15	96	4
NMTAP	15	192	4
NMTAP	15	288	3
NMTAP	16	0	1
NMTAP	16	96	1
NMTAP	16	192	1
NMSTR	16	288	0
NMSCL	16	288	0	96	192	3
EXTAP	18	0	2
EXTAP	18	0	4
NMTAP	18	96	3
NMTAP	18	96	5
NMTAP	18	192	1
NMTAP	18	240	1
NMTAP	18	288	7
NMTAP	19	0	3
NMTAP	19	0	5
NMTAP	19	96	2
NMTAP	19	96	4
NMTAP	19	192	6
NMTAP	19	240	6
NMTAP	19	288	0
NMTAP	20	0	2
NMTAP	20	0	4
NMTAP	20	96	3
NMTAP	20	96	5
NMTAP	20	192	1
NMTAP	20	240	1
NMTAP	20	288	7
NMTAP	21	0	0
NMTAP	21	0	1
NMSTR	21	96	0
NMSCL	21	96	0	96	96	5
NMSCR	21	96	0	96	96	3
NMTAP	21	96	1
NMHLD	22	0	6	96
NMTAP	22	96	7
NMTAP	22	192	5
NMTAP	22	240	5
NMTAP	22	288	4
NMHLD	23	0	2	96
NMTAP	23	96	3
NMTAP	23	192	1
NMTAP	23	240	1
NMTAP	23	288	0
EXTAP	24	0	0
EXTAP	24	0	1
NMTAP	24	96	0
NMTAP	24	96	7
NMHLD	24	192	6	96
NMTAP	24	192	7
NMTAP	24	288	4
NMHLD	24	336	4	96
NMTAP	25	48	5
NMTAP	25	96	5
NMTAP	25	192	1
NMTAP	25	192	3
NMTAP	25	288	0
NMTAP	25	288	7
NMTAP	26	0	4
NMSTR	26	0	6
NMSCR	26	0	6	96	192	1
NMSTR	27	0	2
NMSCR	27	0	2	96	192	5
NMSTR	28	0	7
NMSI_	28	0	7	96	192	3
NMTAP	29	0	2
NMTAP	29	96	3
NMTAP	29	192	4
NMTAP	29	288	4
NMTAP	29	288	5
EXTAP	30	0	3
EXTAP	30	0	6
EXTAP	30	72	3
EXTAP	30	72	6
EXTAP	30	144	4
EXTAP	30	144	5
EXTAP	30	192	4
EXTAP	30	192	5
BXTAP	30	288	0
EXTAP	31	0	1
EXTAP	31	0	4
EXTAP	31	72	1
EXTAP	31	72	4
EXTAP	31	144	2
EXTAP	31	144	3
EXTAP	31	192	2
EXTAP	31	192	3
BXTAP	31	288	7
NMTAP	32	0	6
NMTAP	32	48	6
NMTAP	32	96	0
NMTAP	32	144	0
NMTAP	32	192	5
NMTAP	32	240	5
NMTAP	32	288	1
NMTAP	32	336	1
NMHLD	33	0	4	192
NMHLD	33	96	2	96
NMTAP	33	288	0
NMTAP	33	288	7
BRSTR	34	0	6
NMSI_	34	0	6	96	48	3
BRSTR	34	0	7
NMSI_	34	0	7	96	48	3
NMSTR	34	192	0
NMSI_	34	192	0	96	48	4
NMSTR	34	192	1
NMSI_	34	192	1	96	48	4
NMSTR	35	0	6
NMSI_	35	0	6	96	48	3
NMSTR	35	0	7
NMSI_	35	0	7	96	48	3
NMTAP	35	192	0
NMTAP	35	192	1
NMTAP	35	288	0
NMTAP	35	288	1
NMTAP	36	0	2
NMTAP	36	0	3
NMTAP	36	96	4
NMTAP	36	96	5
NMTAP	36	192	6
NMTAP	36	192	7
NMTAP	36	288	0
NMSTR	36	288	1
NMSCR	36	288	1	96	96	4
EXTAP	37	144	7
BXTAP	37	192	7
NMTAP	38	0	4
NMHLD	38	0	5	192
NMTAP	38	96	7
NMHLD	38	192	3	192
NMTAP	38	288	1
NMTAP	39	0	7
NMSTR	39	96	2
NMSCL	39	96	2	96	96	7
NMSTR	39	96	6
NMSCL	39	96	6	96	96	3
NMTAP	40	0	4
NMTAP	40	0	5
NMTAP	40	96	4
NMTAP	40	96	5
NMTAP	40	192	6
NMTAP	40	192	7
NMTAP	40	288	0
NMTAP	40	336	0
NMTAP	41	48	1
NMTAP	41	48	7
NMTAP	41	144	3
NMTAP	41	144	5
EXTAP	41	240	2
EXTAP	41	240	6
EXTAP	41	288	2
EXTAP	41	288	6
BRSTR	42	0	0
NMSI_	42	0	0	96	48	4
BRSTR	42	0	1
NMSI_	42	0	1	96	48	4
NMSTR	42	192	6
NMSI_	42	192	6	96	48	3
NMSTR	42	192	7
NMSI_	42	192	7	96	48	3
NMSTR	43	0	0
NMSI_	43	0	0	96	48	4
NMSTR	43	0	1
NMSI_	43	0	1	96	48	4
NMTAP	43	192	6
NMTAP	43	192	7
NMTAP	43	288	6
NMTAP	43	288	7
BRTAP	44	0	0
BRTAP	44	0	1
NMTAP	44	96	3
NMTAP	44	96	4
NMTAP	44	192	6
NMTAP	44	192	7
NMSTR	44	288	0
NMSCL	44	288	0	96	96	5
NMSTR	44	288	1
NMSCR	44	288	1	96	96	4
BXTAP	45	192	3
BXTAP	45	192	6
NMSTR	46	0	5
NMSCR	46	0	5	96	96	0
NMSTR	46	192	1
NMSCR	46	192	1	96	96	4
NMSTR	47	0	5
NMSLR	47	0	5	96	144	2
NMSLR	47	0	5	96	144	3
NMTAP	48	0	1
NMTAP	48	0	4
NMTAP	48	96	3
NMTAP	48	96	6
NMTAP	48	192	0
NMTAP	48	192	1
NMTAP	48	240	0
NMTAP	48	240	1
NMTAP	48	336	3
NMTAP	48	336	4
NMTAP	49	48	6
NMTAP	49	48	7
NMSTR	49	96	6
NMSI_	49	96	6	96	48	2
NMTAP	49	96	7
BRHLD	50	0	1	2304
BRTAP	50	0	5
NMHLD	52	0	3	384
NMHLD	54	0	2	384
NMTHO	56	0	0	384	C	0	M1
NMTTP	57	0	1	B	0	M1
NMTTP	57	0	2	B	0	M1
NMTTP	57	0	5	B	0	M1
NMTTP	57	0	6	B	0	M1
NMTAP	57	192	0
NMTAP	57	288	7
NMSTR	58	0	6
NMSCL	58	0	6	96	96	3
NMTTP	58	192	2	E	0	M1
NMTTP	58	288	1	E	0	M1
NMTTP	59	0	0	E	0	M1
NMTTP	59	96	7	E	0	M1
NMTTP	59	192	6	E	0	M1
NMTTP	59	288	5	E	0	M1
NMSTR	60	0	2
NMSCL	60	0	2	96	96	7
NMTTP	60	192	6	E	0	M1
NMTTP	60	288	5	E	0	M1
NMTTP	61	0	4	E	0	M1
NMTTP	61	96	3	E	0	M1
NMTTP	61	192	2	E	0	M1
NMTTP	61	288	1	E	0	M1
NMHLD	62	0	0	96
NMHLD	62	96	1	96
NMHLD	62	192	2	96
NMHLD	62	288	3	96
NMHLD	63	0	4	96
NMHLD	63	96	5	96
NMHLD	63	192	6	96
NMHLD	63	288	7	96
NMTAP	64	0	0
NMTAP	64	48	0
NMTAP	64	96	0
NMTAP	64	144	0
NMTAP	64	192	7
NMTAP	64	240	7
NMTAP	64	288	7
NMSTR	65	0	0
NMSUR	65	0	0	96	192	3
NMSTR	65	0	6
NMSUL	65	0	6	96	192	3
EXTAP	66	0	2
EXTAP	66	0	4
BRTAP	66	96	0
BRTAP	66	96	6
NMTAP	66	192	5
NMTAP	66	240	5
NMTAP	66	288	4
NMTAP	66	336	4
NMTAP	67	0	6
NMTAP	67	48	6
NMTAP	67	96	2
NMTAP	67	144	2
NMTAP	67	192	0
NMTAP	67	240	0
NMTAP	67	288	1
NMTAP	67	336	1
NMSTR	68	0	7
NMSCL	68	0	7	96	96	4
NMSTR	68	192	2
NMSCL	68	192	2	96	96	7
NMTAP	69	0	6
NMTAP	69	48	6
NMTAP	69	96	6
NMTAP	69	96	7
BRTAP	69	192	0
BRTAP	69	192	5
NMTAP	69	288	2
NMTAP	69	288	3
BRTAP	70	0	1
BRTAP	70	0	4
NMTAP	70	96	6
NMTAP	70	144	6
NMTAP	70	192	7
NMTAP	70	240	7
NMTAP	70	288	5
NMTAP	70	336	5
NMTAP	71	0	1
NMTAP	71	48	1
NMTAP	71	96	3
NMTAP	71	144	3
NMTAP	71	192	2
NMTAP	71	240	2
NMSTR	71	288	4
NMSCR	71	288	4	96	96	7
NMSTR	72	96	1
NMSCR	72	96	1	96	96	4
NMTAP	72	288	7
NMTAP	73	0	5
NMTAP	73	0	6
NMTAP	73	48	5
NMTAP	73	48	6
NMTAP	73	96	5
NMTAP	73	96	6
BRTAP	73	192	3
BRTAP	73	192	4
BRTAP	73	288	0
BRTAP	73	288	7
NMTAP	74	0	1
NMHLD	74	0	6	192
NMTAP	74	96	1
NMTAP	74	192	1
NMTAP	74	288	1
NMTAP	75	0	1
NMHLD	75	0	7	192
NMTAP	75	96	1
NMTAP	75	192	1
NMTAP	75	288	1
NMHLD	76	0	0	192
NMTAP	76	0	1
NMTAP	76	96	1
NMTAP	76	192	1
NMTAP	76	288	1
NMTAP	77	0	1
NMHLD	77	0	2	192
NMTAP	77	96	1
NMTAP	77	192	1
NMTAP	77	288	1
NMTAP	78	0	0
NMHLD	78	0	1	96
NMTAP	78	96	0
NMTAP	78	192	1
NMHLD	78	192	2	96
NMTAP	78	288	1
NMTAP	79	0	2
NMHLD	79	0	3	96
NMTAP	79	96	2
NMTAP	79	192	3
NMHLD	79	192	4	96
NMTAP	79	288	3
NMTAP	80	0	4
NMHLD	80	0	5	96
NMTAP	80	96	4
NMTAP	80	192	5
NMHLD	80	192	6	96
NMTAP	80	288	5
NMTAP	81	0	6
NMHLD	81	0	7	96
NMTAP	81	96	6
BRTAP	81	192	0
BRTAP	81	192	5
BRTAP	81	288	0
BRTAP	81	288	5
NMHLD	82	0	1	72
NMHLD	82	72	3	72
NMTAP	82	144	2
NMTAP	82	192	2
NMTAP	82	288	3
NMTAP	82	288	5
NMHLD	83	0	6	72
NMHLD	83	72	4	72
NMTAP	83	144	5
NMTAP	83	192	5
NMTAP	83	288	2
NMTAP	83	288	4
NMHLD	84	0	1	72
NMHLD	84	72	3	72
NMTAP	84	144	2
NMHLD	84	192	6	72
NMHLD	84	264	4	72
NMTAP	84	336	5
NMTHO	85	0	0	192	C	0	M1
EXTAP	86	0	6
EXTAP	86	0	7
EXTAP	86	72	6
EXTAP	86	72	7
EXTAP	86	144	0
EXTAP	86	144	5
EXHLD	86	192	0	96
EXHLD	86	192	5	96
EXTAP	87	0	0
EXTAP	87	0	1
EXTAP	87	72	0
EXTAP	87	72	1
EXTAP	87	144	2
EXTAP	87	144	7
EXHLD	87	192	2	96
EXHLD	87	192	7	96
NMTAP	88	0	3
NMTAP	88	0	6
NMTAP	88	48	3
NMTAP	88	48	6
NMTAP	88	96	3
NMTAP	88	96	6
NMTAP	88	192	1
NMTAP	88	192	4
NMTAP	88	240	1
NMTAP	88	240	4
NMTAP	88	288	1
NMTAP	88	288	4
NMTAP	89	0	2
NMTAP	89	96	2
NMHLD	89	192	2	96
NMSTR	89	288	3
NMSCL	89	288	3	96	768	4
NMHLD	92	0	3	288
NMTAP	92	288	4
BRTAP	93	0	2
BRTAP	93	0	5
NMTAP	93	96	0
NMTAP	93	96	7
NMTAP	93	144	0
NMTAP	93	144	7
BRTAP	93	192	1
BRTAP	93	192	6
NMHLD	94	0	5	96
NMHLD	94	96	7	96
NMHLD	94	192	0	96
NMHLD	94	288	2	96
NMTAP	95	0	3
NMSTR	95	96	1
NMSCR	95	96	1	96	96	4
NMSTR	95	96	4
NMSCR	95	96	4	96	96	7
NMTAP	96	0	6
NMTAP	96	48	6
NMTAP	96	96	3
NMTAP	96	144	3
NMTAP	96	192	4
NMTAP	96	240	4
NMTAP	96	288	1
NMTAP	96	336	1
NMTAP	97	48	2
NMTAP	97	48	7
NMTAP	97	144	3
NMTAP	97	144	4
NMTAP	97	240	0
NMTAP	97	240	5
BXTAP	97	288	0
BXTAP	97	288	5
BRSTR	98	0	6
NMSI_	98	0	6	96	48	3
BRSTR	98	0	7
NMSI_	98	0	7	96	48	2
NMSTR	98	192	0
NMSI_	98	192	0	96	48	5
NMSTR	98	192	1
NMSI_	98	192	1	96	48	4
NMSTR	99	0	6
NMSI_	99	0	6	96	48	3
NMSTR	99	0	7
NMSI_	99	0	7	96	48	2
NMTAP	99	192	0
NMTAP	99	192	1
NMTAP	99	288	0
NMTAP	99	288	1
BRTAP	100	0	2
BRTAP	100	0	3
NMTAP	100	96	4
NMTAP	100	96	5
NMTAP	100	192	6
NMTAP	100	192	7
NMSTR	100	288	0
NMSCL	100	288	0	96	96	5
NMSTR	100	288	1
NMSCR	100	288	1	96	96	4
BXTAP	101	192	3
BXTAP	101	192	6
NMSTR	102	0	2
NMSCL	102	0	2	96	96	7
NMTAP	102	0	5
NMSTR	102	192	6
NMSCL	102	192	6	96	96	3
NMSTR	103	0	2
NMSLL	103	0	2	96	144	4
NMSLL	103	0	2	96	144	5
NMTAP	104	0	3
NMTAP	104	0	6
NMTAP	104	96	1
NMTAP	104	96	4
NMTAP	104	192	6
NMTAP	104	192	7
NMTAP	104	240	6
NMTAP	104	240	7
NMTAP	104	336	3
NMTAP	104	336	4
NMTAP	105	48	0
NMTAP	105	48	1
NMTAP	105	96	0
NMSTR	105	96	1
BRSI_	105	96	1	96	48	5
BRTAP	105	192	7
BRTAP	106	0	2
BRTAP	106	0	4
NMTAP	106	96	1
NMTAP	106	144	1
NMTAP	106	192	0
NMTAP	106	240	0
NMHLD	106	288	2	96
NMHLD	107	0	4	96
NMHLD	107	96	6	96
NMTAP	107	192	7
NMTAP	107	288	0
NMTAP	107	288	1
NMTAP	108	0	3
NMTAP	108	0	5
NMTAP	108	96	6
NMTAP	108	144	6
NMTAP	108	192	7
NMTAP	108	240	7
NMHLD	108	288	5	96
NMHLD	109	0	3	96
NMTAP	109	96	1
NMSTR	109	192	0
BRSI_	109	192	0	96	48	4
NMSTR	109	192	1
BRSI_	109	192	1	96	48	5
BRTAP	110	0	3
BRTAP	110	0	6
NMTAP	110	96	2
NMTAP	110	144	2
NMTAP	110	192	3
NMTAP	110	240	3
NMHLD	110	288	1	96
NMHLD	111	0	7	96
NMTAP	111	96	6
NMHLD	111	192	0	96
NMTAP	111	288	1
EXTAP	112	0	2
EXTAP	112	0	7
NMTAP	112	96	6
NMTAP	112	144	6
NMTAP	112	192	4
NMTAP	112	240	5
NMTAP	112	288	3
NMTAP	112	336	3
NMTAP	113	0	2
NMTAP	113	0	4
NMTAP	113	96	0
NMTAP	113	96	6
BRSTR	113	192	1
NMSI_	113	192	1	96	48	5
NMTAP	113	192	5
BRSTR	113	288	4
BRSI_	113	288	4	96	48	1
BRSI_	113	288	4	96	48	7

T_REC_TAP	330
T_REC_BRK	38
T_REC_XTP	41
T_REC_BXX	11
T_REC_HLD	57
T_REC_XHO	6
T_REC_BHO	1
T_REC_BXH	0
T_REC_STR	47
T_REC_BST	8
T_REC_XST	0
T_REC_XBS	0
T_REC_TTP	19
T_REC_THO	2
T_REC_SLD	54
T_REC_BSL	5
T_REC_ALL	619
T_NUM_TAP	437
T_NUM_BRK	63
T_NUM_HLD	65
T_NUM_SLD	54
T_NUM_ALL	619
T_JUDGE_TAP	494
T_JUDGE_HLD	272
T_JUDGE_SLD	59
T_JUDGE_ALL	825
TTM_EACHPAIRS	157
TTM_SCR_TAP	218500
TTM_SCR_BRK	163800
TTM_SCR_HLD	65000
TTM_SCR_SLD	81000
TTM_SCR_ALL	528300
TTM_SCR_S	506350
TTM_SCR_SS	522000
TTM_RAT_ACV	10120

