VERSION	0.00.00	1.05.00
FES_MODE	0
BPM_DEF	182.000	182.000	182.000	182.000
MET_DEF	4	4
RESOLUTION	384
CLK_DEF	384
COMPATIBLE_CODE	MA2

BPM	0	0	182.000
MET	0	0	4	4

NMTAP	2	0	3
NMTAP	2	96	3
NMTAP	2	192	3
NMTAP	3	0	2
NMTAP	3	96	2
NMTAP	3	192	2
NMTAP	4	0	1
NMTAP	4	96	1
NMTAP	4	192	1
NMTAP	5	0	0
NMTAP	5	0	7
NMTAP	5	192	0
NMTAP	5	192	7
NMTAP	6	0	7
NMTAP	6	96	7
NMTAP	6	192	7
NMTAP	7	0	6
NMTAP	7	96	6
NMTAP	7	192	6
NMTAP	8	0	5
NMTAP	8	96	5
NMTAP	8	192	5
NMTAP	9	0	3
NMTAP	9	0	4
NMTAP	9	192	3
NMTAP	9	192	4
NMHLD	10	0	5	192
NMTAP	10	192	4
NMTAP	11	0	5
NMTAP	11	96	5
NMTAP	11	192	4
NMTAP	11	192	5
NMHLD	12	0	6	192
NMTAP	12	192	7
NMTAP	13	0	6
NMTAP	13	96	6
NMTAP	13	192	6
NMTAP	13	192	7
NMHLD	14	0	1	192
NMTAP	14	192	0
NMTAP	15	0	1
NMTAP	15	96	1
NMTAP	15	192	0
NMTAP	15	192	1
NMHLD	16	0	2	192
NMTAP	16	192	3
NMTAP	17	0	2
NMTAP	17	96	2
NMTAP	17	192	2
NMTAP	17	192	3
NMTAP	18	0	2
NMTAP	18	96	2
NMTAP	18	192	2
NMTAP	18	192	3
NMTAP	19	0	1
NMTAP	19	96	1
NMTAP	19	192	0
NMTAP	19	192	1
NMTAP	20	0	7
NMTAP	20	96	7
NMTAP	20	192	6
NMTAP	20	192	7
NMTAP	21	0	4
NMTAP	21	0	5
NMTAP	21	96	4
NMTAP	21	96	5
NMTAP	21	192	4
NMTAP	21	192	5
NMTAP	22	0	5
NMTAP	22	96	5
NMTAP	22	192	4
NMTAP	22	192	5
NMTAP	23	0	6
NMTAP	23	96	6
NMTAP	23	192	6
NMTAP	23	192	7
NMTAP	24	0	0
NMTAP	24	96	0
NMTAP	24	192	0
NMTAP	24	192	1
NMTAP	25	0	2
NMTAP	25	0	3
NMTAP	25	96	2
NMTAP	25	96	3
NMTAP	25	192	2
NMTAP	25	192	3
NMSTR	26	0	2
NMSI_	26	0	2	96	192	5
NMSTR	27	0	6
NMSI_	27	0	6	96	192	3
NMSTR	28	0	1
NMSI_	28	0	1	96	192	4
NMSTR	29	0	5
NMSI_	29	0	5	96	192	0
NMSTR	30	0	1
NMSI_	30	0	1	96	192	5
NMSTR	31	0	7
NMSI_	31	0	7	96	192	3
NMSTR	32	0	1
NMSI_	32	0	1	96	192	4
NMTAP	33	0	5
NMTAP	33	192	4
NMTAP	33	192	5
NMTAP	34	0	5
NMTAP	34	96	5
NMTAP	34	192	6
NMTAP	34	288	6
NMTAP	35	0	7
NMTAP	35	96	7
NMTAP	35	192	0
NMTAP	35	192	1
NMTAP	36	0	2
NMTAP	36	96	2
NMTAP	36	192	1
NMTAP	36	288	1
NMTAP	37	0	0
NMTAP	37	96	0
NMTAP	37	192	6
NMTAP	37	192	7
NMTAP	38	0	6
NMTAP	38	96	6
NMTAP	38	192	5
NMTAP	38	288	5
NMTAP	39	0	4
NMTAP	39	96	4
NMTAP	39	192	2
NMTAP	39	192	3
NMTAP	40	0	1
NMTAP	40	96	1
NMTAP	40	192	2
NMTAP	40	288	2
NMTAP	41	0	3
NMTAP	41	96	3
NMTAP	41	192	4
NMTAP	41	192	5
NMTAP	42	0	5
NMTAP	42	96	5
NMTAP	42	192	6
NMTAP	42	288	6
NMTAP	43	0	7
NMTAP	43	96	7
NMTAP	43	192	0
NMTAP	43	192	1
NMTAP	44	0	2
NMTAP	44	96	2
NMTAP	44	192	1
NMTAP	44	288	1
NMTAP	45	0	0
NMTAP	45	96	0
BRTAP	45	192	6
BRTAP	45	192	7
NMTAP	46	0	6
NMTAP	46	96	6
NMTAP	46	192	5
NMTAP	46	288	5
NMTAP	47	0	4
NMTAP	47	96	4
NMTAP	47	192	2
NMTAP	47	192	3
NMTAP	48	0	1
NMTAP	48	96	1
NMTAP	48	192	2
NMTAP	48	288	2
NMTAP	49	0	3
NMTAP	49	96	3
NMTAP	49	192	4
NMTAP	49	192	5
NMTTP	50	0	6	B	0	L1
NMTTP	50	96	5	B	0	L1
NMTTP	50	192	4	B	0	L1
NMTTP	51	0	1	B	0	L1
NMTTP	51	96	2	B	0	L1
NMTTP	51	192	3	B	0	L1
NMTTP	52	0	6	B	0	L1
NMTTP	52	96	5	B	0	L1
NMTTP	52	192	4	B	0	L1
NMTTP	52	288	3	B	0	L1
NMTTP	53	0	2	B	0	L1
NMTTP	53	96	1	B	0	L1
NMTTP	53	192	0	C	0	L1
NMTTP	54	0	0	B	0	L1
NMTTP	54	96	1	B	0	L1
NMTTP	54	192	2	B	0	L1
NMTTP	54	192	3	B	0	L1
NMTTP	55	0	7	B	0	L1
NMTTP	55	96	6	B	0	L1
NMTTP	55	192	4	B	0	L1
NMTTP	55	192	5	B	0	L1
NMTTP	56	0	1	B	0	L1
NMTTP	56	96	2	B	0	L1
NMTTP	56	192	3	B	0	L1
NMTTP	56	288	4	B	0	L1
NMTTP	57	0	5	B	0	L1
NMTTP	57	96	6	B	0	L1
NMTTP	57	192	0	C	0	L1
NMHLD	58	0	1	192
NMHLD	58	192	0	192
NMHLD	59	0	7	192
NMTAP	59	192	6
NMHLD	60	0	6	192
NMHLD	60	192	7	192
NMHLD	61	0	0	192
NMTAP	61	192	1
NMHLD	62	0	2	192
NMHLD	62	192	3	192
NMHLD	63	0	4	192
NMTAP	63	192	5
NMHLD	64	0	5	192
NMHLD	64	192	4	192
NMHLD	65	0	3	192
NMTAP	65	192	2
BXTAP	66	0	2
NMTAP	66	96	2
NMTAP	66	192	2
NMTAP	66	288	2
NMTAP	67	0	1
NMTAP	67	96	1
NMTAP	67	192	1
NMTAP	67	288	1
NMTAP	68	0	0
NMTAP	68	96	0
NMTAP	68	192	0
NMTAP	68	288	0
NMTAP	69	0	6
NMTAP	69	0	7
NMTAP	69	192	6
NMTAP	69	192	7
NMTAP	70	0	5
NMTAP	70	96	5
NMTAP	70	192	5
NMTAP	70	288	5
NMTAP	71	0	6
NMTAP	71	96	6
NMTAP	71	192	6
NMTAP	71	288	6
NMTAP	72	0	7
NMTAP	72	96	7
NMTAP	72	192	7
NMTAP	72	288	7
NMTAP	73	0	0
NMTAP	73	0	1
NMTAP	74	0	0
NMTAP	74	96	1
NMTAP	74	192	2
NMTAP	74	288	3
NMTAP	75	0	4
NMTAP	75	96	5
NMTAP	75	192	6
NMTAP	75	192	7
NMTAP	76	0	7
NMTAP	76	96	6
NMTAP	76	192	5
NMTAP	76	288	4
NMTAP	77	0	3
NMTAP	77	96	2
NMTAP	77	192	0
NMTAP	77	192	1
NMTAP	78	0	0
NMTAP	78	96	1
NMTAP	78	192	2
NMTAP	78	288	3
NMTAP	79	0	4
NMTAP	79	96	5
NMTAP	79	192	6
NMTAP	79	288	7
NMTAP	80	0	0
NMTAP	80	96	1
NMTAP	80	192	2
NMTAP	80	288	3
NMTAP	81	0	3
NMTAP	81	0	4
NMTAP	81	96	3
NMTAP	81	96	4
NMTAP	81	192	2
NMTAP	81	192	5
NMSTR	82	0	5
NMSI_	82	0	5	96	192	2
NMSTR	83	0	1
NMSI_	83	0	1	96	192	4
NMSTR	84	0	6
NMSUL	84	0	6	96	480	3
NMSTR	86	0	1
NMSI_	86	0	1	96	192	5
NMSTR	87	0	6
NMSI_	87	0	6	96	192	3
NMSTR	88	0	1
NMSUR	88	0	1	96	480	4
NMHLD	90	0	5	192
NMTAP	90	192	4
NMHLD	91	0	2	192
NMTAP	91	192	3
NMSTR	92	0	3
NMSXR	92	0	3	96	480	0
NMSTR	92	0	4
NMSXL	92	0	4	96	480	7
NMTAP	94	0	6
NMTAP	94	96	6
NMTAP	94	192	4
NMTAP	94	192	5
NMTAP	94	288	4
NMTAP	94	288	5
NMTAP	95	0	3
NMTAP	95	96	3
NMTAP	95	192	2
NMTAP	95	192	3
NMTAP	96	0	1
NMTAP	96	96	1
NMTAP	96	192	2
NMTAP	96	192	3
NMTAP	96	288	2
NMTAP	96	288	3
NMTAP	97	0	4
NMTAP	97	96	4
NMTAP	97	192	4
NMTAP	97	192	5
NMTAP	98	0	5
NMTAP	98	96	5
NMTAP	98	192	6
NMTAP	98	192	7
NMTAP	98	288	6
NMTAP	98	288	7
NMTAP	99	0	0
NMTAP	99	96	0
NMTAP	99	192	0
NMTAP	99	192	1
NMTAP	99	288	0
NMTAP	99	288	1
NMTAP	100	0	2
NMTAP	100	96	2
NMTAP	100	192	0
NMTAP	100	192	1
NMTAP	100	288	0
NMTAP	100	288	1
NMTAP	101	0	7
NMTAP	101	96	7
BRTAP	101	192	6
BRTAP	101	192	7
NMTAP	102	0	6
NMTAP	102	96	6
NMTAP	102	192	4
NMTAP	102	192	5
NMTAP	102	288	4
NMTAP	102	288	5
NMTAP	103	0	3
NMTAP	103	96	3
NMTAP	103	192	2
NMTAP	103	192	3
NMTAP	103	288	2
NMTAP	103	288	3
NMTAP	104	0	1
NMTAP	104	96	1
NMTAP	104	192	2
NMTAP	104	192	3
NMTAP	104	288	2
NMTAP	104	288	3
NMTAP	105	0	4
NMTAP	105	96	4
NMTAP	105	192	4
NMTAP	105	192	5
NMTAP	106	0	6
NMTAP	106	96	6
NMTAP	106	192	6
NMTAP	106	288	6
NMTAP	106	288	7
NMTAP	107	0	5
NMTAP	107	96	5
NMTAP	107	192	5
NMTAP	107	288	4
NMTAP	107	288	5
NMTAP	108	0	3
NMTAP	108	96	3
NMTAP	108	192	3
NMTAP	108	288	2
NMTAP	108	288	3
NMTAP	109	0	0
NMTAP	109	0	1
NMTAP	109	96	0
NMTAP	109	96	1
NMTAP	109	192	2
NMTAP	109	192	7
NMTAP	110	0	1
NMTAP	110	96	1
NMTAP	110	192	1
NMTAP	110	288	0
NMTAP	110	288	1
NMTAP	111	0	2
NMTAP	111	96	2
NMTAP	111	192	2
NMTAP	111	288	2
NMTAP	111	288	3
NMTAP	112	0	4
NMTAP	112	96	4
NMTAP	112	192	4
NMTAP	112	288	4
NMTAP	112	288	5
NMTAP	113	0	6
NMTAP	113	0	7
NMTAP	113	96	6
NMTAP	113	96	7
NMTAP	113	192	0
NMTAP	113	192	5
NMTAP	113	288	1
NMTAP	113	288	4
BXTAP	114	0	2
BXTAP	114	0	3

T_REC_TAP	322
T_REC_BRK	4
T_REC_XTP	0
T_REC_BXX	3
T_REC_HLD	18
T_REC_XHO	0
T_REC_BHO	0
T_REC_BXH	0
T_REC_STR	15
T_REC_BST	0
T_REC_XST	0
T_REC_XBS	0
T_REC_TTP	28
T_REC_THO	0
T_REC_SLD	15
T_REC_BSL	0
T_REC_ALL	405
T_NUM_TAP	365
T_NUM_BRK	7
T_NUM_HLD	18
T_NUM_SLD	15
T_NUM_ALL	405
T_JUDGE_TAP	372
T_JUDGE_HLD	72
T_JUDGE_SLD	15
T_JUDGE_ALL	459
TTM_EACHPAIRS	72
TTM_SCR_TAP	182500
TTM_SCR_BRK	18200
TTM_SCR_HLD	18000
TTM_SCR_SLD	22500
TTM_SCR_ALL	241200
TTM_SCR_S	233300
TTM_SCR_SS	240500
TTM_RAT_ACV	10029

