VERSION	0.00.00	1.05.00
FES_MODE	0
BPM_DEF	182.000	182.000	182.000	182.000
MET_DEF	4	4
RESOLUTION	384
CLK_DEF	384
COMPATIBLE_CODE	MA2

BPM	0	0	182.000
MET	0	0	4	4

EXTAP	2	0	0
NMTAP	2	192	0
NMTAP	3	0	1
NMTAP	4	0	2
NMTAP	4	192	2
NMTAP	5	0	3
NMTAP	6	0	4
NMTAP	6	192	4
NMTAP	7	0	5
NMTAP	8	0	6
NMTAP	8	192	6
NMTAP	9	0	0
NMTAP	9	0	7
NMTAP	10	0	7
NMTAP	10	192	7
NMTAP	11	0	6
NMTAP	11	192	6
NMTAP	12	0	5
NMTAP	12	192	5
NMTAP	13	0	4
NMTAP	13	0	5
NMTAP	14	0	3
NMTAP	14	192	3
NMTAP	15	0	2
NMTAP	15	192	2
NMTAP	16	0	1
NMTAP	16	192	1
EXTAP	17	0	0
EXTAP	17	0	1
NMTAP	18	0	0
NMTAP	18	192	0
NMTAP	19	0	1
NMTAP	19	192	1
NMTAP	20	0	2
NMTAP	20	192	2
NMTAP	21	0	3
NMTAP	21	0	4
NMTAP	22	0	4
NMTAP	22	192	4
NMTAP	23	0	5
NMTAP	23	192	5
NMTAP	24	0	6
NMTAP	24	192	6
EXTAP	25	0	0
EXTAP	25	0	7
NMSTR	26	0	7
NMSI_	26	0	7	96	288	3
NMSTR	28	0	2
NMSI_	28	0	2	96	288	7
NMSTR	30	0	6
NMSI_	30	0	6	96	288	2
NMSTR	32	0	1
NMSI_	32	0	1	96	288	5
BRTAP	34	0	7
NMTAP	34	96	7
NMTAP	34	192	7
NMTAP	35	0	6
NMTAP	35	192	6
NMTAP	36	0	5
NMTAP	36	96	5
NMTAP	36	192	5
NMTAP	37	0	4
NMTAP	37	0	5
NMTAP	38	0	3
NMTAP	38	96	3
NMTAP	38	192	3
NMTAP	39	0	2
NMTAP	39	192	2
NMTAP	40	0	1
NMTAP	40	96	1
NMTAP	40	192	1
EXTAP	41	0	0
EXTAP	41	0	1
NMTAP	42	0	0
NMTAP	42	96	0
NMTAP	42	192	0
NMTAP	43	0	1
NMTAP	43	192	1
NMTAP	44	0	2
NMTAP	44	96	2
NMTAP	44	192	2
NMTAP	45	0	3
NMTAP	45	0	4
NMTAP	46	0	4
NMTAP	46	96	4
NMTAP	46	192	4
NMTAP	47	0	5
NMTAP	47	192	5
NMTAP	48	0	6
NMTAP	48	96	6
NMTAP	48	192	6
EXTAP	49	0	0
EXTAP	49	0	7
NMHLD	50	0	6	384
NMHLD	50	0	7	384
NMHLD	52	0	4	384
NMHLD	52	0	5	384
NMHLD	54	0	2	384
NMHLD	54	0	3	384
NMHLD	56	0	0	384
NMHLD	56	0	1	384
NMTTP	58	0	0	B	0	L1
NMTTP	59	0	7	B	0	L1
NMTTP	60	0	1	B	0	L1
NMTTP	61	0	6	B	0	L1
NMTTP	62	0	2	B	0	L1
NMTTP	63	0	5	B	0	L1
NMTHO	64	0	0	384	C	1	L1
BRTAP	66	0	0
NMTAP	66	96	0
NMTAP	66	192	0
NMTAP	67	0	0
NMTAP	67	0	1
NMTAP	67	192	0
NMTAP	67	192	1
NMTAP	68	0	2
NMTAP	68	96	2
NMTAP	68	192	2
NMTAP	69	0	2
NMTAP	69	0	3
NMTAP	69	192	2
NMTAP	69	192	3
NMTAP	70	0	4
NMTAP	70	96	4
NMTAP	70	192	4
NMTAP	71	0	4
NMTAP	71	0	5
NMTAP	71	192	4
NMTAP	71	192	5
NMTAP	72	0	6
NMTAP	72	96	6
NMTAP	72	192	6
NMTAP	73	0	6
NMTAP	73	0	7
NMTAP	73	192	6
NMTAP	73	192	7
NMTAP	74	0	7
NMTAP	74	96	7
NMTAP	74	192	7
NMTAP	75	0	6
NMTAP	75	96	6
NMTAP	75	192	6
NMTAP	76	0	5
NMTAP	76	96	5
NMTAP	76	192	5
NMTAP	77	0	3
NMTAP	77	0	4
NMTAP	77	192	3
NMTAP	77	192	4
NMTAP	78	0	3
NMTAP	78	96	3
NMTAP	78	192	3
NMTAP	79	0	2
NMTAP	79	96	2
NMTAP	79	192	2
NMTAP	80	0	1
NMTAP	80	96	1
NMTAP	80	192	1
NMTAP	81	0	0
NMTAP	81	0	7
NMSTR	82	0	1
NMSI_	82	0	1	96	288	4
NMSTR	84	0	5
NMSI_	84	0	5	96	288	0
NMSTR	86	0	1
NMSI_	86	0	1	96	288	5
NMSTR	88	0	6
NMSI_	88	0	6	96	288	2
NMTAP	90	0	1
NMTAP	90	192	1
NMTAP	91	0	0
NMTAP	91	0	7
NMTAP	92	0	6
NMTAP	92	192	6
BRTAP	93	0	0
BRTAP	93	0	7
NMTAP	94	0	0
NMTAP	94	96	0
NMTAP	94	192	0
NMTAP	95	0	1
NMTAP	95	96	1
NMTAP	95	192	0
NMTAP	95	192	1
NMTAP	96	0	7
NMTAP	96	96	7
NMTAP	96	192	7
NMTAP	97	0	6
NMTAP	97	96	6
NMTAP	97	192	6
NMTAP	97	192	7
BXTAP	98	0	0
NMTAP	98	96	0
NMTAP	98	192	0
NMTAP	98	288	0
NMTAP	99	0	1
NMTAP	99	96	1
NMTAP	99	192	0
NMTAP	99	192	1
NMTAP	100	0	2
NMTAP	100	96	2
NMTAP	100	192	2
NMTAP	100	288	2
NMTAP	101	0	3
NMTAP	101	96	3
NMTAP	101	192	3
NMTAP	101	192	4
NMTAP	102	0	4
NMTAP	102	96	4
NMTAP	102	192	4
NMTAP	102	288	4
NMTAP	103	0	5
NMTAP	103	96	5
NMTAP	103	192	4
NMTAP	103	192	5
NMTAP	104	0	6
NMTAP	104	96	6
NMTAP	104	192	6
NMTAP	104	288	6
EXTAP	105	0	0
EXTAP	105	0	7
BRTAP	106	0	7
NMTAP	106	96	7
NMTAP	106	192	6
NMTAP	106	288	6
NMTAP	107	0	5
NMTAP	107	96	5
NMTAP	107	192	4
NMTAP	107	192	5
NMTAP	108	0	3
NMTAP	108	96	3
NMTAP	108	192	2
NMTAP	108	288	2
NMTAP	109	0	1
NMTAP	109	96	1
NMTAP	109	192	0
NMTAP	109	192	1
NMTAP	110	0	1
NMTAP	110	96	1
NMTAP	110	192	2
NMTAP	110	288	2
NMTAP	111	0	3
NMTAP	111	96	3
NMTAP	111	192	3
NMTAP	111	192	4
NMTAP	112	0	5
NMTAP	112	96	5
NMTAP	112	192	6
NMTAP	112	288	6
NMTAP	113	0	7
NMTAP	113	96	7
NMTAP	113	192	0
NMTAP	113	192	7
BXTAP	114	0	1
BXTAP	114	0	6

T_REC_TAP	204
T_REC_BRK	5
T_REC_XTP	11
T_REC_BXX	3
T_REC_HLD	8
T_REC_XHO	0
T_REC_BHO	0
T_REC_BXH	0
T_REC_STR	8
T_REC_BST	0
T_REC_XST	0
T_REC_XBS	0
T_REC_TTP	6
T_REC_THO	1
T_REC_SLD	8
T_REC_BSL	0
T_REC_ALL	254
T_NUM_TAP	229
T_NUM_BRK	8
T_NUM_HLD	9
T_NUM_SLD	8
T_NUM_ALL	254
T_JUDGE_TAP	237
T_JUDGE_HLD	72
T_JUDGE_SLD	8
T_JUDGE_ALL	317
TTM_EACHPAIRS	37
TTM_SCR_TAP	114500
TTM_SCR_BRK	20800
TTM_SCR_HLD	9000
TTM_SCR_SLD	12000
TTM_SCR_ALL	156300
TTM_SCR_S	150850
TTM_SCR_SS	155500
TTM_RAT_ACV	10051

