VERSION	0.00.00	1.05.00
FES_MODE	0
BPM_DEF	150.000	150.000	150.000	150.000
MET_DEF	4	4
RESOLUTION	384
CLK_DEF	384
COMPATIBLE_CODE	MA2

BPM	0	0	150.000
MET	0	0	4	4

EXSTR	1	0	7
NMSLL	1	0	7	96	432	3
EXSTR	2	48	1
NMSUR	2	48	1	96	336	5
EXSTR	3	0	6
NMSLR	3	0	6	96	432	2
EXSTR	4	48	3
NMSUR	4	48	3	96	336	1
EXSTR	5	0	6
NMSLL	5	0	6	96	432	2
EXSTR	6	48	0
NMSSL	6	48	0	96	336	4
EXSTR	7	0	5
NMSXL	7	0	5	96	432	1
EXSTR	8	48	3
NMSF_	8	48	3	96	144	7
EXHLD	9	0	6	144
NMTAP	9	48	5
NMTAP	9	96	4
NMTAP	9	144	3
NMHLD	9	192	5	144
NMTAP	9	240	4
NMTAP	9	288	3
NMTAP	9	336	2
NMHLD	10	0	4	144
NMTAP	10	48	3
NMTAP	10	96	2
NMTAP	10	144	1
NMHLD	10	192	3	144
NMTAP	10	240	2
NMTAP	10	288	1
NMTAP	10	336	0
NMSTR	11	0	1
NMSSR	11	0	1	96	192	5
NMTAP	12	48	6
NMTAP	12	96	5
NMTAP	12	144	4
NMTAP	12	192	3
NMTAP	12	240	2
NMTAP	12	288	1
NMTAP	12	336	0
EXHLD	13	0	1	144
NMTAP	13	48	2
NMTAP	13	96	3
NMTAP	13	144	4
NMHLD	13	192	2	144
NMTAP	13	240	3
NMTAP	13	288	4
NMTAP	13	336	5
NMHLD	14	0	3	144
NMTAP	14	48	4
NMTAP	14	96	5
NMTAP	14	144	6
NMHLD	14	192	4	144
NMTAP	14	240	5
NMTAP	14	288	6
NMTAP	14	336	7
EXHLD	15	0	6	144
NMTAP	15	48	5
NMTAP	15	96	4
NMTAP	15	144	3
NMHLD	15	192	5	144
NMTAP	15	240	4
NMTAP	15	288	3
NMTAP	15	336	2
NMHLD	16	0	4	144
NMTAP	16	48	3
NMTAP	16	96	2
NMTAP	16	144	1
NMTAP	16	192	0
NMTAP	16	192	7
NMTAP	16	240	6
NMTAP	16	264	7
NMTAP	16	312	7
NMTAP	16	336	6
EXSTR	17	0	6
NMSUR	17	0	6	96	192	1
NMTTP	17	192	0	C	0	M1
NMSTR	18	0	0
NMSUR	18	0	0	96	192	3
NMTTP	18	192	0	C	0	M1
NMSTR	19	0	6
NMSUL	19	0	6	96	192	3
NMTTP	19	192	0	C	0	M1
NMTTP	20	0	7	E	0	M1
NMTTP	20	48	0	E	0	M1
NMTTP	20	96	1	E	0	M1
NMTTP	20	144	2	E	0	M1
NMTTP	20	192	3	E	0	M1
NMTTP	20	240	4	E	0	M1
NMTTP	20	288	5	E	0	M1
NMSTR	21	0	1
NMSUL	21	0	1	96	192	6
NMTTP	21	192	0	C	0	M1
NMSTR	22	0	7
NMSUL	22	0	7	96	192	4
NMTTP	22	192	0	C	0	M1
NMSTR	23	0	1
NMSUR	23	0	1	96	192	4
NMTTP	23	192	0	C	0	M1
NMSTR	24	0	2
NMSCL	24	0	2	96	192	6
NMSTR	24	0	3
NMSXL	24	0	3	96	192	5
EXHLD	25	0	1	672
EXTAP	25	0	5
NMTAP	25	96	4
NMTAP	25	192	3
NMTAP	25	288	2
NMTAP	25	336	2
NMTAP	26	0	2
NMTAP	26	96	0
NMTAP	26	192	7
NMTAP	26	240	7
NMTAP	26	288	7
NMTAP	27	0	2
NMHLD	27	0	6	672
NMTAP	27	96	3
NMTAP	27	192	4
NMTAP	27	240	4
NMTAP	27	288	4
NMTAP	28	0	5
NMTAP	28	96	7
NMTAP	28	192	0
NMTAP	28	240	0
NMTAP	28	288	0
EXTAP	29	0	6
EXTAP	29	0	7
NMTAP	29	48	6
NMTAP	29	96	5
NMTAP	29	96	6
NMTAP	29	144	5
NMTAP	29	192	4
NMTAP	29	192	5
NMTAP	29	240	4
NMTAP	29	288	3
NMTAP	29	288	4
NMTAP	29	336	3
NMTAP	30	0	2
NMTAP	30	0	3
NMTAP	30	48	2
NMTAP	30	96	1
NMTAP	30	96	2
NMTAP	30	144	1
NMTAP	30	192	0
NMTAP	30	192	1
NMTAP	30	240	0
NMTAP	30	288	0
NMTAP	30	288	7
NMTAP	31	0	6
NMTAP	31	24	7
NMTAP	31	48	6
NMTAP	31	72	7
NMTAP	31	96	6
NMTAP	31	120	7
NMTAP	31	144	6
NMTAP	31	192	5
NMTAP	31	216	4
NMTAP	31	240	5
NMTAP	31	264	4
NMTAP	31	288	5
NMTAP	31	312	4
NMTAP	31	336	5
EXTAP	32	0	3
EXTAP	32	0	4
NMTAP	32	48	2
NMTAP	32	72	3
NMTAP	32	120	3
NMTAP	32	144	2
NMTAP	32	192	0
NMTAP	32	192	7
BRSTR	32	288	1
NMSUL	32	288	1	96	192	2
BRTAP	32	288	6
EXHLD	33	0	4	96
CNSCR	33	192	2	0	144	5
NMTAP	33	192	6
NMTAP	33	240	7
NMTAP	33	288	0
NMSTR	33	336	1
NMSUR	33	336	1	96	144	0
EXHLD	34	48	4	96
CNSCL	34	192	0	0	144	5
NMTAP	34	192	3
NMTAP	34	240	2
NMSTR	34	288	1
NMSXL	34	288	1	96	192	2
EXHLD	35	0	5	96
CNSCR	35	192	2	0	144	5
NMTAP	35	192	6
NMTAP	35	240	7
NMTAP	35	288	0
NMSTR	35	336	1
NMSLL	35	336	1	96	144	4
EXHLD	36	48	3	96
NMTAP	36	192	2
BRSTR	36	288	6
NMSUR	36	288	6	96	192	5
BRTAP	36	288	7
EXHLD	37	0	3	96
NMTAP	37	192	1
CNSCL	37	192	5	0	144	2
NMTAP	37	240	0
NMTAP	37	288	7
NMSTR	37	336	6
NMSUL	37	336	6	96	144	7
EXHLD	38	48	3	96
NMTAP	38	192	4
CNSCR	38	192	7	0	144	2
NMTAP	38	240	5
NMSTR	38	288	6
BRSI_	38	288	6	96	48	2
NMTAP	38	336	1
NMTAP	39	0	0
NMSTR	39	48	7
BRSI_	39	48	7	96	48	3
NMTAP	39	96	4
NMTAP	39	144	5
NMSTR	39	192	6
BRSI_	39	192	6	96	48	2
NMTAP	39	240	1
NMTAP	39	288	0
NMSTR	39	336	7
BRSI_	39	336	7	96	48	3
NMTAP	40	0	4
NMTAP	40	48	5
NMTAP	40	96	6
NMSTR	40	144	1
BRSI_	40	144	1	96	48	4
BRTAP	40	240	1
BRSTR	40	240	6
NMSUR	40	240	6	96	240	5
EXHLD	41	0	2	96
NMTAP	41	192	1
CNSCL	41	192	5	0	144	2
NMTAP	41	240	0
NMTAP	41	288	7
NMSTR	41	336	6
NMSUL	41	336	6	96	144	7
EXHLD	42	48	3	96
NMTAP	42	192	4
CNSCR	42	192	7	0	144	2
NMTAP	42	240	5
NMSTR	42	288	6
NMSXR	42	288	6	96	192	5
EXHLD	43	0	2	96
NMTAP	43	192	1
CNSCL	43	192	5	0	144	2
NMTAP	43	240	0
NMTAP	43	288	7
NMSTR	43	336	6
NMSUR	43	336	6	96	96	2
EXHLD	44	48	3	96
NMTAP	44	192	3
NMTAP	44	240	4
NMSTR	44	288	1
BRSI_	44	288	1	96	48	5
NMTAP	44	288	5
NMTAP	45	0	7
NMSTR	45	48	0
BRSI_	45	48	0	96	48	4
NMTAP	45	96	3
NMTAP	45	144	2
NMSTR	45	192	1
BRSI_	45	192	1	96	48	5
NMTAP	45	240	6
NMTAP	45	288	7
NMSTR	45	336	0
BRSI_	45	336	0	96	48	4
NMTAP	46	0	3
NMTAP	46	48	2
NMTAP	46	96	1
NMTAP	46	144	2
NMTAP	46	192	3
NMTAP	46	192	5
NMTAP	46	288	2
NMSTR	46	288	6
BRSI_	46	288	6	96	48	2
NMTAP	47	0	0
NMSTR	47	48	7
BRSI_	47	48	7	96	48	3
NMTAP	47	96	4
NMTAP	47	144	5
NMSTR	47	192	6
BRSI_	47	192	6	96	48	2
NMTAP	47	240	1
NMTAP	47	288	0
NMSTR	47	336	7
BRSI_	47	336	7	96	48	3
NMTAP	48	0	4
NMTAP	48	48	5
NMTAP	48	96	6
NMTAP	48	144	1
NMTAP	48	192	0
NMTAP	48	192	4
BRTAP	48	288	1
BRTAP	48	288	6
EXHLD	49	0	2	96
EXHLD	49	0	5	96
NMSTR	49	192	6
NMSI_	49	192	6	96	48	3
NMSTR	49	240	7
NMSI_	49	240	7	96	48	2
NMTAP	49	288	6
NMTAP	49	336	7
EXHLD	50	48	4	96
EXHLD	50	48	5	96
NMSTR	50	192	6
NMSI_	50	192	6	96	48	3
NMSTR	50	240	7
NMSI_	50	240	7	96	48	2
NMTAP	50	288	6
NMTAP	50	336	7
EXSTR	51	0	5
NMSI_	51	0	5	96	48	0
NMSTR	51	48	4
NMSI_	51	48	4	96	48	1
NMTAP	51	96	5
NMTAP	51	144	4
NMTAP	51	288	2
NMTAP	51	288	3
NMSTR	51	336	0
NMSI_	51	336	0	96	48	4
NMSTR	51	336	1
NMSI_	51	336	1	96	48	5
EXTAP	52	48	0
EXTAP	52	48	1
NMSTR	52	192	6
NMSI_	52	192	6	96	48	2
NMSTR	52	240	2
NMSI_	52	240	2	96	48	6
BRTAP	52	288	6
NMSTR	53	0	1
NMSCR	53	0	1	96	48	4
NMTAP	53	48	0
NMTAP	53	96	1
NMTAP	53	192	7
NMSTR	53	240	7
NMSCR	53	240	7	96	48	2
NMTAP	53	336	6
NMTAP	53	336	7
EXSTR	54	48	0
NMSCL	54	48	0	96	48	5
NMTAP	54	144	0
NMTAP	54	144	1
NMTAP	54	192	2
NMTAP	54	240	3
NMSTR	54	288	4
BRSUL	54	288	4	96	48	0
NMTAP	54	336	7
NMTAP	55	0	6
NMSTR	55	48	5
BRSUR	55	48	5	96	48	1
NMTAP	55	96	2
NMTAP	55	144	3
NMSTR	55	192	4
BRSUL	55	192	4	96	48	0
NMTAP	55	240	7
NMTAP	55	288	6
NMSTR	55	336	5
BRSUR	55	336	5	96	48	1
NMTAP	56	0	2
NMTAP	56	48	3
NMTAP	56	96	4
NMSTR	56	144	7
NMSF_	56	144	7	96	96	3
BRTAP	56	240	7
EXHLD	57	0	2	96
EXHLD	57	0	4	96
NMSTR	57	192	1
NMSI_	57	192	1	96	48	4
NMSTR	57	240	0
NMSI_	57	240	0	96	48	5
NMTAP	57	288	1
NMTAP	57	336	0
EXHLD	58	48	2	96
EXHLD	58	48	3	96
NMSTR	58	192	1
NMSI_	58	192	1	96	48	4
NMSTR	58	240	0
NMSI_	58	240	0	96	48	5
NMTAP	58	288	1
NMTAP	58	336	0
EXSTR	59	0	2
NMSI_	59	0	2	96	48	7
NMSTR	59	48	3
NMSI_	59	48	3	96	48	6
NMTAP	59	96	2
NMTAP	59	144	3
NMTAP	59	288	4
NMTAP	59	288	5
NMSTR	59	336	6
NMSI_	59	336	6	96	48	2
NMSTR	59	336	7
NMSI_	59	336	7	96	48	3
EXTAP	60	48	6
EXTAP	60	48	7
NMTAP	60	192	4
NMTAP	60	240	3
NMTAP	60	240	5
NMTAP	60	288	2
NMSTR	60	288	6
BRSUL	60	288	6	96	48	2
NMTAP	61	0	0
NMSTR	61	48	7
BRSUR	61	48	7	96	48	3
NMTAP	61	96	4
NMTAP	61	144	5
NMSTR	61	192	6
BRSUL	61	192	6	96	48	2
NMTAP	61	240	1
NMTAP	61	288	0
NMSTR	61	336	7
BRSUR	61	336	7	96	48	3
NMTAP	62	0	4
NMTAP	62	48	5
NMTAP	62	96	6
NMTAP	62	144	5
NMTAP	62	192	2
NMTAP	62	192	4
NMSTR	62	288	1
BRSUR	62	288	1	96	48	5
NMTAP	62	288	5
NMTAP	63	0	7
NMSTR	63	48	0
BRSUL	63	48	0	96	48	4
NMTAP	63	96	3
NMTAP	63	144	2
NMSTR	63	192	1
BRSUR	63	192	1	96	48	5
NMTAP	63	240	6
NMTAP	63	288	7
NMSTR	63	336	0
BRSUL	63	336	0	96	48	4
NMTAP	64	0	3
NMTAP	64	48	2
NMTAP	64	96	1
NMTAP	64	144	0
NMTAP	64	192	3
NMTAP	64	192	7
BRSTR	64	288	1
NMSUR	64	288	1	96	192	2
BRTAP	64	288	6
EXHLD	65	0	4	96
CNSCR	65	192	2	0	96	5
NMTAP	65	192	6
NMTAP	65	240	7
NMTAP	65	288	0
NMSTR	65	336	1
NMSUL	65	336	1	96	144	0
EXHLD	66	48	4	96
CNSCL	66	192	0	0	96	5
NMTAP	66	192	3
NMTAP	66	240	2
NMSTR	66	288	1
NMSXR	66	288	1	96	192	2
EXHLD	67	0	5	96
CNSCR	67	192	2	0	96	5
NMTAP	67	192	6
NMTAP	67	240	7
NMTAP	67	288	0
NMSTR	67	336	1
NMSLL	67	336	1	96	144	4
EXHLD	68	48	3	96
NMTAP	68	192	2
BRSTR	68	288	6
NMSUL	68	288	6	96	192	5
BRTAP	68	288	7
EXHLD	69	0	3	96
NMTAP	69	192	1
CNSCL	69	192	5	0	96	2
NMTAP	69	240	0
NMTAP	69	288	7
NMSTR	69	336	6
NMSLR	69	336	6	96	192	3
EXHLD	70	48	3	96
NMTAP	70	192	4
NMTAP	70	240	5
NMSTR	70	288	6
BRSV_	70	288	6	96	48	3
NMTAP	70	336	1
NMTAP	71	0	0
NMSTR	71	48	7
BRSV_	71	48	7	96	48	2
NMTAP	71	96	4
NMTAP	71	144	5
NMSTR	71	192	6
BRSV_	71	192	6	96	48	3
NMTAP	71	240	1
NMTAP	71	288	0
NMSTR	71	336	7
BRSV_	71	336	7	96	48	2
NMTAP	72	0	4
NMTAP	72	48	5
NMTAP	72	96	6
NMSTR	72	144	1
BRSI_	72	144	1	96	48	4
BRTAP	72	240	1
BRSTR	72	240	6
NMSUL	72	240	6	96	192	5
EXHLD	73	0	3	96
CNSCL	73	144	5	0	96	2
NMTAP	73	192	1
NMTAP	73	240	0
NMTAP	73	288	7
NMSTR	73	336	6
NMSUR	73	336	6	96	144	7
EXHLD	74	48	3	96
NMTAP	74	192	4
CNSCR	74	192	7	0	96	2
NMTAP	74	240	5
NMSTR	74	288	6
NMSXL	74	288	6	96	192	5
EXHLD	75	0	3	96
NMTAP	75	192	1
CNSCL	75	192	5	0	96	2
NMTAP	75	240	0
NMTAP	75	288	7
NMSTR	75	336	6
NMSUR	75	336	6	96	96	2
EXHLD	76	48	3	96
NMTAP	76	192	3
NMTAP	76	240	4
NMSTR	76	288	1
BRSV_	76	288	1	96	48	4
NMTAP	76	288	5
NMTAP	77	0	7
NMSTR	77	48	0
BRSV_	77	48	0	96	48	5
NMTAP	77	96	3
NMTAP	77	144	2
NMSTR	77	192	1
BRSV_	77	192	1	96	48	4
NMTAP	77	240	6
NMTAP	77	288	7
NMSTR	77	336	0
BRSV_	77	336	0	96	48	5
NMTAP	78	0	3
NMTAP	78	48	2
NMTAP	78	96	1
NMTAP	78	144	2
NMTAP	78	192	3
NMTAP	78	192	4
NMTAP	78	288	2
NMSTR	78	288	6
BRSV_	78	288	6	96	48	3
NMTAP	78	336	1
NMTAP	79	0	0
NMSTR	79	48	7
BRSV_	79	48	7	96	48	2
NMTAP	79	96	4
NMTAP	79	144	5
NMSTR	79	192	6
BRSV_	79	192	6	96	48	3
NMTAP	79	240	1
NMTAP	79	288	0
NMSTR	79	336	7
BRSV_	79	336	7	96	48	2
NMTAP	80	0	4
NMTAP	80	48	5
NMTAP	80	96	6
NMTAP	80	144	1
NMTAP	80	192	0
NMTAP	80	192	4
BRTAP	80	288	1
BRTAP	80	288	6
EXTAP	81	0	0
EXSTR	81	0	7
NMSI_	81	0	7	96	48	4
NMTAP	81	96	7
NMTAP	81	120	0
NMTAP	81	192	1
NMSTR	81	192	3
NMSI_	81	192	3	96	48	6
NMTAP	81	240	1
NMTAP	81	288	3
NMTAP	81	312	2
NMTAP	82	0	1
NMSTR	82	0	7
NMSI_	82	0	7	96	48	4
NMTAP	82	48	1
NMTAP	82	96	7
NMTAP	82	120	0
NMTAP	82	192	1
NMTAP	82	192	3
NMTAP	82	240	2
NMTAP	82	264	3
NMTAP	82	312	3
NMTAP	82	336	2
NMSTR	83	0	0
NMSI_	83	0	0	96	48	3
NMTAP	83	0	7
NMTAP	83	72	7
NMTAP	83	96	0
NMTAP	83	144	6
NMSTR	83	192	4
NMSI_	83	192	4	96	48	1
NMTAP	83	192	6
NMTAP	83	240	6
NMTAP	83	288	4
NMTAP	83	288	5
NMSTR	84	0	0
NMSI_	84	0	0	96	48	3
NMTAP	84	0	6
NMTAP	84	72	7
NMTAP	84	96	0
NMTAP	84	144	6
NMTAP	84	192	4
NMTAP	84	192	6
NMTAP	84	240	5
NMTAP	84	264	4
NMTAP	84	312	4
NMTAP	84	336	5
EXSTR	85	0	0
NMSI_	85	0	0	96	48	3
EXTAP	85	0	7
NMTAP	85	96	0
NMTAP	85	120	7
NMSTR	85	192	4
NMSI_	85	192	4	96	48	1
NMTAP	85	192	6
NMTAP	85	240	6
NMTAP	85	288	4
NMTAP	85	312	5
NMSTR	86	0	0
NMSI_	86	0	0	96	48	3
NMTAP	86	0	6
NMTAP	86	48	6
NMTAP	86	96	0
NMTAP	86	120	7
NMTAP	86	192	4
NMTAP	86	192	6
NMTAP	86	240	5
NMTAP	86	264	4
NMTAP	86	312	4
NMTAP	86	336	5
NMTAP	87	0	0
NMSTR	87	0	7
NMSI_	87	0	7	96	48	4
NMTAP	87	72	0
NMTAP	87	96	7
NMTAP	87	144	1
NMTAP	87	192	1
NMSTR	87	192	3
NMSI_	87	192	3	96	48	6
NMTAP	87	240	1
NMTAP	87	288	2
NMTAP	87	288	3
NMTAP	88	0	1
NMSTR	88	0	7
NMSI_	88	0	7	96	48	4
NMTAP	88	72	0
NMTAP	88	96	7
NMTAP	88	144	1
NMTAP	88	192	1
NMTAP	88	192	3
NMTAP	88	240	2
NMTAP	88	264	3
NMTAP	88	312	3
NMTAP	88	336	2
BRTAP	89	0	0
BRTAP	89	0	7
NMTAP	89	192	6
NMTAP	89	204	4
NMTAP	89	240	3
NMTAP	89	240	5
NMTAP	89	288	2
NMTAP	89	288	4
NMHLD	89	336	1	192
NMHLD	89	336	3	192
NMTAP	90	192	0
NMTAP	90	204	2
NMTAP	90	240	1
NMTAP	90	240	3
NMTAP	90	288	2
NMTAP	90	288	4
NMTAP	90	336	3
NMTAP	90	336	5
NMTAP	91	0	4
NMTAP	91	0	6
NMTAP	91	48	7
NMTAP	91	60	5
NMTAP	91	96	4
NMTAP	91	96	6
NMHLD	91	144	3	96
NMHLD	91	144	5	96
NMTAP	91	288	2
NMTAP	91	288	4
NMSTR	91	336	1
NMSCR	91	336	1	96	96	5
NMTAP	91	336	3
NMTAP	92	48	1
NMTAP	92	48	5
NMTAP	92	192	6
NMTAP	92	240	3
NMTAP	92	240	5
NMTAP	92	288	2
NMTAP	92	288	4
NMTAP	92	336	1
NMTAP	92	336	3
NMTAP	93	0	0
NMTAP	93	0	4
NMTAP	93	48	1
NMTAP	93	48	5
NMHLD	93	96	2	48
NMHLD	93	96	6	48
NMTAP	93	192	1
NMTAP	93	192	5
NMHLD	93	240	0	48
NMHLD	93	240	4	48
NMSTR	93	336	1
NMSV_	93	336	1	96	144	3
NMSTR	93	336	5
NMSV_	93	336	5	96	144	7
NMTAP	94	48	1
NMTAP	94	48	5
NMTAP	94	288	2
NMTAP	94	288	6
NMTAP	94	336	2
NMTAP	94	336	6
NMSTR	95	48	4
NMSI_	95	48	4	96	144	1
NMSTR	95	48	5
NMSI_	95	48	5	96	144	0
NMTAP	95	96	3
NMTAP	95	96	6
NMTAP	95	144	4
NMTAP	95	144	5
CNSCL	95	288	0	0	96	6
CNSCR	95	288	1	0	96	3
NMTAP	96	144	4
NMTAP	96	144	5
NMTAP	96	192	2
NMTAP	96	216	3
NMTAP	96	264	1
NMTAP	96	288	0
BRTAP	96	336	2
BRTAP	96	336	7

T_REC_TAP	404
T_REC_BRK	16
T_REC_XTP	11
T_REC_BXX	0
T_REC_HLD	17
T_REC_XHO	32
T_REC_BHO	0
T_REC_BXH	0
T_REC_STR	94
T_REC_BST	6
T_REC_XST	14
T_REC_XBS	0
T_REC_TTP	13
T_REC_THO	0
T_REC_SLD	76
T_REC_BSL	38
T_REC_ALL	721
T_NUM_TAP	536
T_NUM_BRK	60
T_NUM_HLD	49
T_NUM_SLD	76
T_NUM_ALL	721
T_JUDGE_TAP	558
T_JUDGE_HLD	133
T_JUDGE_SLD	114
T_JUDGE_ALL	805
TTM_EACHPAIRS	95
TTM_SCR_TAP	268000
TTM_SCR_BRK	156000
TTM_SCR_HLD	49000
TTM_SCR_SLD	114000
TTM_SCR_ALL	587000
TTM_SCR_S	563600
TTM_SCR_SS	581000
TTM_RAT_ACV	10103

