VERSION	0.00.00	1.05.00
FES_MODE	0
BPM_DEF	150.000	150.000	150.000	150.000
MET_DEF	4	4
RESOLUTION	384
CLK_DEF	384
COMPATIBLE_CODE	MA2

BPM	0	0	150.000
MET	0	0	4	4

NMHLD	1	0	2	2880
NMTAP	1	0	5
NMHLD	2	48	3	336
NMHLD	4	48	4	336
NMTAP	6	48	3
NMTHO	7	0	0	432	C	0	M1
BXHLD	9	0	1	192
NMHLD	9	192	2	192
NMHLD	10	0	3	192
NMTAP	10	192	4
NMTAP	10	288	4
NMTAP	11	0	4
NMSTR	11	0	5
NMSCR	11	0	5	96	192	0
NMTAP	12	0	1
NMTAP	12	96	0
NMTAP	12	192	7
NMTAP	12	288	7
NMTAP	13	0	0
NMHLD	13	0	6	192
NMHLD	13	192	5	192
NMHLD	14	0	4	192
NMTAP	14	192	3
NMTAP	14	288	3
NMSTR	15	0	2
NMSCL	15	0	2	96	192	7
NMTAP	15	0	3
NMSTR	16	0	6
NMSCL	16	0	6	96	192	3
BXHLD	17	0	1	96
BXHLD	17	0	4	96
NMTAP	17	144	2
NMTAP	17	144	3
NMTAP	17	192	2
NMTAP	17	192	3
NMSTR	17	288	1
NMSCL	17	288	1	96	192	6
NMTAP	18	192	5
NMTAP	18	288	5
NMHLD	19	0	4	96
NMHLD	19	0	5	96
NMTAP	19	144	3
NMTAP	19	144	6
NMTAP	19	192	3
NMTAP	19	192	6
NMSTR	19	288	2
NMSCL	19	288	2	96	192	7
NMSTR	19	288	7
NMSCL	19	288	7	96	192	4
NMTAP	20	288	0
NMTAP	20	288	5
NMHLD	21	0	1	144
NMTAP	21	144	3
NMTAP	21	192	3
NMTAP	21	288	2
NMTAP	21	288	4
NMHLD	22	0	6	144
NMTAP	22	144	4
NMTAP	22	192	4
NMTAP	22	288	3
NMTAP	22	288	5
NMHLD	23	0	2	96
NMHLD	23	0	6	96
NMTAP	23	144	2
NMTAP	23	144	6
NMTAP	23	240	7
NMSTR	23	288	7
NMSI_	23	288	7	96	192	3
EXHLD	25	0	2	672
EXTAP	25	0	5
NMTAP	25	96	5
NMTAP	25	192	4
NMTAP	25	288	4
NMTAP	26	0	3
NMTAP	26	96	4
NMHLD	26	192	3	96
EXTAP	27	0	1
EXHLD	27	0	4	576
NMTAP	27	96	1
NMTAP	27	192	2
NMTAP	27	288	2
NMTAP	28	0	3
NMTAP	28	96	3
NMTAP	28	192	5
NMTAP	28	288	5
NMHLD	29	0	6	96
NMHLD	29	96	5	96
NMHLD	29	192	4	96
NMHLD	29	288	3	96
NMHLD	30	0	2	96
NMHLD	30	96	1	96
NMHLD	30	192	0	96
NMTAP	30	288	7
NMTAP	31	0	6
NMTAP	31	48	6
NMTAP	31	96	6
NMTAP	31	144	6
NMTAP	31	192	0
NMTAP	31	240	0
NMTAP	31	288	0
NMTAP	31	336	0
NMSTR	32	0	7
NMSI_	32	0	7	96	96	2
NMSI_	32	0	7	96	96	4
BXTAP	32	288	1
BXTAP	32	288	5
EXHLD	33	0	6	96
EXHLD	33	0	7	96
NMTAP	33	192	0
NMTAP	33	192	1
NMTAP	33	288	2
NMTAP	33	288	3
NMSTR	33	336	2
NMSCL	33	336	2	96	96	7
NMSTR	33	336	3
NMSCR	33	336	3	96	96	6
NMTAP	34	288	0
NMTAP	34	288	5
EXHLD	35	0	0	96
EXHLD	35	0	1	96
NMTAP	35	192	6
NMTAP	35	192	7
NMTAP	35	288	4
NMTAP	35	288	5
NMSTR	35	336	4
NMSCL	35	336	4	96	96	1
NMSTR	35	336	5
NMSCR	35	336	5	96	96	0
BXTAP	36	288	2
BXTAP	36	288	7
NMHLD	37	0	4	96
NMHLD	37	0	5	96
NMTAP	37	192	6
NMTAP	37	192	7
NMTAP	37	288	0
NMTAP	37	288	1
NMSTR	37	336	0
NMSCL	37	336	0	96	96	5
NMSTR	37	336	1
NMSCR	37	336	1	96	96	4
NMTAP	38	288	3
NMTAP	38	288	6
EXHLD	39	0	2	96
EXHLD	39	0	7	96
EXHLD	39	144	1	96
EXHLD	39	144	6	96
EXHLD	39	288	0	96
EXHLD	39	288	5	96
EXTAP	40	48	0
EXTAP	40	48	5
NMTAP	40	192	0
NMTAP	40	192	7
BXTAP	40	240	1
BXTAP	40	240	6
EXHLD	41	0	2	144
NMTAP	41	144	3
NMTAP	41	192	3
NMTAP	41	288	1
NMTAP	41	288	4
NMSTR	41	336	1
BRSCL	41	336	1	96	96	6
NMHLD	41	336	4	96
NMTAP	42	192	5
NMTAP	42	240	5
NMTAP	42	288	4
NMTAP	42	288	5
EXHLD	43	0	6	144
NMTAP	43	144	7
NMTAP	43	192	7
NMTAP	43	288	0
NMTAP	43	288	5
NMHLD	43	336	0	96
NMSTR	43	336	5
BRSCL	43	336	5	96	96	2
NMTAP	44	192	1
NMTAP	44	240	1
NMTAP	44	288	0
NMTAP	44	288	1
EXHLD	45	0	2	96
EXHLD	45	0	7	96
EXHLD	45	144	1	96
EXHLD	45	144	6	96
EXHLD	45	288	0	96
EXHLD	45	288	5	96
EXSTR	46	48	1
NMSLR	46	48	1	96	144	0
EXSTR	46	48	6
NMSLL	46	48	6	96	144	7
BXTAP	47	0	1
BXTAP	47	0	6
NMTAP	47	96	2
BXTAP	47	144	1
BXTAP	47	144	3
NMTAP	47	240	5
BXTAP	47	288	4
BXTAP	47	288	6
NMTAP	48	0	0
NMTAP	48	0	7
EXTAP	48	48	0
EXTAP	48	48	7
NMTAP	48	144	2
NMTAP	48	144	5
NMTAP	48	192	2
NMTAP	48	192	5
BRTAP	48	288	0
BRTAP	48	288	7
NMTTP	49	0	1	B	0	M1
NMTTP	49	0	2	B	0	M1
NMTTP	49	0	2	E	1	M1
NMTTP	49	0	3	B	0	M1
NMTTP	49	0	3	E	0	M1
NMTAP	49	192	5
NMTAP	49	240	5
NMTAP	49	288	4
NMHLD	49	336	6	96
BRHLD	50	48	7	96
NMTAP	50	144	5
NMTAP	50	192	5
NMTAP	50	288	1
NMTAP	50	288	7
NMTTP	51	0	4	B	0	M1
NMTTP	51	0	5	B	0	M1
NMTTP	51	0	5	E	0	M1
NMTTP	51	0	6	B	0	M1
NMTTP	51	0	6	E	1	M1
NMTAP	51	192	2
NMTAP	51	240	2
NMTAP	51	288	3
NMHLD	51	336	1	96
BRHLD	52	48	0	96
NMTAP	52	144	2
NMTAP	52	192	2
NMTAP	52	288	0
NMTAP	52	288	6
NMTTP	53	0	1	B	0	M1
NMTTP	53	0	2	B	0	M1
NMTTP	53	0	2	E	1	M1
NMTTP	53	0	3	B	0	M1
NMTTP	53	0	3	E	0	M1
NMTAP	53	192	6
NMHLD	53	240	6	96
NMHLD	53	336	4	96
BRHLD	54	48	3	96
NMTAP	54	144	2
NMTAP	54	192	2
NMTAP	54	288	0
NMTAP	54	288	4
EXTAP	55	0	1
EXTAP	55	0	3
NMTAP	55	96	5
EXTAP	55	144	4
EXTAP	55	144	6
NMTAP	55	240	2
EXTAP	55	288	1
EXTAP	55	288	3
NMTAP	56	0	0
NMTAP	56	0	7
NMTAP	56	48	0
NMTAP	56	48	7
NMTAP	56	144	5
NMTAP	56	192	5
NMTAP	56	240	4
EXSTR	56	288	3
BRSCL	56	288	3	96	96	0
EXSTR	56	288	6
BRSCL	56	288	6	96	96	3
EXTAP	57	192	1
EXTAP	57	192	4
NMTAP	57	288	2
NMTAP	57	288	3
NMSTR	57	336	2
NMSCL	57	336	2	96	144	5
NMSTR	57	336	3
NMSUL	57	336	3	96	144	4
NMSTR	58	288	1
BRSCR	58	288	1	96	96	4
NMSTR	58	288	4
BRSCR	58	288	4	96	96	7
EXTAP	59	192	3
EXTAP	59	192	6
NMTAP	59	288	4
NMTAP	59	288	5
NMSTR	59	336	4
NMSUR	59	336	4	96	144	3
NMSTR	59	336	5
NMSCR	59	336	5	96	144	2
EXTAP	60	288	1
EXTAP	60	288	4
NMHLD	61	0	2	96
NMTAP	61	96	0
NMHLD	61	144	0	96
NMTAP	61	240	7
NMHLD	61	288	7	96
NMTAP	62	0	6
NMSTR	62	48	6
NMSI_	62	48	6	96	96	1
NMSI_	62	48	6	96	96	3
NMHLD	63	0	2	96
NMTAP	63	96	4
NMHLD	63	144	4	96
NMTAP	63	240	6
NMHLD	63	288	6	96
NMTAP	64	0	0
NMTAP	64	48	0
NMTAP	64	144	1
NMTAP	64	144	7
NMTAP	64	192	1
NMTAP	64	192	7
BRTAP	64	288	2
BRTAP	64	288	6
BXTAP	65	0	5
NMTAP	65	48	5
NMTAP	65	96	4
NMTAP	65	192	2
NMTAP	65	192	3
NMTAP	65	288	1
NMHLD	65	336	1	96
BXTAP	66	48	0
NMTAP	66	144	2
NMTAP	66	144	7
NMTAP	66	192	2
NMTAP	66	192	7
NMTAP	66	288	0
NMTAP	66	288	1
BXTAP	67	0	2
NMTAP	67	48	2
NMTAP	67	96	3
NMTAP	67	192	4
NMTAP	67	192	5
NMTAP	67	288	6
NMHLD	67	336	6	96
BXTAP	68	48	7
NMTAP	68	144	0
NMTAP	68	144	5
NMTAP	68	192	0
NMTAP	68	192	5
NMTAP	68	288	6
NMTAP	68	288	7
BRTAP	69	0	5
NMTAP	69	48	5
NMTAP	69	96	4
NMTAP	69	192	3
NMTAP	69	192	6
NMTAP	69	288	1
NMHLD	69	336	1	96
BRTAP	70	48	0
NMTAP	70	144	6
NMTAP	70	144	7
NMTAP	70	192	6
NMTAP	70	192	7
NMTAP	70	288	0
NMTAP	70	288	5
BXHLD	71	0	1	96
BXHLD	71	0	4	96
BXHLD	71	144	2	96
BXHLD	71	144	5	96
BXHLD	71	288	3	96
BXHLD	71	288	6	96
BXHLD	72	48	4	96
BXHLD	72	48	7	96
EXTAP	72	192	0
EXTAP	72	192	3
BXTAP	72	240	0
BXTAP	72	240	3
EXSTR	73	0	7
NMSCL	73	0	7	96	96	4
NMSTR	73	192	0
NMSCR	73	192	0	96	96	3
NMTAP	74	0	5
EXHLD	74	48	5	96
NMTAP	74	144	4
NMTAP	74	192	4
NMTAP	74	288	3
NMTAP	74	288	6
EXSTR	75	0	2
NMSCL	75	0	2	96	96	7
NMSTR	75	192	6
NMSCL	75	192	6	96	96	3
NMTAP	76	0	2
EXHLD	76	48	2	96
NMTAP	76	144	3
NMTAP	76	192	3
NMTAP	76	288	1
NMTAP	76	288	4
BXHLD	77	0	0	96
BXHLD	77	0	5	96
BXHLD	77	144	1	96
BXHLD	77	144	6	96
BXHLD	77	288	2	96
BXHLD	77	288	7	96
BXTAP	78	48	2
BXTAP	78	48	7
NMTAP	78	144	1
NMTAP	78	192	1
NMTAP	78	240	0
NMTAP	78	288	2
BRHLD	79	0	3	96
BRHLD	79	0	7	96
BRHLD	79	144	1	96
BRHLD	79	144	5	96
BRSTR	79	288	2
NMSCL	79	288	2	96	192	5
BRTAP	79	288	6
EXTAP	80	192	4
BXTAP	80	288	0
EXTAP	81	0	2
NMTAP	81	48	2
NMTAP	81	96	3
NMTAP	81	144	3
NMTAP	81	192	1
NMTAP	81	240	1
NMTAP	81	288	4
NMTAP	81	336	4
NMTAP	82	0	0
NMTAP	82	48	0
NMTAP	82	96	5
NMTAP	82	144	5
NMTAP	82	192	7
NMTAP	82	240	7
NMHLD	82	288	6	96
NMTAP	83	0	4
NMTAP	83	48	4
NMTAP	83	96	5
NMTAP	83	144	5
NMTAP	83	192	3
NMTAP	83	240	3
NMTAP	83	288	6
NMTAP	83	336	6
NMTAP	84	0	2
NMTAP	84	48	2
NMTAP	84	96	7
NMTAP	84	144	7
NMHLD	84	192	1	96
NMTAP	84	288	0
NMTAP	85	0	6
NMTAP	85	48	6
NMTAP	85	96	7
NMTAP	85	144	7
NMTAP	85	192	5
NMTAP	85	240	5
NMHLD	85	288	3	96
NMTAP	86	0	0
NMTAP	86	48	0
NMTAP	86	96	2
NMTAP	86	144	2
NMTAP	86	192	4
NMTAP	86	240	4
NMHLD	86	288	1	96
NMTAP	87	0	0
NMTAP	87	48	0
NMTAP	87	96	1
NMTAP	87	96	7
NMTAP	87	192	5
NMTAP	87	240	5
NMTAP	87	288	4
NMTAP	87	288	6
NMTAP	88	0	3
NMTAP	88	0	7
NMTAP	88	96	0
NMTAP	88	96	2
NMTAP	88	192	1
NMTAP	88	192	3
NMTAP	88	240	1
NMTAP	88	240	3
NMTAP	88	288	1
NMTAP	88	288	3
EXHLD	89	0	0	768
EXTAP	89	0	6
NMTTP	89	192	0	E	0	M1
NMTTP	89	288	1	E	0	M1
NMTTP	90	0	2	E	0	M1
NMTTP	90	96	3	E	0	M1
NMTTP	90	192	4	B	0	M1
NMTTP	90	192	4	E	0	M1
NMHLD	91	0	7	768
NMTTP	91	192	0	E	0	M1
NMTTP	91	288	7	E	0	M1
NMTTP	92	0	6	E	0	M1
NMTTP	92	96	5	E	0	M1
NMTTP	92	192	3	B	0	M1
NMTTP	92	192	4	E	0	M1
NMTHO	93	0	0	384	C	0	M1
NMSTR	94	0	7
NMSUL	94	0	7	96	288	4
NMSTR	95	0	3
NMSUL	95	0	3	96	288	0
NMTHO	96	0	0	336	C	1	M1
NMTTP	96	336	1	B	0	M1
NMTTP	96	336	2	B	0	M1
NMTTP	96	336	5	B	0	M1
NMTTP	96	336	6	B	0	M1

T_REC_TAP	245
T_REC_BRK	7
T_REC_XTP	23
T_REC_BXX	21
T_REC_HLD	44
T_REC_XHO	23
T_REC_BHO	7
T_REC_BXH	17
T_REC_STR	27
T_REC_BST	1
T_REC_XST	6
T_REC_XBS	0
T_REC_TTP	31
T_REC_THO	3
T_REC_SLD	30
T_REC_BSL	6
T_REC_ALL	491
T_NUM_TAP	332
T_NUM_BRK	59
T_NUM_HLD	70
T_NUM_SLD	30
T_NUM_ALL	491
T_JUDGE_TAP	361
T_JUDGE_HLD	340
T_JUDGE_SLD	36
T_JUDGE_ALL	737
TTM_EACHPAIRS	113
TTM_SCR_TAP	166000
TTM_SCR_BRK	153400
TTM_SCR_HLD	70000
TTM_SCR_SLD	45000
TTM_SCR_ALL	434400
TTM_SCR_S	415650
TTM_SCR_SS	428500
TTM_RAT_ACV	10137

