VERSION	0.00.00	1.05.00
FES_MODE	0
BPM_DEF	150.000	150.000	150.000	150.000
MET_DEF	4	4
RESOLUTION	384
CLK_DEF	384
COMPATIBLE_CODE	MA2

BPM	0	0	150.000
MET	0	0	4	4

NMSTR	1	0	1
NMSI_	1	0	1	96	288	4
NMSTR	3	0	6
NMSI_	3	0	6	96	288	3
NMSTR	5	0	1
NMSI_	5	0	1	96	288	5
NMSTR	7	0	6
NMSI_	7	0	6	96	288	2
NMTAP	9	0	1
NMTAP	9	96	1
NMTAP	9	192	1
NMTAP	10	0	2
NMTAP	10	96	2
NMTAP	10	192	2
NMTAP	11	0	3
NMTAP	11	96	3
NMTAP	11	192	3
NMTAP	12	0	4
NMTAP	12	0	5
NMTAP	12	192	4
NMTAP	12	192	5
NMTAP	13	0	6
NMTAP	13	96	6
NMTAP	13	192	6
NMTAP	14	0	5
NMTAP	14	96	5
NMTAP	14	192	5
NMTAP	15	0	4
NMTAP	15	96	4
NMTAP	15	192	4
NMTAP	16	0	2
NMTAP	16	0	3
NMTAP	16	192	2
NMTAP	16	192	3
NMTAP	17	0	2
NMTAP	17	96	2
NMTAP	17	192	2
NMTAP	18	0	1
NMTAP	18	96	1
NMTAP	18	192	1
NMTAP	19	0	0
NMTAP	19	96	0
NMTAP	19	192	0
NMTAP	20	0	6
NMTAP	20	0	7
NMTAP	20	192	6
NMTAP	20	192	7
NMTAP	21	0	5
NMTAP	21	96	5
NMTAP	21	192	5
NMTAP	22	0	6
NMTAP	22	96	6
NMTAP	22	192	6
NMTAP	23	0	7
NMTAP	23	96	7
NMTAP	23	192	7
NMTAP	24	0	0
NMTAP	24	0	1
NMTAP	24	192	0
NMTAP	24	192	1
NMTTP	25	0	1	B	0	L1
NMTTP	25	96	2	B	0	L1
NMTTP	25	192	3	B	0	L1
NMTTP	26	0	6	B	0	L1
NMTTP	26	96	5	B	0	L1
NMTTP	26	192	4	B	0	L1
NMTTP	27	0	1	B	0	L1
NMTTP	27	96	2	B	0	L1
NMTTP	27	192	3	B	0	L1
NMTTP	27	288	4	B	0	L1
NMTTP	28	0	5	B	0	L1
NMTTP	28	96	6	B	0	L1
NMTTP	28	192	0	C	0	L1
NMTTP	29	0	7	B	0	L1
NMTTP	29	96	6	B	0	L1
NMTTP	29	192	4	B	0	L1
NMTTP	29	192	5	B	0	L1
NMTTP	30	0	0	B	0	L1
NMTTP	30	96	1	B	0	L1
NMTTP	30	192	2	B	0	L1
NMTTP	30	192	3	B	0	L1
NMTHO	31	0	0	288	C	1	L1
BXTAP	33	0	6
NMTAP	33	96	6
NMTAP	33	192	7
NMTAP	33	288	7
NMTAP	34	0	0
NMTAP	34	96	0
NMTAP	34	192	0
NMTAP	34	192	1
NMTAP	35	0	2
NMTAP	35	96	2
NMTAP	35	192	1
NMTAP	35	288	1
NMTAP	36	0	0
NMTAP	36	96	0
NMTAP	36	192	6
NMTAP	36	192	7
NMTAP	37	0	6
NMTAP	37	96	6
NMTAP	37	192	5
NMTAP	37	288	5
NMTAP	38	0	4
NMTAP	38	96	4
NMTAP	38	192	2
NMTAP	38	192	3
NMTAP	39	0	1
NMTAP	39	96	1
NMTAP	39	192	2
NMTAP	39	288	2
NMTAP	40	0	3
NMTAP	40	96	3
NMTAP	40	192	4
NMTAP	40	192	5
NMTAP	41	0	5
NMTAP	41	96	5
NMTAP	41	192	6
NMTAP	41	192	7
NMTAP	41	288	6
NMTAP	41	288	7
NMTAP	42	0	0
NMTAP	42	96	0
NMTAP	42	192	0
NMTAP	42	192	1
NMTAP	43	0	2
NMTAP	43	96	2
NMTAP	43	192	0
NMTAP	43	192	1
NMTAP	43	288	0
NMTAP	43	288	1
NMTAP	44	0	7
NMTAP	44	96	7
NMTAP	44	192	6
NMTAP	44	192	7
NMTAP	45	0	6
NMTAP	45	96	6
NMTAP	45	192	4
NMTAP	45	192	5
NMTAP	45	288	4
NMTAP	45	288	5
NMTAP	46	0	3
NMTAP	46	96	3
NMTAP	46	192	2
NMTAP	46	192	3
NMTAP	47	0	1
NMTAP	47	96	1
NMTAP	47	192	2
NMTAP	47	192	3
NMTAP	47	288	2
NMTAP	47	288	3
NMTAP	48	0	4
NMTAP	48	96	4
NMTAP	48	192	4
NMTAP	48	192	5
NMHLD	49	0	5	192
NMHLD	49	192	4	192
NMHLD	50	0	3	192
NMTAP	50	192	2
NMHLD	51	0	2	192
NMHLD	51	192	3	192
NMHLD	52	0	4	192
NMTAP	52	192	5
NMHLD	53	0	6	192
NMHLD	53	192	5	192
NMHLD	54	0	4	192
NMTAP	54	192	3
NMHLD	55	0	1	192
NMHLD	55	192	2	192
NMHLD	56	0	3	192
NMTAP	56	192	4
NMSTR	57	0	5
NMSI_	57	0	5	96	192	2
NMSTR	58	0	1
NMSI_	58	0	1	96	192	5
NMSTR	59	0	6
NMSI_	59	0	6	96	192	3
NMTAP	60	0	2
NMTAP	60	192	2
NMTAP	60	192	3
NMSTR	61	0	1
NMSI_	61	0	1	96	192	4
NMSTR	62	0	6
NMSI_	62	0	6	96	192	2
NMSTR	63	0	0
NMSI_	63	0	0	96	192	4
NMTAP	64	0	5
NMTAP	64	192	3
NMTAP	64	192	4
NMTAP	65	0	2
NMTAP	65	48	2
NMTAP	65	96	2
NMTAP	65	192	1
NMTAP	65	288	1
NMTAP	66	0	0
NMTAP	66	48	0
NMTAP	66	96	0
NMTAP	66	192	6
NMTAP	66	192	7
NMTAP	67	0	5
NMTAP	67	48	5
NMTAP	67	96	5
NMTAP	67	192	6
NMTAP	67	288	6
NMTAP	68	0	7
NMTAP	68	48	7
NMTAP	68	96	7
NMTAP	68	192	0
NMTAP	68	192	1
NMTAP	69	0	1
NMTAP	69	48	1
NMTAP	69	96	1
NMTAP	69	192	2
NMTAP	69	288	2
NMTAP	70	0	3
NMTAP	70	48	3
NMTAP	70	96	3
NMTAP	70	192	4
NMTAP	70	192	5
NMTAP	71	0	6
NMTAP	71	48	6
NMTAP	71	96	6
NMTAP	71	192	5
NMTAP	71	288	5
NMTAP	72	0	4
NMTAP	72	48	4
NMTAP	72	96	4
NMTAP	72	192	2
NMTAP	72	192	3
NMTAP	73	0	2
NMTAP	73	48	2
NMTAP	73	96	2
NMTAP	73	192	0
NMTAP	73	192	1
NMTAP	73	288	0
NMTAP	73	288	1
NMTAP	74	0	7
NMTAP	74	48	7
NMTAP	74	96	7
NMTAP	74	192	6
NMTAP	74	192	7
NMTAP	75	0	5
NMTAP	75	48	5
NMTAP	75	96	5
NMTAP	75	192	6
NMTAP	75	192	7
NMTAP	75	288	6
NMTAP	75	288	7
NMTAP	76	0	0
NMTAP	76	48	0
NMTAP	76	96	0
NMTAP	76	192	0
NMTAP	76	192	1
NMTAP	77	0	1
NMTAP	77	48	1
NMTAP	77	96	1
NMTAP	77	192	2
NMTAP	77	192	3
NMTAP	77	288	2
NMTAP	77	288	3
NMTAP	78	0	4
NMTAP	78	48	4
NMTAP	78	96	4
NMTAP	78	192	4
NMTAP	78	192	5
NMTAP	79	0	6
NMTAP	79	48	6
NMTAP	79	96	6
NMTAP	79	192	4
NMTAP	79	192	5
NMTAP	79	288	4
NMTAP	79	288	5
NMTAP	80	0	3
NMTAP	80	48	3
NMTAP	80	96	3
BRTAP	80	192	2
BRTAP	80	192	3
NMTAP	81	0	1
NMTAP	81	96	1
NMTAP	81	192	1
NMTAP	81	288	1
NMTAP	82	0	2
NMTAP	82	96	2
NMTAP	82	192	2
NMTAP	82	288	2
NMTAP	83	0	3
NMTAP	83	96	3
NMTAP	83	192	3
NMTAP	83	288	3
NMTAP	84	0	4
NMTAP	84	0	5
NMTAP	85	0	6
NMTAP	85	96	6
NMTAP	85	192	6
NMTAP	85	288	6
NMTAP	86	0	5
NMTAP	86	96	5
NMTAP	86	192	5
NMTAP	86	288	5
NMTAP	87	0	4
NMTAP	87	96	4
NMTAP	87	192	4
NMTAP	87	288	4
NMTAP	88	0	2
NMTAP	88	0	3
NMTAP	89	0	2
NMTAP	89	96	2
NMTAP	89	192	2
NMTAP	89	288	2
NMTAP	90	0	1
NMTAP	90	96	1
NMTAP	90	192	1
NMTAP	90	288	1
NMTAP	91	0	0
NMTAP	91	96	0
NMTAP	91	192	0
NMTAP	91	288	0
NMTAP	92	0	6
NMTAP	92	0	7
NMTAP	93	0	5
NMTAP	93	96	5
NMTAP	93	192	5
NMTAP	93	288	5
NMTAP	94	0	6
NMTAP	94	96	6
NMTAP	94	192	6
NMTAP	94	288	6
NMTAP	95	0	7
NMTAP	95	96	7
NMTAP	95	192	7
NMTAP	95	288	7
NMSTR	96	0	0
NMSCR	96	0	0	96	288	3
NMSTR	96	0	7
NMSCL	96	0	7	96	288	4

T_REC_TAP	273
T_REC_BRK	2
T_REC_XTP	0
T_REC_BXX	1
T_REC_HLD	12
T_REC_XHO	0
T_REC_BHO	0
T_REC_BXH	0
T_REC_STR	12
T_REC_BST	0
T_REC_XST	0
T_REC_XBS	0
T_REC_TTP	21
T_REC_THO	1
T_REC_SLD	12
T_REC_BSL	0
T_REC_ALL	334
T_NUM_TAP	306
T_NUM_BRK	3
T_NUM_HLD	13
T_NUM_SLD	12
T_NUM_ALL	334
T_JUDGE_TAP	309
T_JUDGE_HLD	54
T_JUDGE_SLD	12
T_JUDGE_ALL	375
TTM_EACHPAIRS	46
TTM_SCR_TAP	153000
TTM_SCR_BRK	7800
TTM_SCR_HLD	13000
TTM_SCR_SLD	18000
TTM_SCR_ALL	191800
TTM_SCR_S	185800
TTM_SCR_SS	191500
TTM_RAT_ACV	10015

