VERSION	0.00.00	1.05.00
FES_MODE	0
BPM_DEF	150.000	150.000	150.000	150.000
MET_DEF	4	4
RESOLUTION	384
CLK_DEF	384
COMPATIBLE_CODE	MA2

BPM	0	0	150.000
MET	0	0	4	4

NMTAP	1	0	7
NMTAP	2	0	7
NMTAP	3	0	7
NMTAP	5	0	0
NMTAP	6	0	0
NMTAP	7	0	0
EXTAP	8	0	0
EXTAP	8	0	7
NMTAP	9	0	0
NMTAP	9	192	0
NMTAP	10	0	1
NMTAP	11	0	2
NMTAP	11	192	2
NMTAP	12	0	2
NMTAP	12	0	3
NMTAP	13	0	4
NMTAP	13	192	4
NMTAP	14	0	5
NMTAP	15	0	6
NMTAP	15	192	6
NMTAP	16	0	6
NMTAP	16	0	7
NMTAP	17	0	7
NMTAP	17	192	7
NMTAP	18	0	6
NMTAP	18	192	6
NMTAP	19	0	5
NMTAP	19	192	5
NMTAP	20	0	3
NMTAP	20	0	4
NMTAP	21	0	3
NMTAP	21	192	3
NMTAP	22	0	2
NMTAP	22	192	2
NMTAP	23	0	1
NMTAP	23	192	1
EXTAP	24	0	0
EXTAP	24	0	7
NMTTP	25	0	7	B	0	L1
NMTTP	26	0	0	B	0	L1
NMTTP	27	0	6	B	0	L1
NMTTP	28	0	1	B	0	L1
NMTTP	29	0	5	B	0	L1
NMTTP	30	0	2	B	0	L1
NMTHO	31	0	0	288	C	0	L1
BRTAP	33	0	0
NMTAP	33	96	0
NMTAP	33	192	0
EXTAP	34	0	1
NMTAP	34	192	1
NMTAP	35	0	2
NMTAP	35	96	2
NMTAP	35	192	2
EXTAP	36	0	2
EXTAP	36	0	3
NMTAP	37	0	4
NMTAP	37	96	4
NMTAP	37	192	4
EXTAP	38	0	5
NMTAP	38	192	5
NMTAP	39	0	6
NMTAP	39	96	6
NMTAP	39	192	6
EXTAP	40	0	6
EXTAP	40	0	7
NMTAP	41	0	7
NMTAP	41	96	7
NMTAP	41	192	7
NMTAP	42	0	6
NMTAP	42	192	6
NMTAP	43	0	5
NMTAP	43	96	5
NMTAP	43	192	5
NMTAP	44	0	3
NMTAP	44	0	4
NMTAP	45	0	3
NMTAP	45	96	3
NMTAP	45	192	3
NMTAP	46	0	2
NMTAP	46	192	2
NMTAP	47	0	1
NMTAP	47	96	1
NMTAP	47	192	1
BXTAP	48	0	0
BXTAP	48	0	7
NMHLD	49	0	0	384
NMHLD	49	0	1	384
NMHLD	51	0	2	384
NMHLD	51	0	3	384
NMHLD	53	0	4	384
NMHLD	53	0	5	384
NMHLD	55	0	6	384
NMHLD	55	0	7	384
NMSTR	57	0	5
NMSI_	57	0	5	96	288	2
NMSTR	59	0	1
NMSI_	59	0	1	96	288	4
NMSTR	61	0	5
NMSI_	61	0	5	96	288	0
NMSTR	63	0	1
NMSI_	63	0	1	96	288	5
BRTAP	65	0	7
NMTAP	65	96	7
NMTAP	65	192	7
NMTAP	66	0	6
NMTAP	66	96	6
NMTAP	66	192	6
NMTAP	67	0	5
NMTAP	67	96	5
NMTAP	67	192	5
NMTAP	68	0	4
NMTAP	68	0	5
NMTAP	68	192	4
NMTAP	68	192	5
NMTAP	69	0	3
NMTAP	69	96	3
NMTAP	69	192	3
NMTAP	70	0	2
NMTAP	70	96	2
NMTAP	70	192	2
NMTAP	71	0	1
NMTAP	71	96	1
NMTAP	71	192	1
NMTAP	72	0	0
NMTAP	72	0	1
NMTAP	72	192	0
NMTAP	72	192	1
NMTAP	73	0	0
NMTAP	73	96	0
NMTAP	73	192	0
NMTAP	74	0	1
NMTAP	74	96	1
NMTAP	74	192	1
NMTAP	75	0	2
NMTAP	75	96	2
NMTAP	75	192	2
NMTAP	76	0	3
NMTAP	76	0	4
NMTAP	76	192	3
NMTAP	76	192	4
NMTAP	77	0	4
NMTAP	77	96	4
NMTAP	77	192	4
NMTAP	78	0	5
NMTAP	78	96	5
NMTAP	78	192	5
NMTAP	79	0	6
NMTAP	79	96	6
NMTAP	79	192	6
BXTAP	80	0	0
BXTAP	80	0	7
NMSTR	81	0	0
NMSI_	81	0	0	96	288	4
NMSTR	83	0	5
NMSI_	83	0	5	96	288	0
NMSTR	85	0	1
NMSI_	85	0	1	96	288	5
NMSTR	87	0	6
NMSI_	87	0	6	96	288	3
NMTTP	89	0	3	E	0	L1
NMTTP	90	0	2	E	0	L1
NMTTP	91	0	1	E	0	L1
NMTTP	92	0	0	E	0	L1
NMTTP	93	0	7	E	0	L1
NMTTP	94	0	6	E	0	L1
NMTTP	95	0	5	E	0	L1
NMTHO	96	0	0	336	C	1	L1

T_REC_TAP	112
T_REC_BRK	2
T_REC_XTP	10
T_REC_BXX	4
T_REC_HLD	8
T_REC_XHO	0
T_REC_BHO	0
T_REC_BXH	0
T_REC_STR	8
T_REC_BST	0
T_REC_XST	0
T_REC_XBS	0
T_REC_TTP	13
T_REC_THO	2
T_REC_SLD	8
T_REC_BSL	0
T_REC_ALL	167
T_NUM_TAP	143
T_NUM_BRK	6
T_NUM_HLD	10
T_NUM_SLD	8
T_NUM_ALL	167
T_JUDGE_TAP	149
T_JUDGE_HLD	77
T_JUDGE_SLD	8
T_JUDGE_ALL	234
TTM_EACHPAIRS	20
TTM_SCR_TAP	71500
TTM_SCR_BRK	15600
TTM_SCR_HLD	10000
TTM_SCR_SLD	12000
TTM_SCR_ALL	109100
TTM_SCR_S	105250
TTM_SCR_SS	108500
TTM_RAT_ACV	10055

