VERSION	0.00.00	1.04.00
FES_MODE	0
BPM_DEF	184.000	184.000	184.000	184.000
MET_DEF	4	4
RESOLUTION	384
CLK_DEF	384
COMPATIBLE_CODE	MA2

BPM	0	0	184.000
MET	0	0	4	4

NMTTP	3	0	1	A	0	M1
NMTTP	3	144	3	B	0	M1
NMTTP	3	288	7	B	0	M1
NMTTP	4	48	5	A	0	M1
NMTTP	5	0	0	C	0	M1
NMTTP	7	0	5	E	0	M1
NMTTP	7	288	1	E	0	M1
NMTTP	8	192	7	E	0	M1
NMTTP	8	288	0	C	0	M1
NMTTP	8	336	3	E	0	M1
NMTTP	10	0	4	E	0	M1
NMTTP	10	144	1	B	0	M1
NMTTP	10	288	6	B	0	M1
NMTTP	11	336	0	E	0	M1
NMTTP	12	144	2	B	0	M1
NMTTP	12	288	5	B	0	M1
NMTTP	13	96	1	A	0	M1
NMTTP	13	192	6	A	0	M1
NMTTP	13	240	4	B	0	M1
NMTTP	13	288	0	B	0	M1
NMTTP	13	336	2	A	0	M1
NMTTP	14	288	6	E	0	M1
NMTTP	14	336	2	E	0	M1
NMTTP	15	192	5	A	0	M1
NMTTP	15	216	5	B	0	M1
NMTTP	15	240	0	C	0	M1
NMTTP	15	264	1	B	0	M1
NMTTP	15	288	1	A	0	M1
NMTAP	16	192	3
NMTAP	16	192	4
NMHLD	16	288	3	48
NMHLD	16	288	4	48
EXTAP	17	0	2
EXTAP	17	0	5
NMTAP	17	48	4
NMTAP	17	96	3
NMTAP	17	144	6
NMTAP	17	192	5
NMTAP	17	240	4
NMTAP	17	288	7
NMTAP	17	336	6
NMTAP	18	0	2
NMTAP	18	48	3
NMTAP	18	96	4
NMTAP	18	144	1
NMTAP	18	192	2
NMTAP	18	240	3
NMTAP	18	288	0
NMTAP	18	336	1
NMTAP	19	0	5
NMTAP	19	48	4
NMTAP	19	96	3
NMTAP	19	144	6
NMTAP	19	192	5
NMTAP	19	240	4
NMTAP	19	288	7
NMTAP	19	336	6
NMHLD	20	0	2	48
NMTAP	20	48	4
NMHLD	20	96	3	48
NMTAP	20	144	5
NMHLD	20	192	4	144
NMTAP	20	240	5
NMTAP	20	288	6
NMTAP	20	336	7
NMTAP	21	0	2
NMTAP	21	48	3
NMTAP	21	96	4
NMTAP	21	144	1
NMTAP	21	192	2
NMTAP	21	240	3
NMTAP	21	288	0
NMTAP	21	336	1
NMTAP	22	0	5
NMTAP	22	48	4
NMTAP	22	96	3
NMTAP	22	144	6
NMTAP	22	192	5
NMTAP	22	240	4
NMTAP	22	288	7
NMTAP	22	336	6
NMTAP	23	0	2
NMTAP	23	48	3
NMTAP	23	96	4
NMTAP	23	144	1
NMTAP	23	192	2
NMTAP	23	240	3
NMTAP	23	288	0
NMTAP	23	336	7
NMHLD	24	0	1	48
NMHLD	24	0	6	48
NMTAP	24	96	1
NMTAP	24	96	6
NMSTR	24	144	3
NMSCL	24	144	3	96	48	0
NMSTR	24	144	4
NMSCR	24	144	4	96	48	7
NMTAP	24	240	3
NMTAP	24	240	4
EXTAP	25	0	1
NMTAP	25	0	5
NMTAP	25	48	4
NMTAP	25	96	3
NMTAP	25	144	5
NMTAP	25	168	4
NMTAP	25	192	5
NMTAP	25	240	3
NMTAP	25	288	6
NMTAP	25	336	4
NMTAP	26	0	2
NMTAP	26	48	3
NMTAP	26	96	4
NMTAP	26	144	2
NMTAP	26	168	3
NMTAP	26	192	2
NMTAP	26	240	4
NMTAP	26	288	1
NMTAP	26	336	3
NMTAP	27	0	5
NMTAP	27	48	4
NMTAP	27	96	3
NMTAP	27	144	5
NMTAP	27	168	4
NMTAP	27	192	6
NMTAP	27	240	2
NMTAP	27	288	2
NMTAP	27	312	3
NMTAP	27	336	1
NMTAP	28	0	5
NMTAP	28	48	4
NMTAP	28	96	3
NMHLD	28	144	2	96
NMHLD	28	144	6	96
EXTAP	28	288	3
EXTAP	28	288	5
NMTAP	29	0	0
NMTAP	29	0	4
NMTAP	29	48	1
NMTAP	29	96	2
NMTAP	29	144	3
NMHLD	29	192	2	96
NMTAP	29	192	4
NMTAP	29	240	5
NMTAP	29	288	6
NMTAP	29	336	1
NMSTR	29	336	7
NMSCL	29	336	7	96	48	4
NMSTR	30	48	0
NMSCR	30	48	0	96	48	3
NMTAP	30	144	5
NMTAP	30	192	6
NMTAP	30	240	7
NMTAP	30	288	0
NMTAP	30	336	1
NMTAP	31	0	2
NMTAP	31	0	3
NMTAP	31	48	2
NMTAP	31	48	3
NMTAP	31	96	4
NMTAP	31	96	5
NMTAP	31	144	4
NMTAP	31	144	5
NMTAP	31	192	6
NMTAP	31	192	7
NMTAP	31	240	6
NMTAP	31	240	7
NMTAP	31	288	0
NMTAP	31	288	1
NMTAP	31	336	0
NMTAP	31	336	1
NMTAP	32	0	2
NMTAP	32	24	7
NMTAP	32	48	2
NMTAP	32	72	7
NMTAP	32	96	3
NMTAP	32	120	6
NMTAP	32	144	3
NMTAP	32	168	6
NMSTR	32	192	4
NMSI_	32	192	4	96	48	0
NMTAP	32	216	5
NMTAP	32	240	4
NMTAP	32	264	5
EXTAP	32	288	4
BRTAP	33	0	2
NMTAP	33	0	6
NMTAP	33	96	3
NMTAP	33	96	7
BRTAP	33	144	1
NMTAP	33	144	5
NMTAP	33	240	2
NMTAP	33	240	6
BRSTR	33	288	0
NMSXL	33	288	0	96	144	0
NMSTR	33	288	4
NMSXL	33	288	4	96	144	4
NMTAP	34	192	3
NMTAP	34	192	7
NMTAP	34	240	0
NMTAP	34	288	1
NMTAP	34	336	2
NMTAP	35	0	3
BRSTR	35	0	6
NMSI_	35	0	6	96	48	3
NMTAP	35	96	0
BRSTR	35	144	2
NMSI_	35	144	2	96	48	7
NMTAP	35	240	4
BRSTR	35	288	6
NMSSL	35	288	6	96	168	2
NMHLD	36	192	0	96
NMTAP	36	288	4
NMTAP	36	336	3
NMTAP	37	0	1
BRTAP	37	0	5
NMTAP	37	96	0
NMTAP	37	96	4
NMTAP	37	144	2
BRTAP	37	144	6
NMTAP	37	240	1
NMTAP	37	240	5
NMSTR	37	288	3
NMSCL	37	288	3	96	48	0
BRSTR	37	288	7
NMSCL	37	288	7	96	48	4
NMHLD	38	96	3	96
NMTAP	38	96	7
NMHLD	38	192	4	96
NMTAP	38	288	6
NMTAP	38	336	5
BRSTR	39	0	1
NMSCL	39	0	1	96	48	6
NMTAP	39	0	4
NMTAP	39	96	3
BRSTR	39	144	5
NMSCL	39	144	5	96	48	2
NMTAP	39	240	7
BRSTR	39	288	1
NMSXR	39	288	1	96	288	6
NMTAP	41	0	5
NMTAP	41	48	5
NMTAP	41	96	4
NMTAP	41	144	5
NMTAP	41	192	2
NMTAP	41	240	3
NMTAP	41	288	4
NMTAP	41	336	5
NMTAP	42	0	3
NMTAP	42	48	5
NMTAP	42	96	4
NMTAP	42	144	5
NMSTR	42	192	4
NMSI_	42	192	4	96	48	2
NMSTR	42	288	6
NMSI_	42	288	6	96	48	4
NMTAP	43	0	1
NMTAP	43	48	1
NMTAP	43	96	3
NMTAP	43	144	2
NMTAP	43	192	5
NMTAP	43	240	4
NMTAP	43	288	3
NMTAP	43	336	2
NMTAP	44	0	4
NMTAP	44	48	2
NMTAP	44	96	3
NMTAP	44	144	1
NMSTR	44	192	3
NMSI_	44	192	3	96	48	5
NMSTR	44	288	1
NMSI_	44	288	1	96	48	3
NMTAP	45	0	6
NMTAP	45	48	6
NMTAP	45	96	4
NMTAP	45	144	4
NMTAP	45	192	7
NMTAP	45	240	7
NMTAP	45	288	3
NMTAP	45	336	5
NMTAP	45	360	4
NMTAP	46	0	6
NMTAP	46	48	6
NMTAP	46	96	0
NMTAP	46	144	0
NMTAP	46	192	3
NMTAP	46	240	3
NMTAP	46	288	2
NMTAP	46	336	2
NMTAP	47	0	1
NMTAP	47	24	3
NMTAP	47	48	1
NMTAP	47	72	3
NMTAP	47	96	2
NMTAP	47	120	4
NMTAP	47	144	2
NMTAP	47	168	4
NMTAP	47	192	3
NMTAP	47	216	5
NMTAP	47	240	3
NMTAP	47	264	5
NMTAP	47	288	4
NMTAP	47	312	6
NMTAP	47	336	4
NMTAP	47	360	6
BRSTR	48	0	5
NMSI_	48	0	5	96	48	1
NMTTP	48	192	7	E	0	M1
NMTTP	48	240	3	E	0	M1
NMTTP	48	288	5	E	0	M1
NMTTP	48	336	1	E	0	M1
BRHLD	49	0	2	96
BRHLD	49	0	6	96
NMTAP	49	144	1
NMTAP	49	168	0
NMTAP	49	192	1
NMTAP	49	216	0
NMTAP	49	240	1
NMTAP	49	288	7
NMTAP	49	336	4
NMSTR	49	336	6
NMSI_	49	336	6	96	48	3
NMTAP	50	48	6
NMTAP	50	48	7
NMTAP	50	144	1
NMHLD	50	192	2	72
NMTAP	50	264	3
NMTAP	50	288	2
NMTAP	50	336	1
NMTAP	50	336	3
NMHLD	51	0	0	96
NMTAP	51	48	7
NMTAP	51	96	6
NMHLD	51	144	5	96
NMTAP	51	192	4
NMTAP	51	240	3
NMTAP	51	288	2
NMHLD	51	336	1	96
NMTAP	51	336	3
NMTAP	52	48	0
NMTAP	52	96	0
NMTAP	52	120	2
NMTAP	52	168	2
NMTAP	52	192	4
NMTAP	52	240	4
NMTAP	52	264	6
NMTAP	52	312	6
NMTAP	52	336	0
NMHLD	53	0	1	96
NMHLD	53	0	7	96
NMTAP	53	144	6
NMTAP	53	168	2
NMTAP	53	192	5
NMTAP	53	216	3
NMSTR	53	240	4
NMSCR	53	240	4	96	48	7
NMTAP	53	288	1
NMTAP	53	336	1
NMTAP	54	48	1
NMTAP	54	72	0
NMTAP	54	96	1
NMTAP	54	144	2
NMTAP	54	144	7
NMTAP	54	192	3
NMTAP	54	192	6
NMTAP	54	240	5
NMTAP	54	288	1
NMTAP	54	288	4
NMTAP	54	336	2
EXTAP	55	0	3
EXSTR	55	0	6
NMSCL	55	0	6	96	48	3
NMTAP	55	96	0
NMTAP	55	120	1
EXSTR	55	144	2
NMSI_	55	144	2	96	48	7
NMTAP	55	240	6
NMTAP	55	264	5
EXSTR	55	288	4
NMSXL	55	288	4	96	144	3
BRHLD	56	0	0	144
NMTAP	56	192	1
NMTAP	56	192	2
NMTAP	56	240	3
NMTAP	56	288	4
NMTAP	56	288	5
NMTAP	56	336	6
NMTAP	56	360	6
EXHLD	57	0	0	96
NMTAP	57	96	7
NMTAP	57	144	5
NMTAP	57	168	4
NMTAP	57	192	5
NMTAP	57	216	4
NMTAP	57	240	6
NMTAP	57	288	0
NMSTR	57	336	1
NMSI_	57	336	1	96	48	4
NMSTR	57	336	3
NMSI_	57	336	3	96	48	7
NMTAP	58	48	1
NMTAP	58	48	3
NMTAP	58	144	6
NMHLD	58	192	5	72
NMTAP	58	264	4
NMTAP	58	288	5
NMTAP	58	336	4
NMTAP	58	336	6
NMHLD	59	0	7	96
NMTAP	59	48	0
NMTAP	59	96	1
NMTAP	59	144	2
NMTAP	59	144	4
NMTAP	59	192	3
NMTAP	59	240	5
NMTAP	59	264	4
NMTAP	59	288	5
NMTAP	59	336	3
NMHLD	59	336	6	96
NMSTR	60	48	0
NMSCR	60	48	0	96	48	3
NMSTR	60	96	7
NMSCL	60	96	7	96	48	4
NMSTR	60	144	0
BRSI_	60	144	0	96	48	4
NMTAP	60	192	7
NMTAP	60	240	0
NMTAP	61	0	2
EXSTR	61	0	6
NMSI_	61	0	6	96	48	3
NMTAP	61	96	0
NMTAP	61	144	2
NMTAP	61	168	2
EXSTR	61	192	4
NMSI_	61	192	4	96	48	7
NMTAP	61	288	3
NMTAP	61	336	1
NMTAP	61	360	1
EXSTR	62	0	0
NMSCL	62	0	0	96	48	5
NMTAP	62	96	2
NMTAP	62	144	3
NMTAP	62	168	3
EXTAP	62	192	4
EXTAP	62	240	2
EXTAP	62	240	5
EXTAP	62	288	1
EXTAP	62	288	6
EXTAP	62	336	0
EXTAP	62	336	7
BRSTR	63	0	1
NMSCR	63	0	1	96	48	4
BRTAP	63	0	6
NMTAP	63	96	1
NMTAP	63	96	4
BRSTR	63	144	6
NMSI_	63	144	6	96	48	2
NMTAP	63	240	2
NMTAP	63	240	6
BRSTR	63	288	0
NMSF_	63	288	0	96	48	4
NMTTP	64	0	0	C	1	M1
NMTAP	64	192	2
NMTAP	64	192	6
NMTAP	64	224	5
NMTAP	64	256	4
NMSTR	64	288	3
NMSI_	64	288	3	96	480	7
NMTAP	64	320	2
NMTAP	64	352	1
NMHLD	66	336	4	432
NMHLD	69	0	3	384
NMHLD	70	336	4	432
NMTTP	72	0	3	E	0	M1
NMTTP	72	192	4	E	0	M1
NMTTP	73	0	5	E	0	M1
NMTAP	73	192	3
NMTAP	73	288	4
NMTAP	74	0	2
NMSTR	74	0	3
NMSCR	74	0	3	96	48	5
NMTAP	74	192	2
NMTAP	74	240	3
NMTAP	74	288	4
NMTAP	74	336	5
NMTAP	75	0	3
NMTAP	75	96	3
NMTAP	75	144	4
NMTAP	75	240	4
NMTAP	75	288	3
NMTAP	75	336	5
NMSTR	76	0	4
NMSCL	76	0	4	96	48	2
NMTAP	76	192	5
NMTAP	76	240	4
NMTAP	76	288	3
NMTAP	76	336	2
NMTAP	77	0	4
NMHLD	77	96	4	96
NMTAP	77	288	3
NMTAP	77	312	5
NMTAP	77	336	3
NMTAP	77	360	5
NMSTR	78	0	2
NMSI_	78	0	2	96	48	4
NMTAP	78	192	5
NMTAP	78	240	4
NMTAP	78	288	3
NMTAP	78	336	2
NMTAP	79	0	4
NMHLD	79	96	4	96
NMTAP	79	240	2
NMTAP	79	288	3
NMTAP	79	336	4
NMTAP	80	0	3
NMTAP	80	48	4
NMTAP	80	96	3
NMTAP	80	96	5
NMTAP	80	144	3
NMTAP	80	144	5
NMTAP	80	240	2
NMTAP	80	288	4
NMTAP	80	336	3
NMTAP	81	0	2
NMSTR	81	0	4
NMSXL	81	0	4	96	192	3
NMTAP	82	0	2
NMTAP	82	0	3
NMTAP	82	48	2
NMTAP	82	48	3
NMTAP	83	0	4
NMTAP	83	0	5
NMTAP	83	48	4
NMTAP	83	48	5
NMTAP	83	192	2
NMTAP	83	224	3
NMTAP	83	256	1
NMTAP	83	288	5
NMTAP	83	320	4
NMHLD	83	352	6	224
NMTTP	84	0	1	D	0	M1
NMTTP	84	24	2	D	0	M1
NMTTP	84	48	3	D	0	M1
NMTTP	84	72	4	D	0	M1
NMTTP	84	96	5	D	0	M1
NMTTP	84	120	6	D	0	M1
NMTTP	84	144	7	D	0	M1
NMTTP	84	168	0	D	0	M1
EXSTR	84	192	1
NMSCR	84	192	1	96	48	4
NMTAP	84	288	0
NMTAP	84	288	1
NMSTR	85	0	5
NMSLL	85	0	5	96	96	6
NMTAP	85	96	3
NMSTR	85	144	1
NMSI_	85	144	1	96	48	5
NMTAP	85	240	0
NMTAP	85	240	1
NMHLD	85	336	7	240
NMTTP	86	0	5	D	0	M1
NMTTP	86	24	4	D	0	M1
NMTTP	86	48	3	D	0	M1
NMTTP	86	72	2	D	0	M1
NMTTP	86	96	1	D	0	M1
NMTTP	86	120	0	D	0	M1
NMTTP	86	144	7	D	0	M1
NMTTP	86	168	6	D	0	M1
EXSTR	86	192	4
NMSI_	86	192	4	96	48	0
NMTAP	86	288	4
NMHLD	86	288	5	288
NMTTP	87	0	0	D	0	M1
NMTTP	87	24	1	D	0	M1
NMTTP	87	48	2	D	0	M1
NMTTP	87	72	3	D	0	M1
NMTTP	87	96	4	D	0	M1
NMTTP	87	120	5	D	0	M1
NMTTP	87	144	6	D	0	M1
NMTTP	87	168	7	D	0	M1
EXSTR	87	192	0
NMSF_	87	192	0	96	48	4
BRTAP	88	0	2
BRTAP	88	0	6
BRTAP	88	48	2
BRTAP	88	48	6
NMHLD	88	192	1	96
NMTAP	88	240	3
NMTAP	88	288	4
NMHLD	88	336	5	288
NMTTP	89	0	5	D	0	M1
NMTTP	89	24	4	D	0	M1
NMTTP	89	48	3	D	0	M1
NMTTP	89	72	2	D	0	M1
NMTTP	89	96	1	D	0	M1
NMTTP	89	120	0	D	0	M1
NMTTP	89	144	7	D	0	M1
NMTTP	89	168	6	D	0	M1
NMTTP	89	192	5	D	0	M1
EXTAP	89	240	3
EXTAP	89	288	2
EXHLD	89	336	1	288
NMTTP	90	0	3	D	0	M1
NMTTP	90	24	4	D	0	M1
NMTTP	90	48	5	D	0	M1
NMTTP	90	72	6	D	0	M1
NMTTP	90	96	7	D	0	M1
NMTTP	90	120	0	D	0	M1
NMTTP	90	144	1	D	0	M1
NMTTP	90	168	2	D	0	M1
NMTTP	90	192	3	D	0	M1
EXTAP	90	240	4
EXTAP	90	288	5
EXTAP	90	336	6
NMSTR	91	0	2
NMSLR	91	0	2	96	96	1
NMTAP	91	0	7
NMTAP	91	96	4
NMSTR	91	144	6
NMSI_	91	144	6	96	48	2
NMTAP	91	240	6
NMTAP	91	240	7
NMSTR	92	0	0
NMSCL	92	0	0	96	96	5
NMSTR	92	96	5
NMSCL	92	96	5	96	96	2
NMTAP	92	192	1
NMTAP	92	240	0
NMTAP	92	288	7
NMTAP	92	336	6
NMHLD	93	0	5	96
NMHLD	93	96	4	96
NMTAP	93	192	6
NMTAP	93	224	4
NMTAP	93	256	5
NMTAP	93	288	3
NMTAP	93	320	4
NMTAP	93	352	2
NMSTR	94	0	3
NMSCR	94	0	3	96	96	6
NMSTR	94	96	6
NMSCR	94	96	6	96	96	1
NMTAP	94	192	1
NMTAP	94	240	2
NMTAP	94	288	3
NMTAP	94	336	4
NMSTR	95	0	5
NMSCL	95	0	5	96	96	2
NMSTR	95	96	2
NMSCL	95	96	2	96	96	7
NMSTR	95	192	7
NMSCL	95	192	7	96	96	4
NMSTR	95	288	4
NMSCL	95	288	4	96	96	1
NMHLD	96	0	0	96
NMTAP	96	192	0
NMTAP	96	240	1
NMTAP	96	240	3
NMTAP	96	288	2
NMTAP	96	288	4
NMTAP	96	336	3
NMTAP	96	336	5
NMTAP	97	0	1
NMTAP	97	48	2
NMTAP	97	48	4
NMTAP	97	96	3
NMTAP	97	96	5
NMTAP	97	144	4
NMTAP	97	144	6
NMTAP	97	192	1
NMTAP	97	240	2
NMTAP	97	240	3
NMTAP	97	288	3
NMTAP	97	288	4
NMTAP	97	336	4
NMTAP	97	336	5
NMTAP	98	0	6
NMTAP	98	96	6
NMTAP	98	96	7
NMTAP	98	144	0
NMTAP	98	144	5
NMTAP	98	240	0
NMTAP	98	240	1
NMTAP	98	288	0
NMTAP	98	288	1
NMTAP	98	336	2
NMTAP	98	336	7
NMTAP	99	48	3
NMTAP	99	48	4
NMSTR	99	96	1
NMSI_	99	96	1	96	48	4
NMTAP	99	96	6
NMTAP	99	192	1
NMSTR	99	192	5
NMSV_	99	192	5	96	48	0
NMSTR	99	288	3
NMSCL	99	288	3	96	576	4
NMTAP	99	288	5
BRTAP	100	0	7
EXTAP	101	288	2
EXTAP	101	288	6
EXTAP	101	336	3
EXTAP	101	336	5
NMTTP	102	0	0	C	1	M1
EXTAP	102	144	0
EXTAP	102	144	1
EXTAP	102	168	2
EXTAP	102	168	7
EXHLD	102	192	3	96
EXTAP	102	192	6
NMTTP	102	288	5	B	0	M1
NMTTP	102	288	5	E	0	M1
NMTTP	102	288	5	A	1	M1
NMTAP	103	0	1
NMTAP	103	24	0
NMTAP	103	48	1
NMTAP	103	72	0
NMTAP	103	96	2
NMTAP	103	120	7
NMTAP	103	144	2
NMTAP	103	168	7
NMTAP	103	192	3
NMTAP	103	216	6
NMTAP	103	240	3
NMTAP	103	264	6
NMTAP	103	288	4
NMTAP	103	312	5
NMTAP	103	336	4
NMTAP	103	360	5
NMTTP	104	0	2	B	0	M1
NMTTP	104	0	2	A	0	M1
NMTTP	104	0	3	E	1	M1
NMTTP	104	96	7	B	0	M1
NMTTP	104	96	7	E	0	M1
NMTTP	104	96	7	A	1	M1
NMTAP	104	192	4
NMTAP	104	192	5
NMTAP	104	240	2
NMTAP	104	264	3
NMTAP	104	288	2
NMHLD	104	336	6	192
NMTTP	105	0	0	B	0	M1
NMTTP	105	0	0	A	0	M1
NMTTP	105	0	1	E	1	M1
NMTAP	105	144	4
NMTAP	105	192	4
NMTAP	105	192	5
NMTAP	105	240	3
NMTAP	105	240	6
NMTAP	105	288	2
NMTAP	105	288	7
NMTAP	105	336	0
NMTAP	105	336	1
BRTAP	106	0	2
BRSTR	106	0	7
NMSI_	106	0	7	96	48	3
NMTAP	106	96	0
NMTAP	106	120	1
BXSTR	106	144	2
NMSCL	106	144	2	96	48	7
NMTAP	106	240	6
NMTAP	106	264	5
BXSTR	106	288	4
NMSI_	106	288	4	96	48	0
NMTAP	107	0	1
NMTAP	107	24	2
BXSTR	107	48	3
NMSCR	107	48	3	96	32	5
NMTAP	107	144	0
NMTAP	107	168	7
BXSTR	107	192	6
NMSI_	107	192	6	96	48	2
NMSI_	107	192	6	96	48	3
BRTAP	107	288	6
NMTTP	108	0	0	B	0	M1
NMTTP	108	0	0	A	0	M1
NMTTP	108	0	1	B	1	M1
NMTTP	108	0	1	E	0	M1
NMTTP	108	0	1	A	0	M1
NMSTR	108	96	4
NMSI_	108	96	4	96	48	0
NMTAP	108	96	5
NMTTP	108	192	7	B	0	M1
NMTTP	108	192	7	E	1	M1
NMTTP	108	192	7	A	0	M1
NMTTP	108	192	7	D	0	M1
NMTAP	108	288	2
NMSTR	108	288	3
NMSI_	108	288	3	96	48	7
NMTTP	109	0	0	B	0	M1
NMTTP	109	0	0	A	1	M1
NMTTP	109	0	1	E	0	M1
NMTAP	109	96	5
NMTAP	109	144	4
NMTAP	109	144	6
NMTAP	109	192	3
NMTAP	109	240	2
NMTAP	109	288	7
NMTAP	109	336	1
NMTAP	109	360	0
NMSTR	110	0	1
NMSCR	110	0	1	96	48	4
NMTAP	110	96	6
NMHLD	110	144	6	240
NMTTP	110	192	1	B	0	M1
NMTTP	110	192	2	B	0	M1
NMTTP	110	192	2	E	1	M1
NMTTP	110	288	4	B	1	M1
NMTTP	110	288	4	A	0	M1
NMTTP	110	288	5	E	0	M1
NMTAP	111	0	7
NMTAP	111	24	0
NMTAP	111	48	1
NMTAP	111	72	2
NMTAP	111	96	7
NMTAP	111	120	6
NMTAP	111	144	5
NMTAP	111	168	4
NMTAP	111	192	0
NMTAP	111	216	1
NMTAP	111	240	2
NMTAP	111	264	3
NMTAP	111	288	0
NMTAP	111	312	7
NMTAP	111	336	6
NMTAP	111	360	5
NMTAP	112	0	3
NMTAP	112	48	3
NMTAP	112	96	3
NMTTP	112	96	6	B	1	M1
NMTTP	112	96	6	A	0	M1
NMTTP	112	96	7	E	0	M1
NMTAP	112	144	3
NMTAP	112	192	2
NMTAP	112	240	2
NMTAP	112	288	2
NMTTP	112	288	4	A	0	M1
NMTTP	112	288	5	E	1	M1
NMTTP	112	288	5	D	0	M1
NMTAP	112	336	2
NMTAP	113	0	6
NMTAP	113	48	6
NMTTP	113	96	3	E	1	M1
NMTTP	113	96	3	A	0	M1
NMTTP	113	96	3	D	0	M1
NMTAP	113	96	6
NMTAP	113	144	6
NMTAP	113	192	7
NMTAP	113	240	7
NMTTP	113	288	1	B	1	M1
NMTTP	113	288	1	E	0	M1
NMTTP	113	288	1	A	0	M1
NMTAP	113	288	7
NMTAP	113	336	7
BRTAP	114	0	4
BRSTR	114	0	6
NMSI_	114	0	6	96	48	2
NMTAP	114	96	3
BRSTR	114	144	1
NMSI_	114	144	1	96	48	4
BRTAP	114	240	1
BRSTR	114	240	5
NMSI_	114	240	5	96	48	0
BRTAP	114	336	3
BRTAP	114	336	5
NMTAP	115	96	6
NMTAP	115	96	7
NMSTR	115	144	0
NMSCR	115	144	0	96	48	3
NMSTR	115	144	4
NMSCR	115	144	4	96	48	7
BRTAP	115	240	0
BRTAP	115	240	4
NMTAP	115	336	0
NMTAP	115	336	1
NMTTP	116	0	0	C	1	M1
NMTTP	116	0	2	B	0	M1
NMTTP	116	0	2	A	0	M1
NMTTP	116	0	6	B	0	M1
NMTTP	116	0	6	A	0	M1
NMTTP	116	360	0	B	0	M1
NMTTP	116	372	0	C	0	M1
NMTTP	117	0	4	B	0	M1

T_REC_TAP	519
T_REC_BRK	18
T_REC_XTP	28
T_REC_BXX	0
T_REC_HLD	37
T_REC_XHO	3
T_REC_BHO	3
T_REC_BXH	0
T_REC_STR	43
T_REC_BST	16
T_REC_XST	9
T_REC_XBS	4
T_REC_TTP	129
T_REC_THO	0
T_REC_SLD	72
T_REC_BSL	1
T_REC_ALL	882
T_NUM_TAP	728
T_NUM_BRK	42
T_NUM_HLD	40
T_NUM_SLD	72
T_NUM_ALL	882
T_JUDGE_TAP	766
T_JUDGE_HLD	125
T_JUDGE_SLD	73
T_JUDGE_ALL	964
TTM_EACHPAIRS	114
TTM_SCR_TAP	364000
TTM_SCR_BRK	109200
TTM_SCR_HLD	40000
TTM_SCR_SLD	108000
TTM_SCR_ALL	621200
TTM_SCR_S	598500
TTM_SCR_SS	617000
TTM_RAT_ACV	10068

