VERSION	0.00.00	1.05.00
FES_MODE	0
BPM_DEF	184.000	184.000	184.000	184.000
MET_DEF	4	4
RESOLUTION	384
CLK_DEF	384
COMPATIBLE_CODE	MA2

BPM	0	0	184.000
MET	0	0	4	4

NMHLD	1	0	1	1344
NMSTR	1	0	5
NMSCL	1	0	5	96	288	2
NMHLD	3	0	3	144
NMHLD	3	288	4	144
NMTAP	4	192	5
NMSTR	5	0	2
NMSCR	5	0	2	96	288	5
NMHLD	5	0	6	768
NMSTR	7	0	2
NMSCR	7	0	2	96	288	5
NMTTP	8	0	6	B	0	M1
NMTTP	8	0	6	E	0	M1
NMTTP	8	192	4	B	0	M1
NMTTP	8	192	5	E	0	M1
NMHLD	9	0	3	384
NMHLD	10	0	1	384
NMHLD	11	0	7	384
NMSTR	12	0	6
NMSUL	12	0	6	96	480	3
NMHLD	14	0	1	240
NMTAP	14	0	4
NMTAP	14	240	3
NMTAP	14	336	2
NMTAP	14	336	4
NMHLD	15	0	2	240
NMHLD	15	0	4	240
NMHLD	16	0	5	192
NMTAP	16	192	4
NMTAP	16	288	3
NMTAP	16	288	5
BRSTR	17	0	1
NMSCR	17	0	1	96	96	4
BRTAP	17	0	7
NMTAP	17	288	5
NMHLD	18	0	6	96
NMTAP	18	96	7
NMTAP	18	144	7
NMTAP	18	240	0
NMTAP	18	240	7
NMTAP	18	336	0
NMHLD	18	336	1	144
NMTAP	19	96	3
NMTAP	19	144	3
NMTAP	19	240	2
NMTAP	19	240	4
NMTAP	19	336	1
NMSTR	20	0	1
NMSUR	20	0	1	96	192	4
NMHLD	21	0	6	96
NMTAP	21	96	4
NMTAP	21	144	4
NMTAP	21	240	3
NMTAP	21	240	5
NMTAP	21	336	2
NMHLD	22	0	2	96
NMTAP	22	96	3
NMTAP	22	144	3
NMTAP	22	240	2
NMTAP	22	240	4
NMTAP	22	336	1
NMSTR	23	0	1
NMSCR	23	0	1	96	96	4
NMSTR	23	192	6
NMSCR	23	192	6	96	96	1
NMSTR	24	0	3
NMSI_	24	0	3	96	96	7
EXTAP	24	192	6
EXTAP	24	240	6
NMTAP	24	336	0
NMTAP	24	336	5
BRTAP	25	0	0
BRSTR	25	0	5
NMSCR	25	0	5	96	96	0
NMTAP	25	288	1
NMHLD	26	0	2	96
NMTAP	26	96	3
NMTAP	26	144	3
NMTAP	26	240	3
NMTAP	26	240	4
NMHLD	26	336	4	144
NMHLD	26	336	6	144
NMTAP	27	192	6
NMTAP	27	240	7
NMTAP	27	288	0
NMHLD	27	336	1	144
NMTAP	28	96	3
NMTAP	28	144	3
NMTAP	28	240	2
NMTAP	28	240	4
NMTAP	28	288	2
NMTAP	28	288	4
NMHLD	29	0	1	96
NMHLD	29	0	3	96
NMTAP	29	192	1
NMTAP	29	240	0
NMHLD	29	288	7	96
NMTAP	30	0	0
NMTAP	30	48	7
NMHLD	30	96	6	96
NMTAP	30	192	4
NMTAP	30	240	4
NMTAP	30	336	3
NMHLD	31	0	3	96
NMHLD	31	96	2	96
NMHLD	31	192	1	96
NMSTR	31	288	0
NMSF_	31	288	0	96	192	4
NMHLD	33	0	6	96
NMHLD	33	0	7	96
NMHLD	33	144	6	96
NMHLD	33	144	7	96
NMTAP	33	288	0
NMSTR	33	288	5
NMSXR	33	288	5	96	240	2
EXTAP	34	192	1
EXTAP	34	240	1
EXTAP	34	288	1
NMHLD	35	0	0	96
NMHLD	35	0	1	96
NMHLD	35	144	0	96
NMHLD	35	144	1	96
NMSTR	35	288	2
NMSXL	35	288	2	96	240	5
NMTAP	35	288	7
EXTAP	36	192	6
EXTAP	36	240	6
EXTAP	36	288	6
NMHLD	37	0	4	96
NMHLD	37	0	5	96
NMHLD	37	144	4	96
NMHLD	37	144	5	96
NMTAP	37	288	3
NMSTR	37	288	6
NMSXL	37	288	6	96	240	1
NMTAP	38	192	2
NMTAP	38	240	2
NMTAP	38	288	2
NMHLD	39	0	0	96
NMHLD	39	0	1	96
NMHLD	39	144	0	96
NMHLD	39	144	1	96
NMSTR	39	288	2
NMSUL	39	288	2	96	192	1
NMTAP	39	288	7
EXTAP	40	288	0
EXTAP	40	288	7
NMTAP	41	0	1
NMHLD	41	48	1	240
NMTTP	41	192	0	B	0	M1
NMTTP	41	192	1	B	0	M1
NMTTP	41	288	2	B	0	M1
NMTTP	41	288	3	B	0	M1
NMHLD	42	0	5	96
NMTAP	42	96	4
NMHLD	42	192	3	192
NMTAP	42	192	6
NMTAP	43	0	4
NMHLD	43	48	4	336
NMTTP	43	192	5	B	0	M1
NMTTP	43	192	5	E	0	M1
NMTTP	43	288	3	B	0	M1
NMTTP	43	288	4	E	0	M1
NMTHO	44	0	0	192	C	0	M1
NMTTP	44	192	5	B	0	M1
NMTTP	44	192	6	B	0	M1
NMTAP	45	0	7
NMTAP	45	48	7
NMTAP	45	96	7
NMTAP	45	192	0
NMTAP	45	192	1
NMTAP	45	288	0
NMTAP	45	288	1
NMTAP	46	0	2
NMTAP	46	48	2
NMTAP	46	96	2
NMTAP	46	192	3
NMTAP	46	192	5
NMTAP	46	288	3
NMTAP	46	288	5
NMTAP	47	0	6
NMTAP	47	48	6
NMTAP	47	96	4
NMTAP	47	192	2
NMTAP	47	240	2
NMTAP	47	288	3
NMTAP	48	0	1
NMHLD	48	0	4	192
NMSTR	48	192	0
NMSI_	48	192	0	96	48	4
BXTAP	49	0	3
BXTAP	49	0	5
NMTAP	49	96	6
NMTAP	49	96	7
NMTAP	49	192	0
NMTAP	49	192	1
NMTAP	49	288	2
NMSTR	49	336	2
NMSCR	49	336	2	96	96	5
EXTAP	50	144	6
EXHLD	50	192	6	72
NMHLD	50	264	5	72
NMTAP	50	336	4
BRTAP	51	0	4
NMTAP	51	96	1
NMTAP	51	96	3
NMTAP	51	144	1
NMTAP	51	144	3
NMTAP	51	240	0
NMTAP	51	240	7
NMSTR	51	336	4
NMSCL	51	336	4	96	144	1
NMSTR	51	336	6
NMSUL	51	336	6	96	144	0
EXTAP	52	288	0
EXTAP	52	288	7
BRTAP	53	0	2
BRTAP	53	0	6
NMTAP	53	96	5
NMTAP	53	144	4
NMTAP	53	192	3
NMTAP	53	288	0
NMTAP	53	336	0
NMTAP	54	48	6
NMTAP	54	48	7
NMSTR	54	96	6
NMSCL	54	96	6	96	96	3
NMSTR	54	96	7
NMSUL	54	96	7	96	96	2
BRTAP	55	0	0
BRTAP	55	0	1
NMTAP	55	96	6
NMTAP	55	96	7
BRTAP	55	144	6
BRTAP	55	144	7
NMTAP	55	240	0
NMTAP	55	240	1
BRTAP	55	288	0
BRTAP	55	288	1
NMTTP	56	0	1	B	0	M1
NMTTP	56	0	2	B	0	M1
NMTTP	56	0	2	E	1	M1
NMTTP	56	0	3	B	0	M1
NMTTP	56	0	3	E	0	M1
NMTAP	56	192	5
BRTAP	56	288	6
BRTAP	56	288	7
BRTAP	57	0	2
NMTAP	57	96	0
NMTAP	57	96	1
NMTAP	57	192	6
NMTAP	57	192	7
NMTAP	57	288	5
NMSTR	57	336	5
NMSCL	57	336	5	96	96	2
EXTAP	58	144	1
EXHLD	58	192	1	72
NMHLD	58	264	0	72
NMTAP	58	336	7
BRTAP	59	0	7
NMTAP	59	96	0
NMTAP	59	96	6
NMTAP	59	144	0
NMTAP	59	144	6
NMTAP	59	240	4
NMTAP	59	240	5
NMSTR	59	336	2
NMSUR	59	336	2	96	144	7
NMSTR	59	336	3
NMSCR	59	336	3	96	144	6
EXTAP	60	288	0
BRTAP	61	0	1
BRTAP	61	0	7
NMSTR	61	96	0
NMSI_	61	96	0	96	48	4
NMSTR	61	96	1
NMSI_	61	96	1	96	48	4
NMSTR	61	288	6
NMSI_	61	288	6	96	48	3
NMSTR	61	288	7
NMSI_	61	288	7	96	48	3
NMSTR	62	96	0
NMSI_	62	96	0	96	48	4
NMSTR	62	96	1
NMSI_	62	96	1	96	48	4
NMTAP	62	288	6
NMTAP	62	288	7
BRTAP	63	0	0
BRTAP	63	0	5
NMTAP	63	96	2
NMTAP	63	96	3
BRTAP	63	144	2
BRTAP	63	144	3
NMTAP	63	240	4
NMTAP	63	240	6
BRTAP	63	288	4
BRTAP	63	288	6
NMTTP	64	0	1	B	0	M1
NMTTP	64	0	2	B	0	M1
NMTTP	64	0	2	E	1	M1
NMTTP	64	0	3	B	0	M1
NMTTP	64	0	3	E	0	M1
EXTAP	64	192	7
EXTAP	64	256	0
EXTAP	64	256	6
EXTAP	64	288	0
EXTAP	64	288	6
NMTHO	65	0	0	384	C	0	M1
NMTTP	67	0	0	E	0	M1
NMTTP	68	0	0	C	0	M1
NMTTP	69	0	4	E	0	M1
NMTTP	70	0	0	C	0	M1
NMTTP	70	192	6	E	0	M1
NMTTP	70	288	5	E	0	M1
NMTTP	71	0	4	A	0	M1
NMTTP	71	192	2	E	0	M1
NMTTP	71	288	3	E	0	M1
NMTTP	72	0	3	A	0	M1
NMTTP	72	192	4	E	0	M1
NMTTP	72	192	4	D	0	M1
NMTHO	73	0	0	192	C	0	M1
NMTTP	73	0	2	B	0	M1
NMTTP	73	0	5	B	0	M1
NMSTR	74	0	0
NMSCR	74	0	0	96	96	3
NMSTR	74	192	7
NMSCL	74	192	7	96	96	4
NMHLD	75	0	2	96
NMTAP	75	96	3
NMTAP	75	192	2
NMTAP	75	192	3
NMTAP	75	288	1
NMTAP	76	0	0
NMSTR	76	0	7
NMSCL	76	0	7	96	96	4
NMSTR	76	192	3
NMSCL	76	192	3	96	96	0
NMHLD	77	0	6	96
NMTAP	77	96	7
NMTAP	77	192	5
NMTAP	77	288	3
NMTAP	77	288	4
NMSTR	78	0	2
NMSI_	78	0	2	96	96	7
NMSTR	78	192	6
NMSI_	78	192	6	96	96	3
NMHLD	79	0	1	96
NMTAP	79	96	3
NMTAP	79	192	2
NMTAP	79	192	3
NMTAP	79	288	1
NMTAP	79	288	2
NMTAP	80	0	0
NMSTR	80	0	1
NMSI_	80	0	1	96	96	5
NMSTR	80	192	7
NMSI_	80	192	7	96	96	3
NMTAP	81	0	1
NMTAP	81	48	1
NMTAP	81	96	1
NMTAP	81	192	2
NMTAP	81	192	3
NMSTR	81	288	3
BRSCL	81	288	3	96	384	4
NMTAP	81	288	4
NMTAP	83	192	3
NMTAP	83	192	4
NMTAP	83	288	2
NMTAP	83	288	5
NMHLD	84	0	1	96
BRTAP	84	0	3
NMTAP	84	96	0
NMTAP	84	192	6
NMTAP	84	240	5
NMTAP	84	288	2
NMTAP	84	288	4
NMTAP	85	0	3
NMHLD	85	0	5	96
NMTAP	85	96	7
NMTAP	85	192	1
NMTAP	85	240	2
NMTAP	85	288	3
NMTAP	85	288	5
NMHLD	86	0	6	96
NMTAP	86	96	7
NMHLD	86	144	7	96
NMTAP	86	240	0
NMHLD	86	288	0	96
NMTAP	87	0	1
NMHLD	87	48	1	96
NMTAP	87	144	3
NMTAP	87	192	3
NMTAP	87	288	2
NMTAP	87	288	4
NMTTP	88	0	0	B	0	M1
NMTTP	88	0	1	B	0	M1
NMTTP	88	0	1	E	0	M1
NMTTP	88	192	6	B	0	M1
NMTTP	88	192	7	B	0	M1
NMTTP	88	192	7	E	0	M1
NMTHO	89	0	0	192	C	0	M1
NMTTP	89	0	2	B	0	M1
NMTTP	89	0	5	B	0	M1
EXTAP	89	288	0
EXTAP	89	288	7
NMTAP	90	0	6
NMTAP	90	48	6
NMTAP	90	96	7
NMTAP	90	192	0
NMTAP	90	192	5
NMTAP	90	288	2
NMTAP	90	288	3
NMTAP	91	0	1
NMTAP	91	48	1
NMTAP	91	96	0
NMTAP	91	192	2
NMTAP	91	192	7
NMTAP	91	288	4
NMTAP	91	288	5
NMSTR	92	0	6
NMSCR	92	0	6	96	96	0
NMSTR	92	192	4
NMSCL	92	192	4	96	96	2
NMSTR	93	0	5
NMSI_	93	0	5	96	96	0
CNSI_	93	192	0	0	96	3
NMSTR	94	0	1
NMSI_	94	0	1	96	96	5
NMSTR	94	192	0
NMSI_	94	192	0	96	96	6
NMSTR	95	0	2
NMSI_	95	0	2	96	96	5
CNSI_	95	192	5	0	96	7
NMHLD	96	0	0	96
NMHLD	96	0	1	96
NMTAP	96	192	0
NMTAP	96	192	1
NMTAP	96	288	0
NMTAP	96	288	7
NMHLD	97	0	6	96
NMHLD	97	0	7	96
NMTAP	97	192	5
NMTAP	97	192	6
NMTAP	97	288	4
NMTAP	97	288	5
NMHLD	98	0	3	96
NMHLD	98	0	6	96
NMHLD	98	144	3	96
NMHLD	98	144	6	96
NMHLD	98	288	1	96
NMHLD	98	288	4	96
NMHLD	99	48	1	96
NMHLD	99	48	4	96
NMTAP	99	192	2
NMTAP	99	192	3
NMSTR	99	288	3
NMSXR	99	288	3	96	384	7
NMSTR	99	288	4
NMSXL	99	288	4	96	384	0
NMTAP	101	288	1
NMTAP	101	288	6
NMTAP	101	336	1
NMTAP	101	336	6
BRTAP	102	0	1
BRTAP	102	0	6
EXSTR	102	96	2
NMSI_	102	96	2	96	48	0
EXSTR	102	96	3
NMSI_	102	96	3	96	48	7
EXSTR	102	288	0
NMSI_	102	288	0	96	48	4
EXSTR	102	288	7
NMSI_	102	288	7	96	48	5
EXSTR	103	96	4
NMSI_	103	96	4	96	48	1
EXSTR	103	96	5
NMSI_	103	96	5	96	48	0
BRTAP	103	288	2
BRTAP	103	288	7
NMTAP	104	0	2
NMTAP	104	48	3
NMTAP	104	96	4
NMTAP	104	144	5
NMTAP	104	192	2
NMTAP	104	240	3
NMTAP	104	288	4
NMTAP	104	336	5
EXSTR	105	0	6
NMSI_	105	0	6	96	48	4
EXSTR	105	0	7
NMSI_	105	0	7	96	48	3
EXSTR	105	192	3
NMSI_	105	192	3	96	48	1
EXSTR	105	192	4
NMSI_	105	192	4	96	48	0
BRTAP	106	0	6
BRTAP	106	0	7
NMTAP	106	96	0
NMTAP	106	96	5
BRTAP	106	144	0
BRTAP	106	144	5
NMTAP	106	240	2
NMTAP	106	240	7
BRTAP	106	288	2
BRTAP	106	288	7
NMTAP	107	0	4
NMTAP	107	0	5
BRTAP	107	48	4
BRTAP	107	48	5
NMTAP	107	144	2
NMTAP	107	144	3
BRTAP	107	192	2
BRTAP	107	192	3
BRTAP	107	288	0
BRTAP	107	288	7
NMSTR	108	0	1
NMSI_	108	0	1	96	48	5
NMSTR	108	96	0
NMSI_	108	96	0	96	48	4
NMTAP	108	192	2
NMTAP	108	288	3
NMTAP	108	288	5
NMSTR	109	0	6
NMSI_	109	0	6	96	48	2
NMSTR	109	96	7
NMSI_	109	96	7	96	48	3
NMTAP	109	192	5
NMTAP	109	288	2
NMTAP	109	288	4
NMHLD	110	0	1	96
NMTAP	110	96	0
NMTAP	110	144	7
NMHLD	110	192	6	96
NMTAP	110	288	4
NMTAP	111	0	3
NMTAP	111	0	4
NMTAP	111	96	1
NMTAP	111	96	3
NMTAP	111	192	0
NMTAP	111	192	7
BRTAP	111	288	1
BRTAP	111	288	6
NMTAP	112	0	2
NMTAP	112	48	2
NMTAP	112	96	4
NMTAP	112	144	4
NMTAP	112	192	3
NMTAP	112	240	3
NMTAP	112	288	5
NMTAP	112	336	5
NMTAP	113	0	1
NMTAP	113	48	1
NMTAP	113	96	7
NMTAP	113	144	7
NMTAP	113	192	0
NMTAP	113	240	0
NMTAP	113	288	0
NMTAP	113	288	7
BRTAP	114	0	2
BRTAP	114	0	5
NMTAP	114	96	4
NMTAP	114	96	6
BRTAP	114	144	4
BRTAP	114	144	6
BRTAP	114	240	0
BRTAP	114	240	1
BRTAP	114	336	3
BRTAP	114	336	4
NMTAP	115	48	6
NMTAP	115	96	5
NMTAP	115	96	7
BRTAP	115	144	5
BRTAP	115	144	7
BRTAP	115	240	3
BRTAP	115	240	4
NMTAP	115	336	0
NMTAP	115	336	2
BRSTR	116	0	0
NMSCL	116	0	0	96	288	3
BRHLD	116	0	2	384

T_REC_TAP	251
T_REC_BRK	54
T_REC_XTP	22
T_REC_BXX	2
T_REC_HLD	72
T_REC_XHO	2
T_REC_BHO	1
T_REC_BXH	0
T_REC_STR	49
T_REC_BST	3
T_REC_XST	10
T_REC_XBS	0
T_REC_TTP	46
T_REC_THO	4
T_REC_SLD	61
T_REC_BSL	1
T_REC_ALL	578
T_NUM_TAP	378
T_NUM_BRK	61
T_NUM_HLD	78
T_NUM_SLD	61
T_NUM_ALL	578
T_JUDGE_TAP	437
T_JUDGE_HLD	263
T_JUDGE_SLD	62
T_JUDGE_ALL	762
TTM_EACHPAIRS	141
TTM_SCR_TAP	189000
TTM_SCR_BRK	158600
TTM_SCR_HLD	78000
TTM_SCR_SLD	91500
TTM_SCR_ALL	517100
TTM_SCR_S	495700
TTM_SCR_SS	511000
TTM_RAT_ACV	10119

