VERSION	0.00.00	1.05.00
FES_MODE	0
BPM_DEF	184.000	184.000	184.000	184.000
MET_DEF	4	4
RESOLUTION	384
CLK_DEF	384
COMPATIBLE_CODE	MA2

BPM	0	0	184.000
MET	0	0	4	4

NMSTR	1	0	1
NMSI_	1	0	1	96	288	4
NMSTR	3	0	6
NMSI_	3	0	6	96	288	3
NMSTR	5	0	1
NMSI_	5	0	1	96	288	5
NMSTR	7	0	6
NMSI_	7	0	6	96	288	2
NMSTR	9	0	0
NMSI_	9	0	0	96	288	4
NMSTR	11	0	5
NMSI_	11	0	5	96	288	0
NMSTR	13	0	1
NMSI_	13	0	1	96	288	5
NMSTR	15	0	7
NMSI_	15	0	7	96	288	3
NMTAP	17	0	4
NMTAP	17	96	4
NMTAP	17	192	5
NMTAP	18	0	6
NMTAP	18	96	6
NMTAP	18	192	7
NMTAP	19	0	0
NMTAP	19	96	0
NMTAP	19	192	1
NMTAP	20	0	2
NMTAP	20	96	2
NMTAP	20	192	2
NMTAP	20	192	3
NMTAP	21	0	3
NMTAP	21	96	3
NMTAP	21	192	2
NMTAP	22	0	1
NMTAP	22	96	1
NMTAP	22	192	0
NMTAP	23	0	7
NMTAP	23	96	7
NMTAP	23	192	6
NMTAP	24	0	5
NMTAP	24	96	5
NMTAP	24	192	4
NMTAP	24	192	5
NMTAP	25	0	5
NMTAP	25	96	5
NMTAP	25	192	4
NMTAP	25	192	5
NMTAP	26	0	6
NMTAP	26	96	6
NMTAP	26	192	6
NMTAP	26	192	7
NMTAP	27	0	0
NMTAP	27	96	0
NMTAP	27	192	0
NMTAP	27	192	1
NMTAP	28	0	2
NMTAP	28	0	3
NMTAP	28	96	2
NMTAP	28	96	3
NMTAP	28	192	2
NMTAP	28	192	3
NMTAP	29	0	2
NMTAP	29	96	2
NMTAP	29	192	2
NMTAP	29	192	3
NMTAP	30	0	1
NMTAP	30	96	1
NMTAP	30	192	0
NMTAP	30	192	1
NMTAP	31	0	7
NMTAP	31	96	7
NMTAP	31	192	6
NMTAP	31	192	7
NMTAP	32	0	4
NMTAP	32	0	5
NMTAP	32	96	4
NMTAP	32	96	5
NMTAP	32	192	4
NMTAP	32	192	5
NMHLD	33	0	6	192
NMHLD	33	192	7	192
NMHLD	34	0	0	192
NMTAP	34	192	1
NMHLD	35	0	1	192
NMHLD	35	192	0	192
NMHLD	36	0	7	192
NMTAP	36	192	6
NMHLD	37	0	5	192
NMHLD	37	192	4	192
NMHLD	38	0	3	192
NMTAP	38	192	2
NMHLD	39	0	2	192
NMHLD	39	192	3	192
NMHLD	40	0	4	192
NMTAP	40	192	5
NMTTP	41	0	6	B	0	L1
NMTTP	41	96	5	B	0	L1
NMTTP	41	192	4	B	0	L1
NMTTP	42	0	1	B	0	L1
NMTTP	42	96	2	B	0	L1
NMTTP	42	192	3	B	0	L1
NMTTP	43	0	6	B	0	L1
NMTTP	43	96	5	B	0	L1
NMTTP	43	192	4	B	0	L1
NMTTP	43	288	3	B	0	L1
NMTTP	44	0	2	B	0	L1
NMTTP	44	96	1	B	0	L1
NMTTP	44	192	0	C	0	L1
NMTTP	45	0	0	B	0	L1
NMTTP	45	96	1	B	0	L1
NMTTP	45	192	2	B	0	L1
NMTTP	45	192	3	B	0	L1
NMTTP	46	0	7	B	0	L1
NMTTP	46	96	6	B	0	L1
NMTTP	46	192	4	B	0	L1
NMTTP	46	192	5	B	0	L1
NMTTP	47	0	1	B	0	L1
NMTTP	47	96	2	B	0	L1
NMTTP	47	192	3	B	0	L1
NMTTP	47	288	4	B	0	L1
NMTTP	48	0	0	C	1	L1
NMTAP	49	0	1
NMTAP	49	96	1
NMTAP	49	192	0
NMTAP	49	288	0
NMTAP	50	0	7
NMTAP	50	96	7
NMTAP	50	192	6
NMTAP	50	192	7
NMTAP	51	0	5
NMTAP	51	96	5
NMTAP	51	192	6
NMTAP	51	288	6
NMTAP	52	0	7
NMTAP	52	96	7
NMTAP	52	192	0
NMTAP	52	192	1
NMTAP	53	0	1
NMTAP	53	96	1
NMTAP	53	192	2
NMTAP	53	288	2
NMTAP	54	0	3
NMTAP	54	96	3
NMTAP	54	192	4
NMTAP	54	192	5
NMTAP	55	0	6
NMTAP	55	96	6
NMTAP	55	192	5
NMTAP	55	288	5
NMTAP	56	0	4
NMTAP	56	96	4
NMTAP	56	192	2
NMTAP	56	192	3
NMTAP	57	0	2
NMTAP	57	96	2
NMTAP	57	192	1
NMTAP	57	288	1
NMTAP	58	0	0
NMTAP	58	96	0
NMTAP	58	192	6
NMTAP	58	192	7
NMTAP	58	288	6
NMTAP	58	288	7
NMTAP	59	0	5
NMTAP	59	96	5
NMTAP	59	192	6
NMTAP	59	288	6
NMTAP	60	0	7
NMTAP	60	96	7
NMTAP	60	192	0
NMTAP	60	192	1
NMTAP	61	0	1
NMTAP	61	96	1
NMTAP	61	192	2
NMTAP	61	288	2
NMTAP	62	0	3
NMTAP	62	96	3
NMTAP	62	192	4
NMTAP	62	192	5
NMTAP	62	288	4
NMTAP	62	288	5
NMTAP	63	0	6
NMTAP	63	96	6
NMTAP	63	192	5
NMTAP	63	288	5
NMTAP	64	0	4
NMTAP	64	96	4
NMTAP	64	192	2
NMTAP	64	192	3
NMHLD	65	0	3	384
NMHLD	65	0	4	384
NMSTR	67	0	2
NMSUR	67	0	2	96	480	5
NMSTR	69	0	6
NMSUL	69	0	6	96	480	3
NMSTR	71	0	1
NMSXR	71	0	1	96	672	4
NMHLD	74	0	5	192
NMTAP	74	192	4
NMTAP	75	0	5
NMTAP	75	96	5
NMTAP	75	192	4
NMTAP	75	192	5
NMHLD	76	0	6	192
NMTAP	76	192	7
NMTAP	77	0	6
NMTAP	77	96	6
NMTAP	77	192	6
NMTAP	77	192	7
NMHLD	78	0	1	192
NMTAP	78	192	0
NMTAP	79	0	1
NMTAP	79	96	1
NMTAP	79	192	0
NMTAP	79	192	1
NMHLD	80	0	2	192
NMTAP	80	192	3
NMTAP	81	0	2
NMTAP	81	96	2
NMTAP	81	192	2
NMTAP	81	192	3
NMSTR	82	0	3
NMSUR	82	0	3	96	480	4
NMTAP	84	0	5
NMTAP	84	96	5
NMTAP	84	192	5
NMTAP	84	288	4
NMTAP	84	288	5
NMTAP	85	0	6
NMTAP	85	96	6
NMTAP	85	192	6
NMTAP	85	288	6
NMTAP	85	288	7
NMTAP	86	0	0
NMTAP	86	96	0
NMTAP	86	192	0
NMTAP	86	288	0
NMTAP	86	288	1
NMTAP	87	0	2
NMTAP	87	0	3
NMTAP	87	96	2
NMTAP	87	96	3
NMTAP	87	192	2
NMTAP	87	192	3
NMTAP	88	0	2
NMTAP	88	96	2
NMTAP	88	192	2
NMTAP	88	288	2
NMTAP	88	288	3
NMTAP	89	0	1
NMTAP	89	96	1
NMTAP	89	192	1
NMTAP	89	288	0
NMTAP	89	288	1
NMTAP	90	0	7
NMTAP	90	96	7
NMTAP	90	192	7
NMTAP	90	288	6
NMTAP	90	288	7
NMTAP	91	0	4
NMTAP	91	0	5
NMTAP	91	96	4
NMTAP	91	96	5
NMTAP	91	192	4
NMTAP	91	192	5
NMTAP	92	0	5
NMTAP	92	96	5
NMTAP	92	192	6
NMTAP	92	192	7
NMTAP	92	288	6
NMTAP	92	288	7
NMTAP	93	0	0
NMTAP	93	96	0
NMTAP	93	192	0
NMTAP	93	192	1
NMTAP	94	0	2
NMTAP	94	96	2
NMTAP	94	192	0
NMTAP	94	192	1
NMTAP	94	288	0
NMTAP	94	288	1
NMTAP	95	0	7
NMTAP	95	96	7
NMTAP	95	192	6
NMTAP	95	192	7
NMTAP	96	0	6
NMTAP	96	96	6
NMTAP	96	192	4
NMTAP	96	192	5
NMTAP	96	288	4
NMTAP	96	288	5
NMTAP	97	0	3
NMTAP	97	96	3
NMTAP	97	192	2
NMTAP	97	192	3
NMTAP	98	0	1
NMTAP	98	96	1
NMTAP	98	192	2
NMTAP	98	192	3
NMTAP	98	288	2
NMTAP	98	288	3
NMTAP	99	0	4
NMTAP	99	96	4
BRTAP	99	192	4
BRTAP	99	192	5
NMSTR	100	0	3
NMSI_	100	0	3	96	288	0
NMSTR	100	0	4
NMSI_	100	0	4	96	288	7
NMTAP	102	0	1
NMTAP	102	96	1
NMTAP	102	192	0
NMTAP	102	192	1
NMTAP	102	288	0
NMTAP	102	288	1
NMTAP	103	0	2
NMTAP	103	96	2
NMTAP	103	192	2
NMTAP	103	192	3
NMTAP	103	288	2
NMTAP	103	288	3
NMTAP	104	0	4
NMTAP	104	96	4
NMTAP	104	192	4
NMTAP	104	192	5
NMTAP	104	288	4
NMTAP	104	288	5
NMTAP	105	0	6
NMTAP	105	0	7
NMTAP	105	96	6
NMTAP	105	96	7
NMTAP	105	192	6
NMTAP	105	192	7
NMHLD	106	0	1	192
NMTAP	106	192	0
NMHLD	107	0	6	192
NMTAP	107	192	7
NMTAP	108	0	6
NMTAP	108	96	6
NMTAP	108	192	6
NMTAP	108	192	7
NMTAP	108	288	6
NMTAP	108	288	7
NMTAP	109	0	5
NMTAP	109	96	5
NMTAP	109	192	4
NMTAP	109	192	5
NMTAP	109	288	4
NMTAP	109	288	5
NMTAP	110	0	3
NMTAP	110	96	3
NMTAP	110	192	2
NMTAP	110	192	3
NMTAP	110	288	2
NMTAP	110	288	3
NMTAP	111	0	0
NMTAP	111	0	1
NMTAP	111	96	0
NMTAP	111	96	1
NMTAP	111	192	0
NMTAP	111	192	1
NMTAP	112	0	0
NMTAP	112	96	1
NMTAP	112	192	2
NMTAP	112	288	3
NMTAP	113	0	4
NMTAP	113	96	5
NMTAP	113	192	6
NMTAP	113	192	7
NMTAP	114	0	7
NMTAP	114	96	6
NMTAP	114	192	5
NMTAP	114	288	4
NMTAP	115	0	3
NMTAP	115	96	2
NMTAP	115	192	0
NMTAP	115	192	1
NMSTR	116	0	0
NMSCR	116	0	0	96	288	3
NMSTR	116	0	7
NMSCL	116	0	7	96	288	4

T_REC_TAP	300
T_REC_BRK	2
T_REC_XTP	0
T_REC_BXX	0
T_REC_HLD	20
T_REC_XHO	0
T_REC_BHO	0
T_REC_BXH	0
T_REC_STR	16
T_REC_BST	0
T_REC_XST	0
T_REC_XBS	0
T_REC_TTP	26
T_REC_THO	0
T_REC_SLD	16
T_REC_BSL	0
T_REC_ALL	380
T_NUM_TAP	342
T_NUM_BRK	2
T_NUM_HLD	20
T_NUM_SLD	16
T_NUM_ALL	380
T_JUDGE_TAP	344
T_JUDGE_HLD	88
T_JUDGE_SLD	16
T_JUDGE_ALL	448
TTM_EACHPAIRS	75
TTM_SCR_TAP	171000
TTM_SCR_BRK	5200
TTM_SCR_HLD	20000
TTM_SCR_SLD	24000
TTM_SCR_ALL	220200
TTM_SCR_S	213400
TTM_SCR_SS	220000
TTM_RAT_ACV	10009

