VERSION	0.00.00	1.05.00
FES_MODE	0
BPM_DEF	184.000	184.000	184.000	184.000
MET_DEF	4	4
RESOLUTION	384
CLK_DEF	384
COMPATIBLE_CODE	MA2

BPM	0	0	184.000
MET	0	0	4	4

NMTAP	1	0	3
NMTAP	2	0	3
NMTAP	3	0	3
NMTAP	5	0	4
NMTAP	6	0	4
NMTAP	7	0	4
EXTAP	8	0	3
EXTAP	8	0	4
NMTAP	9	0	4
NMTAP	9	192	4
NMTAP	10	0	5
NMTAP	11	0	6
NMTAP	11	192	6
NMTAP	12	0	7
NMTAP	13	0	0
NMTAP	13	192	0
NMTAP	14	0	1
NMTAP	15	0	2
NMTAP	15	192	2
EXTAP	16	0	3
EXTAP	16	0	4
NMTAP	17	0	3
NMTAP	17	192	3
NMTAP	18	0	2
NMTAP	18	192	2
NMTAP	19	0	1
NMTAP	19	192	1
NMTAP	20	0	0
NMTAP	20	0	1
NMTAP	21	0	7
NMTAP	21	192	7
NMTAP	22	0	6
NMTAP	22	192	6
NMTAP	23	0	5
NMTAP	23	192	5
NMTAP	24	0	4
NMTAP	24	0	5
NMTAP	25	0	4
NMTAP	25	192	4
NMTAP	26	0	5
NMTAP	26	192	5
NMTAP	27	0	6
NMTAP	27	192	6
NMTAP	28	0	6
NMTAP	28	0	7
NMTAP	29	0	0
NMTAP	29	192	0
NMTAP	30	0	1
NMTAP	30	192	1
NMTAP	31	0	2
NMTAP	31	192	2
NMTAP	32	0	2
NMTAP	32	0	3
NMHLD	33	0	2	288
NMHLD	33	0	3	288
NMHLD	35	0	0	288
NMHLD	35	0	1	288
NMHLD	37	0	6	288
NMHLD	37	0	7	288
NMHLD	39	0	4	288
NMHLD	39	0	5	288
NMTTP	41	0	4	B	0	L1
NMTTP	42	0	3	B	0	L1
NMTTP	43	0	5	B	0	L1
NMTTP	44	0	2	B	0	L1
NMTTP	45	0	6	B	0	L1
NMTTP	46	0	1	B	0	L1
NMTTP	47	0	0	C	1	L1
BRTAP	49	0	0
NMTAP	49	96	0
NMTAP	49	192	0
NMTAP	50	0	1
NMTAP	50	192	1
NMTAP	51	0	2
NMTAP	51	96	2
NMTAP	51	192	2
NMTAP	52	0	2
NMTAP	52	0	3
NMTAP	53	0	4
NMTAP	53	96	4
NMTAP	53	192	4
NMTAP	54	0	5
NMTAP	54	192	5
EXTAP	55	0	6
EXTAP	55	96	6
EXTAP	55	192	6
NMTAP	56	0	6
NMTAP	56	0	7
NMTAP	57	0	7
NMTAP	57	96	7
NMTAP	57	192	7
NMTAP	58	0	6
NMTAP	58	192	6
NMTAP	59	0	5
NMTAP	59	96	5
NMTAP	59	192	5
NMTAP	60	0	4
NMTAP	60	192	3
NMTAP	60	192	4
NMTAP	61	0	3
NMTAP	61	96	3
NMTAP	61	192	3
NMTAP	62	0	2
NMTAP	62	192	2
EXTAP	63	0	1
EXTAP	63	96	1
EXTAP	63	192	1
NMTAP	64	0	0
NMTAP	64	192	0
BRTAP	65	0	0
BRTAP	65	0	7
NMSTR	66	0	0
NMSI_	66	0	0	96	288	4
NMSTR	68	0	5
NMSI_	68	0	5	96	288	0
NMSTR	70	0	1
NMSI_	70	0	1	96	288	5
NMSTR	72	0	6
NMSI_	72	0	6	96	288	2
NMHLD	74	0	0	384
NMHLD	74	0	1	384
NMHLD	76	0	2	384
NMHLD	76	0	3	384
NMHLD	78	0	4	384
NMHLD	78	0	5	384
NMHLD	80	0	6	384
NMHLD	80	0	7	384
NMHLD	82	0	0	384
NMHLD	82	0	7	384
BRTAP	84	0	7
NMTAP	84	96	7
NMTAP	84	192	7
NMTAP	85	0	6
NMTAP	85	96	6
NMTAP	85	192	6
NMTAP	86	0	5
NMTAP	86	96	5
NMTAP	86	192	5
NMTAP	87	0	4
NMTAP	87	0	5
NMTAP	87	192	4
NMTAP	87	192	5
NMHLD	88	0	2	384
NMHLD	88	0	3	384
EXTAP	89	192	2
EXTAP	89	192	3
NMTAP	90	0	1
NMTAP	90	96	1
NMTAP	90	192	1
NMTAP	91	0	0
NMTAP	91	0	1
NMTAP	91	192	0
NMTAP	91	192	1
NMTAP	92	0	0
NMTAP	92	96	0
NMTAP	92	192	0
NMTAP	93	0	1
NMTAP	93	96	1
NMTAP	93	192	1
NMTAP	94	0	2
NMTAP	94	96	2
NMTAP	94	192	2
NMTAP	95	0	3
NMTAP	95	96	3
NMTAP	95	192	3
NMTAP	95	192	4
NMTAP	96	0	4
NMTAP	96	96	4
NMTAP	96	192	4
NMTAP	97	0	5
NMTAP	97	96	5
NMTAP	97	192	5
EXTAP	98	0	6
EXTAP	98	96	6
EXTAP	98	192	6
EXTAP	99	0	0
EXTAP	99	0	7
EXTAP	100	0	0
EXTAP	100	0	7
EXTAP	100	192	0
EXTAP	100	192	7
EXTAP	101	0	0
EXTAP	101	0	7
BRTAP	102	0	6
NMTAP	102	96	6
NMTAP	102	192	6
NMTAP	102	288	6
NMTAP	103	0	5
NMTAP	103	96	5
NMTAP	103	192	4
NMTAP	103	192	5
NMTAP	104	0	3
NMTAP	104	96	3
NMTAP	104	192	3
NMTAP	104	288	3
NMTAP	105	0	2
NMTAP	105	96	2
NMTAP	105	192	2
NMTAP	105	192	3
EXTAP	106	0	1
EXTAP	106	96	1
EXTAP	106	192	1
EXTAP	106	288	1
EXTAP	107	0	0
EXTAP	107	96	0
EXTAP	107	192	0
EXTAP	107	192	7
NMTAP	108	0	0
NMTAP	108	96	0
NMTAP	108	192	0
NMTAP	108	288	0
NMTAP	109	0	1
NMTAP	109	96	1
NMTAP	109	192	0
NMTAP	109	192	1
NMTAP	110	0	2
NMTAP	110	96	2
NMTAP	110	192	2
NMTAP	110	288	2
NMTAP	111	0	3
NMTAP	111	96	3
NMTAP	111	192	3
NMTAP	111	192	4
NMTAP	112	0	4
NMTAP	112	96	4
NMTAP	112	192	4
NMTAP	112	288	4
NMTAP	113	0	5
NMTAP	113	96	5
NMTAP	113	192	4
NMTAP	113	192	5
EXTAP	114	0	6
EXTAP	114	96	6
EXTAP	114	192	6
EXTAP	114	288	6
EXTAP	115	0	7
EXTAP	115	96	7
EXTAP	115	192	0
EXTAP	115	192	7
NMHLD	116	0	0	384
NMHLD	116	0	7	384

T_REC_TAP	160
T_REC_BRK	5
T_REC_XTP	39
T_REC_BXX	0
T_REC_HLD	22
T_REC_XHO	0
T_REC_BHO	0
T_REC_BXH	0
T_REC_STR	4
T_REC_BST	0
T_REC_XST	0
T_REC_XBS	0
T_REC_TTP	7
T_REC_THO	0
T_REC_SLD	4
T_REC_BSL	0
T_REC_ALL	241
T_NUM_TAP	210
T_NUM_BRK	5
T_NUM_HLD	22
T_NUM_SLD	4
T_NUM_ALL	241
T_JUDGE_TAP	215
T_JUDGE_HLD	160
T_JUDGE_SLD	4
T_JUDGE_ALL	379
TTM_EACHPAIRS	38
TTM_SCR_TAP	105000
TTM_SCR_BRK	13000
TTM_SCR_HLD	22000
TTM_SCR_SLD	6000
TTM_SCR_ALL	146000
TTM_SCR_S	141150
TTM_SCR_SS	145500
TTM_RAT_ACV	10034

