VERSION	0.00.00	1.05.00
FES_MODE	0
BPM_DEF	112.500	225.000	225.000	112.500
MET_DEF	4	4
RESOLUTION	384
CLK_DEF	384
COMPATIBLE_CODE	MA2

BPM	0	0	112.500
BPM	23	0	225.000
MET	0	0	4	4

NMSTR	1	0	3
NMSUL	1	0	3	96	240	0
NMSTR	1	0	4
NMSCR	1	0	4	96	240	7
NMTHO	2	0	0	384	C	1	M1
NMTTP	3	0	0	E	0	M1
NMTTP	3	96	7	E	0	M1
NMTTP	3	192	5	B	0	M1
NMTTP	3	192	6	E	0	M1
NMTTP	3	264	4	E	0	M1
NMTTP	3	264	4	D	0	M1
NMTAP	3	336	2
NMTAP	3	360	2
NMHLD	4	0	1	72
NMTAP	4	72	3
NMTAP	4	96	3
NMTAP	4	144	2
NMTAP	4	144	4
NMHLD	4	192	2	96
NMHLD	4	192	4	96
NMTAP	4	336	1
NMTAP	4	336	3
NMHLD	5	0	2	144
NMTTP	5	72	4	E	0	M1
NMTTP	5	96	5	E	0	M1
NMTAP	5	144	6
NMHLD	5	192	5	264
NMTTP	5	288	4	B	0	M1
NMTTP	5	288	5	B	0	M1
NMHLD	6	0	3	72
NMTAP	6	144	4
NMTAP	6	192	4
NMTAP	6	264	3
NMTAP	6	336	2
NMSTR	7	0	2
NMSCR	7	0	2	96	96	5
NMSTR	7	192	6
NMSUL	7	192	6	96	96	1
NMSTR	8	0	0
NMSV_	8	0	0	96	96	7
NMSTR	8	192	6
NMSCL	8	192	6	96	96	3
NMSTR	9	0	2
NMSV_	9	0	2	96	96	1
NMSTR	9	192	0
NMSCL	9	192	0	96	96	5
NMSTR	10	0	4
NMSCL	10	0	4	96	144	0
NMTHO	10	192	0	192	C	1	M1
EXTAP	11	0	0
NMTAP	11	144	1
NMTAP	11	144	7
NMHLD	11	192	1	144
NMTAP	11	192	7
NMHLD	11	336	3	96
NMHLD	12	48	2	96
NMTAP	12	144	3
NMTAP	12	192	1
NMTAP	12	192	4
NMTAP	12	240	3
NMTAP	12	288	1
NMTAP	12	336	0
NMHLD	13	0	7	96
NMTAP	13	144	6
NMTAP	13	144	7
NMTAP	13	192	0
NMTAP	13	192	5
NMHLD	13	240	1	48
NMTAP	13	240	4
NMTAP	13	288	3
NMTAP	13	300	2
NMTAP	13	312	3
NMTAP	13	336	4
NMTAP	13	348	3
NMHLD	13	360	4	72
NMTAP	14	48	2
NMTAP	14	96	3
NMSTR	14	96	4
NMSI_	14	96	4	96	48	0
NMTAP	14	144	5
NMTAP	14	192	6
CNSCR	14	240	0	0	48	3
CNSI_	14	288	3	0	48	5
NMHLD	15	0	7	192
NMTAP	15	144	4
NMHLD	15	192	1	144
NMHLD	15	336	3	96
NMHLD	16	48	2	96
NMTAP	16	144	3
NMTAP	16	192	1
NMTAP	16	192	4
NMTAP	16	240	2
NMTAP	16	288	0
NMTAP	16	288	1
NMTAP	16	336	0
NMTAP	16	336	7
NMHLD	17	0	6	96
NMTAP	17	0	7
NMTAP	17	96	7
NMTAP	17	144	0
NMHLD	17	192	1	96
NMTAP	17	192	7
NMTAP	17	240	0
NMTAP	17	288	7
NMTAP	17	300	0
NMTAP	17	312	7
NMTAP	17	336	6
NMTAP	17	348	7
NMHLD	17	360	6	72
NMTAP	18	48	4
NMTAP	18	96	5
NMTAP	18	108	4
NMTAP	18	120	5
NMTAP	18	144	2
NMTAP	18	156	3
NMTAP	18	168	2
NMHLD	18	192	1	96
NMSTR	18	192	3
NMSI_	18	192	3	96	96	7
NMTAP	18	240	2
BXHLD	19	0	3	288
NMTAP	19	96	7
NMTAP	19	192	6
NMTAP	19	288	5
NMTAP	19	336	4
NMTAP	19	360	4
NMTAP	20	0	3
BXHLD	20	0	5	336
NMTAP	20	96	4
NMTAP	20	192	1
NMTAP	20	216	1
NMTAP	20	264	0
NMHLD	20	288	0	48
BRHLD	21	0	1	96
NMTAP	21	0	4
NMTAP	21	48	4
NMTAP	21	96	3
NMTAP	21	112	2
NMTAP	21	128	3
NMTAP	21	144	2
NMTAP	21	160	3
NMTAP	21	176	2
BRHLD	21	192	6	96
NMTAP	21	240	3
NMTAP	21	288	4
NMTAP	21	304	5
NMTAP	21	320	4
NMTAP	21	336	5
NMTAP	21	352	4
NMTAP	21	368	5
NMTAP	22	0	3
NMTAP	22	24	3
NMTAP	22	48	2
NMTAP	22	48	4
NMTAP	22	72	2
NMTAP	22	72	4
NMHLD	22	96	1	12
NMHLD	22	96	5	12
NMHLD	22	120	1	12
NMHLD	22	120	5	12
NMHLD	22	144	0	6
NMHLD	22	144	6	12
NMHLD	22	168	0	12
NMHLD	22	168	6	6
EXHLD	22	192	7	96
NMSTR	22	288	0
NMSI_	22	288	0	96	48	3
NMSI_	22	288	0	96	48	5
NMTAP	22	312	1
NMTAP	22	312	7
NMTAP	22	336	1
NMTAP	22	336	7
BXTAP	23	0	0
NMHLD	23	96	2	48
NMHLD	23	96	6	48
NMHLD	23	192	0	48
NMHLD	23	192	4	48
NMHLD	23	288	3	48
NMHLD	23	288	6	48
NMHLD	24	0	1	48
NMTTP	24	0	4	E	0	M1
NMTTP	24	96	3	E	0	M1
NMHLD	24	96	5	48
NMHLD	24	192	2	48
NMTTP	24	192	5	E	0	M1
NMTAP	24	288	1
NMTAP	24	288	7
NMTAP	24	336	1
NMTAP	24	336	7
BRTAP	25	0	2
BRTAP	25	0	6
NMTAP	25	96	5
NMTAP	25	128	3
NMTAP	25	160	4
NMTAP	25	192	2
NMTAP	25	224	4
NMTAP	25	256	3
NMTAP	25	288	6
NMTAP	25	320	4
NMTAP	25	352	5
NMTAP	26	0	2
NMTAP	26	32	2
NMTAP	26	64	4
NMTAP	26	96	1
NMTAP	26	128	1
NMTAP	26	160	5
NMTAP	26	192	0
NMTAP	26	224	0
NMTAP	26	256	6
NMSTR	26	288	7
NMSI_	26	288	7	96	48	3
BRTAP	27	0	0
BRTAP	27	0	7
NMHLD	27	96	1	48
NMHLD	27	96	5	48
NMHLD	27	192	3	48
NMHLD	27	192	7	48
NMHLD	27	288	0	48
NMHLD	27	288	4	48
NMTTP	28	0	4	E	0	M1
NMHLD	28	0	6	48
NMHLD	28	96	2	48
NMTTP	28	96	5	E	0	M1
NMTTP	28	192	3	E	0	M1
NMHLD	28	192	5	48
NMTAP	28	288	1
NMTAP	28	288	7
NMTAP	28	336	1
NMTAP	28	336	7
BRTAP	29	0	2
BRTAP	29	0	6
NMTAP	29	96	1
NMTAP	29	128	3
NMTAP	29	160	2
NMTAP	29	192	6
NMTAP	29	224	4
NMTAP	29	256	5
NMTAP	29	288	1
NMTAP	29	320	0
NMTAP	29	352	2
NMSTR	30	0	7
NMSCL	30	0	7	96	48	4
NMTAP	30	96	0
NMTAP	30	144	1
NMTAP	30	192	2
NMTAP	30	192	3
NMTAP	30	240	2
NMTAP	30	240	3
BRTAP	30	288	1
BRTAP	30	288	4
NMSTR	31	0	0
NMSI_	31	0	0	96	48	4
NMTAP	31	0	7
NMTAP	31	96	6
NMTAP	31	144	6
NMSTR	31	192	3
NMSI_	31	192	3	96	48	7
NMTAP	31	192	6
NMTAP	31	288	4
NMTAP	31	336	4
NMTAP	32	0	0
NMSTR	32	0	4
BRSI_	32	0	4	96	48	0
NMHLD	32	96	1	96
NMTAP	32	192	7
NMTAP	32	224	6
NMTAP	32	256	5
NMTAP	32	288	2
NMTAP	32	288	4
NMTAP	32	320	1
NMTAP	32	352	0
NMSTR	33	0	6
NMSI_	33	0	6	96	48	3
NMTAP	33	96	1
NMTAP	33	144	1
NMSTR	33	192	1
NMSI_	33	192	1	96	48	5
NMTAP	33	192	4
BRTAP	33	288	7
BRTAP	33	336	7
BRSTR	34	0	7
BRSI_	34	0	7	96	48	4
BRSTR	34	96	3
BRSI_	34	96	3	96	48	0
BRTAP	34	192	6
BRTAP	34	240	5
BXTAP	34	288	1
BRTAP	34	288	4
NMTAP	35	0	2
NMTAP	35	48	2
NMTAP	35	72	3
NMHLD	35	96	1	72
NMTAP	35	168	0
NMTAP	35	192	2
NMTAP	35	240	3
NMTAP	35	240	6
NMHLD	35	288	4	96
NMTAP	35	288	5
NMTAP	36	0	5
NMTAP	36	48	5
NMHLD	36	96	3	72
NMTAP	36	96	6
NMTAP	36	168	5
NMSTR	36	192	4
NMSCR	36	192	4	96	96	0
NMTAP	36	240	2
NMTAP	36	288	2
NMTTP	37	0	0	C	1	M1
NMTTP	38	0	0	A	0	M1
NMTTP	38	24	1	E	0	M1
NMTTP	38	48	2	E	0	M1
NMTTP	38	72	2	A	0	M1
NMTTP	38	96	6	A	0	M1
NMTTP	38	120	6	E	0	M1
NMTTP	38	144	5	E	0	M1
NMTTP	38	168	4	A	0	M1
EXTAP	38	192	2
EXTAP	38	216	3
EXTAP	38	240	2
BXSTR	38	288	1
NMSI_	38	288	1	96	48	5
BXTAP	38	288	4
NMSTR	39	0	6
NMSI_	39	0	6	96	48	0
NMSTR	39	96	4
NMSI_	39	96	4	96	48	2
NMSTR	39	192	5
NMSI_	39	192	5	96	48	7
NMSTR	39	288	1
NMSI_	39	288	1	96	48	3
NMSTR	40	0	0
NMSI_	40	0	0	96	48	6
NMSTR	40	96	4
NMSI_	40	96	4	96	48	2
NMTAP	40	192	5
EXSTR	40	288	1
NMSCR	40	288	1	96	96	4
NMTAP	40	288	7
NMSTR	41	0	4
NMSCR	41	0	4	96	96	7
NMSTR	41	96	7
NMSCR	41	96	7	96	96	2
NMTAP	41	192	2
NMHLD	41	288	4	96
NMTAP	42	0	3
NMTAP	42	24	5
NMTAP	42	48	3
NMTAP	42	72	5
NMTAP	42	96	3
NMTAP	42	144	6
NMTAP	42	192	1
NMTAP	42	240	4
NMTAP	42	288	0
NMHLD	42	288	3	96
NMSTR	43	0	2
NMSI_	43	0	2	96	48	0
NMSTR	43	96	4
NMSI_	43	96	4	96	48	6
NMSTR	43	192	3
NMSI_	43	192	3	96	48	1
NMSTR	43	288	7
NMSI_	43	288	7	96	48	5
NMSTR	44	0	0
NMSI_	44	0	0	96	48	2
NMSTR	44	96	4
NMSI_	44	96	4	96	48	6
NMHLD	44	192	3	96
EXSTR	44	288	7
NMSCL	44	288	7	96	96	4
NMSTR	45	0	4
NMSCL	45	0	4	96	96	1
NMSTR	45	96	1
NMSCL	45	96	1	96	96	6
NMTAP	45	192	6
NMTAP	45	288	4
NMTAP	46	0	3
NMTAP	46	0	5
NMTAP	46	48	3
NMTAP	46	48	5
NMSTR	46	96	3
NMSI_	46	96	3	96	48	1
NMSTR	46	96	5
NMSI_	46	96	5	96	48	3
EXTAP	46	288	0
NMTAP	47	0	1
NMTAP	47	0	4
NMTAP	47	48	1
NMTAP	47	96	1
NMTAP	47	96	4
NMTAP	47	144	1
NMTAP	47	192	1
NMTAP	47	192	3
NMTAP	47	240	1
NMTAP	47	288	1
NMTAP	47	288	3
NMTAP	47	336	1
NMTAP	48	0	1
NMTAP	48	0	2
NMTAP	48	48	1
NMTAP	48	96	0
NMTAP	48	96	1
NMTAP	48	144	1
NMHLD	48	192	2	48
NMHLD	48	192	3	48
NMHLD	48	288	3	48
NMHLD	48	288	4	48
NMTAP	49	0	4
NMTAP	49	0	5
NMTAP	49	48	5
NMTAP	49	96	4
NMTAP	49	96	5
NMTAP	49	144	5
NMTAP	49	192	5
NMTAP	49	192	7
NMTAP	49	240	5
NMTAP	49	288	5
NMTAP	49	288	7
NMTAP	49	336	5
NMTAP	50	0	2
NMTAP	50	0	5
NMTAP	50	48	5
BRTAP	50	96	0
BRTAP	50	96	4
NMTAP	50	192	2
NMTAP	50	192	7
NMTAP	50	240	3
NMTAP	50	240	6
BRTAP	50	288	4
BRTAP	50	288	5
NMTAP	51	0	3
NMTAP	51	0	6
NMTAP	51	48	3
NMTAP	51	96	0
NMTAP	51	96	3
NMTAP	51	144	3
NMTAP	51	192	3
NMTAP	51	192	7
NMTAP	51	240	3
NMTAP	51	288	2
NMTAP	51	288	4
NMTAP	51	336	2
NMTAP	51	336	4
NMSTR	52	0	1
NMSI_	52	0	1	96	48	3
NMSTR	52	48	1
NMSI_	52	48	1	96	48	7
NMSTR	52	192	6
NMSI_	52	192	6	96	48	4
NMSTR	52	240	6
NMSI_	52	240	6	96	48	0
EXTAP	53	0	3
EXHLD	53	48	3	48
NMTAP	53	96	0
NMTAP	53	144	1
EXTAP	53	192	2
EXHLD	53	240	2	48
NMTAP	53	288	7
NMTAP	54	0	6
NMTAP	54	32	4
NMTAP	54	64	5
NMTAP	54	96	1
NMTAP	54	128	3
NMTAP	54	160	2
BRTAP	54	192	7
BRTAP	54	264	0
BRTAP	54	264	6
BRTAP	54	336	2
BRHLD	54	336	3	576
NMTAP	57	0	2
NMTAP	57	24	3
NMTAP	57	48	2
NMTAP	57	96	5
NMTAP	57	120	4
NMTAP	57	144	5
NMTAP	57	192	0
NMTAP	57	216	7
NMTAP	57	240	0
NMTAP	57	288	2
NMTAP	57	288	3
NMTAP	57	336	3
NMTAP	57	336	4
NMTAP	58	0	4
NMTAP	58	0	5
NMTAP	58	48	3
NMTAP	58	48	6
NMTAP	58	96	3
NMTAP	58	96	6
NMTAP	58	144	2
NMTAP	58	144	7
NMTAP	58	192	2
NMTAP	58	192	7
NMTAP	58	240	1
NMTAP	58	264	0
NMTAP	58	288	1
NMTAP	58	312	0
NMTAP	58	336	1
NMTAP	58	360	0
NMTAP	59	0	1
NMTAP	59	24	2
NMTAP	59	48	3
NMTAP	59	72	4
NMTAP	59	96	5
NMTAP	59	120	6
NMTAP	59	144	7
NMTAP	59	168	0
NMTAP	59	192	1
NMTAP	59	216	2
NMTAP	59	240	3
NMTAP	59	264	4
NMTAP	59	288	5
NMTAP	59	312	6
NMTAP	59	336	7
NMTAP	59	360	0
NMTTP	60	0	0	C	1	M1
BXSTR	60	0	1
NMSUR	60	0	1	96	480	4
CNSUR	61	192	4	0	576	7
CNSI_	63	0	7	0	192	2
NMHLD	64	0	2	384
NMTAP	64	0	4
NMTTP	64	288	2	B	0	M1
NMTTP	64	288	3	B	0	M1
NMHLD	65	0	5	384
NMTTP	65	288	4	B	0	M1
NMTTP	65	288	5	B	0	M1
NMTHO	66	0	0	384	C	0	M1
NMTAP	67	0	7
NMSTR	67	96	7
NMSCL	67	96	7	96	96	4
NMSCR	67	96	7	96	96	2
NMTTP	68	0	0	C	1	M1
BXHLD	68	0	1	192
NMHLD	68	192	0	192
NMHLD	69	0	7	192
NMTAP	69	192	6
NMTAP	69	288	5
NMTAP	69	312	4
NMTAP	69	336	5
NMTAP	69	360	4
BXHLD	70	0	5	192
NMHLD	70	192	7	192
NMTAP	71	0	6
NMTAP	71	48	6
NMTAP	71	48	7
NMTAP	71	144	3
NMTAP	71	144	4
NMTAP	71	192	3
NMTAP	71	192	4
NMTAP	71	288	1
NMTAP	71	312	3
NMTAP	71	336	1
NMTAP	71	360	3
BRTAP	72	0	0
NMTAP	72	96	0
NMTAP	72	192	0
NMTTP	72	192	6	E	0	M1
NMTAP	72	288	0
NMTTP	73	0	2	E	0	M1
BRTAP	73	0	7
NMTAP	73	96	7
NMTTP	73	192	0	C	0	M1
NMTAP	73	192	7
NMTAP	73	288	7
BRHLD	74	0	0	48
BRHLD	74	0	7	48
NMTAP	74	96	0
NMTAP	74	120	7
NMTAP	74	144	0
NMTAP	74	168	7
NMTAP	74	192	1
NMTAP	74	216	6
NMTAP	74	240	1
NMTAP	74	264	6
NMTAP	74	288	2
NMTAP	74	312	5
NMTAP	74	336	2
NMTAP	74	360	5
NMSTR	75	0	3
NMSI_	75	0	3	96	48	5
CNSI_	75	144	5	0	48	7
CNSI_	75	192	7	0	48	1
CNSI_	75	240	1	0	96	4
NMTHO	76	0	0	768	C	0	M1
NMTTP	76	0	5	B	0	M1
NMTTP	76	0	6	B	0	M1
NMTTP	76	0	6	E	1	M1
NMSTR	78	288	0
BRSI_	78	288	0	96	48	4
NMTAP	78	288	7
BRTAP	79	0	0
NMSTR	79	0	5
BRSI_	79	0	5	96	48	0
NMSTR	79	96	2
BRSI_	79	96	2	96	48	7
NMTAP	79	96	5
NMTAP	79	192	2
NMSTR	79	192	6
BRSI_	79	192	6	96	48	2
NMSTR	79	288	1
BRSI_	79	288	1	96	48	5
NMTAP	79	288	6
NMTAP	80	0	1
NMSTR	80	0	7
BRSI_	80	0	7	96	48	3
NMSTR	80	96	4
BRSCL	80	96	4	96	48	1
NMTAP	80	96	7
NMTAP	80	192	4
NMSTR	80	192	6
NMSLL	80	192	6	96	96	2
EXTAP	80	288	0
EXTAP	80	336	0
NMSTR	81	0	1
BRSI_	81	0	1	96	48	5
NMTAP	81	96	1
NMSTR	81	96	3
BRSI_	81	96	3	96	48	7
NMSTR	81	192	2
BRSCR	81	192	2	96	48	5
NMTAP	81	192	3
NMTAP	81	288	0
NMTAP	81	288	2
NMTAP	82	0	6
NMTAP	82	0	7
NMTAP	82	48	0
NMTAP	82	48	5
NMTAP	82	96	1
NMSTR	82	96	4
BRSI_	82	96	4	96	48	0
BRTAP	82	192	3
BRTAP	82	192	4
BRTAP	82	288	2
BRTAP	82	288	7
NMTAP	83	0	0
NMSTR	83	0	1
BRSI_	83	0	1	96	48	5
NMTAP	83	96	1
NMSTR	83	96	3
BRSCR	83	96	3	96	48	6
NMSTR	83	192	0
NMSLR	83	192	0	96	96	4
NMTAP	83	192	3
EXTAP	83	288	7
EXTAP	83	336	7
NMSTR	84	0	6
BRSI_	84	0	6	96	48	2
NMSTR	84	96	4
BRSI_	84	96	4	96	48	0
NMTAP	84	96	6
NMTAP	84	192	4
NMTAP	84	192	5
NMTAP	84	288	1
NMTAP	84	288	7
NMTAP	84	336	1
NMTAP	84	336	7
NMTAP	84	360	2
NMTAP	84	360	6
BRSTR	85	0	3
NMSI_	85	0	3	96	48	0
NMSI_	85	0	3	96	48	6
BRTAP	85	0	5
BRTAP	85	96	3
BRSTR	85	192	1
NMSI_	85	192	1	96	48	4
BRSTR	85	192	5
NMSI_	85	192	5	96	48	2
BRTAP	85	288	1
BRTAP	85	288	5
NMTAP	86	0	0
NMHLD	86	0	6	192
NMTAP	86	192	3
NMTAP	86	216	5
NMTAP	86	240	3
NMTAP	86	264	5
NMTAP	86	288	2
NMTAP	86	312	4
NMTAP	86	336	2
NMTAP	86	360	4
BRSTR	87	0	1
NMSI_	87	0	1	96	48	3
NMSTR	87	96	1
NMSI_	87	96	1	96	48	5
NMTAP	87	144	5
NMSTR	87	192	1
NMSI_	87	192	1	96	48	7
NMTAP	87	240	7
NMTAP	87	288	1
EXTAP	87	336	4
EXSTR	88	0	5
NMSI_	88	0	5	96	48	3
NMTAP	88	48	1
NMSTR	88	96	5
NMSI_	88	96	5	96	48	0
NMTAP	88	144	0
NMTAP	88	192	5
NMTAP	88	240	2
NMTAP	88	288	1
EXTAP	88	288	7
NMTAP	88	336	6
NMSTR	89	0	2
NMSI_	89	0	2	96	48	4
NMSTR	89	48	5
NMSI_	89	48	5	96	48	7
NMTAP	89	96	2
NMTAP	89	144	5
NMSTR	89	192	1
NMSI_	89	192	1	96	48	5
NMSTR	89	240	0
NMSI_	89	240	0	96	48	6
NMTAP	89	288	1
NMTAP	89	336	0
BRTAP	90	0	4
BRTAP	90	48	4
BRTAP	90	96	2
BRTAP	90	96	6
BRTAP	90	192	1
NMTAP	90	240	0
NMTAP	90	240	2
NMTAP	90	288	3
NMTAP	90	288	7
NMTAP	90	336	6
NMTAP	90	360	4
NMHLD	91	0	5	48
NMTAP	91	48	3
NMHLD	91	72	4	48
NMTAP	91	120	2
BXHLD	91	144	3	96
NMTAP	91	240	0
NMTAP	91	288	0
NMTAP	91	336	1
NMTAP	91	336	4
NMTAP	92	0	2
NMTAP	92	0	3
NMTAP	92	48	3
NMTAP	92	48	4
NMTAP	92	96	4
NMTAP	92	96	5
NMSTR	92	144	6
NMSCL	92	144	6	96	48	4
NMTAP	92	240	7
NMTAP	92	264	0
NMHLD	92	288	1	96
NMTAP	93	0	3
NMTAP	93	24	2
NMTAP	93	48	3
NMTAP	93	72	2
NMTAP	93	96	4
NMTAP	93	120	3
NMTAP	93	144	4
NMTAP	93	168	3
NMTAP	93	192	5
NMTAP	93	216	4
NMTAP	93	240	5
NMTAP	93	264	4
NMTAP	93	288	6
NMTAP	93	312	3
NMTAP	93	336	7
NMTAP	93	360	2
EXTAP	94	0	0
NMSTR	94	48	1
NMSI_	94	48	1	96	48	5
NMTAP	94	48	7
NMTAP	94	144	0
NMSTR	94	192	0
NMSCL	94	192	0	96	48	5
NMSCR	94	192	0	96	48	3
CNSI_	94	192	5	0	48	2
EXTAP	94	288	0
BXSTR	95	0	2
NMSI_	95	0	2	96	48	7
BXSTR	95	0	6
NMSI_	95	0	6	96	48	3
NMTAP	95	96	2
NMTAP	95	96	6
NMSTR	95	192	0
NMSCR	95	192	0	96	48	3
NMTAP	95	240	4
NMTAP	95	288	0
NMTAP	95	288	5
NMSTR	96	0	6
NMSCL	96	0	6	96	48	3
NMTAP	96	48	7
NMTAP	96	96	0
NMTAP	96	96	6
NMSTR	96	192	1
NMSCR	96	192	1	96	48	4
NMTAP	96	240	0
NMTAP	96	288	1
NMTAP	96	288	7
NMSTR	97	0	6
NMSI_	97	0	6	96	48	4
NMSTR	97	48	7
NMSI_	97	48	7	96	48	3
NMTAP	97	96	6
NMTAP	97	144	7
NMSTR	97	192	0
NMSI_	97	192	0	96	48	4
NMSTR	97	240	1
NMSI_	97	240	1	96	48	3
NMSTR	97	288	0
NMSCR	97	288	0	96	144	6
NMTAP	97	336	1
BXTAP	98	0	0
NMTAP	98	192	7
NMTAP	98	240	7
NMTAP	98	288	0
NMTAP	98	288	6
NMTAP	99	0	2
NMTAP	99	0	4
NMTAP	99	48	1
NMTAP	99	72	3
NMTAP	99	96	1
NMTAP	99	120	3
NMTAP	99	144	1
NMTAP	99	192	0
NMTAP	99	240	7
NMHLD	99	288	2	48
NMHLD	99	288	6	48
NMTAP	100	0	5
NMTAP	100	24	3
NMTAP	100	48	5
NMTAP	100	72	3
NMTAP	100	96	5
NMTAP	100	144	2
NMTAP	100	144	6
NMTAP	100	192	1
NMHLD	100	192	7	96
NMTTP	100	240	2	E	0	M1
NMTTP	100	252	2	B	0	M1
NMTTP	100	264	3	B	0	M1
NMTTP	100	276	4	E	0	M1
NMTTP	100	288	4	A	1	M1
NMTAP	101	0	0
NMTAP	101	48	0
NMTAP	101	96	0
BRTAP	101	144	6
BRTAP	101	144	7
EXTAP	101	156	0
EXTAP	101	168	1
EXTAP	101	180	2
EXHLD	101	192	3	48
BRTAP	101	240	0
EXTAP	101	252	7
EXTAP	101	264	6
EXTAP	101	276	5
EXTAP	101	288	4
NMTAP	101	336	1
NMTAP	101	336	7
NMHLD	102	0	0	48
NMHLD	102	0	6	48
NMHLD	102	72	1	48
NMHLD	102	72	5	48
NMTAP	102	144	2
NMTAP	102	144	4
NMSTR	102	192	2
BRSCL	102	192	2	96	48	7
NMTAP	102	192	4
NMTTP	102	288	0	C	1	M1
NMSTR	103	0	6
NMSI_	103	0	6	96	48	2
NMTAP	103	48	6
NMSTR	103	96	1
NMSI_	103	96	1	96	48	4
NMTAP	103	144	1
NMTAP	103	192	0
NMTAP	103	240	0
NMTAP	103	288	3
NMTAP	103	288	7
NMTAP	103	312	6
NMTAP	103	336	5
NMTAP	103	360	4
NMSTR	104	0	1
NMSI_	104	0	1	96	48	4
NMTAP	104	48	1
NMSTR	104	96	6
NMSI_	104	96	6	96	48	2
NMTAP	104	144	6
NMTAP	104	192	7
NMTAP	104	240	7
NMTAP	104	288	0
NMTAP	104	288	4
NMTAP	104	312	1
NMTAP	104	336	2
NMTAP	104	360	3
NMSTR	105	0	6
NMSI_	105	0	6	96	48	3
NMTAP	105	48	6
NMTAP	105	96	0
NMTAP	105	144	0
NMSTR	105	192	1
NMSI_	105	192	1	96	48	4
NMTAP	105	240	1
NMSTR	105	288	0
BRSCL	105	288	0	96	144	2
NMTAP	105	336	0
NMTTP	106	0	0	C	1	M1
NMHLD	106	192	0	48
NMHLD	106	264	1	48
NMHLD	106	264	7	48
NMTAP	106	336	2
NMTAP	106	336	6
NMTAP	107	0	5
NMTAP	107	24	4
NMTAP	107	48	5
NMSTR	107	96	6
NMSCL	107	96	6	96	48	3
NMTAP	107	144	6
NMTAP	107	192	0
NMTAP	107	240	0
NMTAP	107	288	1
NMTAP	107	336	1
NMTAP	108	0	2
NMTAP	108	24	3
NMTAP	108	48	2
NMSTR	108	96	1
NMSCR	108	96	1	96	48	4
NMTAP	108	144	1
NMTAP	108	192	7
NMTAP	108	240	7
BXTAP	108	288	5
BXTAP	108	288	6
NMTAP	109	0	2
NMTAP	109	24	3
NMTAP	109	48	2
NMTAP	109	72	3
NMTAP	109	96	2
NMTAP	109	144	1
NMTAP	109	192	5
NMTAP	109	216	4
NMTAP	109	240	5
NMTAP	109	264	4
NMTAP	109	288	5
NMTAP	109	336	6
NMTAP	110	0	0
NMTAP	110	32	0
NMTAP	110	64	0
NMTAP	110	96	7
NMTAP	110	128	7
NMTAP	110	160	7
BRTAP	110	192	0
BRTAP	110	192	6
BRTAP	110	240	2
BRTAP	110	240	4
BRTAP	110	288	1
BRTAP	110	288	5
NMSTR	111	0	0
NMSI_	111	0	0	96	48	4
NMTAP	111	48	0
NMTAP	111	96	7
NMTAP	111	144	7
NMTAP	111	192	3
NMTAP	111	216	2
NMTAP	111	240	1
NMTAP	111	264	0
NMTAP	111	288	6
NMTAP	111	312	5
NMTAP	111	336	4
NMTAP	111	360	3
NMSTR	112	0	7
NMSI_	112	0	7	96	48	3
NMTAP	112	48	7
NMSTR	112	96	5
NMSI_	112	96	5	96	48	0
NMTAP	112	144	5
NMTAP	112	192	1
NMTAP	112	216	2
NMTAP	112	240	3
NMTAP	112	264	4
NMTAP	112	288	7
NMTAP	112	312	6
NMTAP	112	336	5
NMTAP	112	360	4
BRSTR	113	0	0
BRSI_	113	0	0	96	48	4
BRSTR	113	0	3
BRSI_	113	0	3	96	48	6
BRTAP	113	96	0
BRTAP	113	96	3
NMTTP	113	192	4	E	0	M1
NMTTP	113	204	3	E	0	M1
NMTTP	113	216	2	E	0	M1
NMTTP	113	228	1	E	0	M1
NMTTP	113	240	0	E	0	M1
NMTTP	113	252	7	E	0	M1
NMTTP	113	264	6	E	0	M1
NMTTP	113	276	5	E	0	M1
NMTTP	113	288	4	D	0	M1
NMTTP	113	300	3	D	0	M1
NMTTP	113	312	2	D	0	M1
NMTTP	113	324	1	D	0	M1
NMTTP	113	336	0	D	0	M1
NMTTP	113	348	7	D	0	M1
NMTTP	113	360	6	D	0	M1
NMTTP	113	372	5	D	0	M1
NMTTP	114	0	3	B	1	M1
NMTTP	114	0	3	A	0	M1
NMTTP	114	0	4	E	0	M1
NMTTP	114	0	4	D	0	M1
NMTAP	114	96	1
NMTAP	114	120	0
NMTAP	114	144	1
NMTAP	114	168	0
NMTAP	114	192	2
NMTAP	114	216	7
NMTAP	114	240	3
NMTAP	114	264	6
BRTAP	114	288	4
BRTAP	114	288	5
NMSTR	115	0	2
NMSCL	115	0	2	96	72	7
NMTAP	115	48	2
NMTAP	115	96	6
NMTAP	115	120	5
NMTAP	115	144	4
NMTAP	115	168	3
NMTAP	115	192	6
NMTAP	115	216	5
NMTAP	115	240	4
NMTAP	115	264	3
NMHLD	115	288	2	48
NMHLD	115	288	6	48
NMSTR	116	0	5
NMSCR	116	0	5	96	72	0
NMTAP	116	48	5
NMTAP	116	96	1
NMTAP	116	120	2
NMTAP	116	144	3
NMTAP	116	168	4
NMTAP	116	192	1
NMTAP	116	216	2
NMTAP	116	240	3
NMTAP	116	264	4
NMHLD	116	288	1	48
NMHLD	116	288	5	48
NMTAP	117	0	3
NMTAP	117	0	7
NMTAP	117	48	6
NMTAP	117	72	4
NMHLD	117	96	5	24
NMTAP	117	144	2
NMTAP	117	168	3
NMHLD	117	192	1	24
NMTAP	117	240	5
NMTAP	117	264	3
NMHLD	117	288	7	24
NMTAP	117	336	0
NMTAP	117	360	6
NMTAP	118	0	1
NMTAP	118	24	5
NMTAP	118	48	2
NMTAP	118	72	4
NMTAP	118	96	3
NMTAP	118	120	4
NMTAP	118	144	3
NMTAP	118	168	4
NMTAP	118	192	3
NMTAP	118	204	2
NMTAP	118	216	1
NMTAP	118	228	0
NMTAP	118	240	7
NMTAP	118	252	6
NMTAP	118	264	5
NMSTR	118	276	4
NMSI_	118	276	4	96	300	7
NMSTR	118	288	3
NMSSR	118	288	3	96	288	7
NMTAP	118	300	2
NMTAP	118	312	1
NMTAP	118	324	0
BXSTR	120	0	0
BRSCL	120	0	0	96	672	3
BXTAP	120	0	6
NMTAP	122	0	6
NMTAP	122	96	6
NMTAP	122	192	1
NMTAP	122	192	7
NMTAP	122	240	1
NMTAP	122	240	7
NMTAP	122	288	1
NMTAP	122	288	7
NMTAP	122	336	1
NMTAP	122	336	7
NMHLD	123	0	0	24
NMHLD	123	0	6	24
NMHLD	123	48	0	24
NMHLD	123	48	6	24
NMHLD	123	96	0	24
NMHLD	123	96	6	24
NMHLD	123	144	0	24
NMHLD	123	144	6	24
NMSTR	123	192	7
BRSI_	123	192	7	96	72	4
BRSSR	123	192	7	96	72	3
NMTAP	123	216	7
NMTAP	123	240	7
NMTAP	123	264	7

T_REC_TAP	604
T_REC_BRK	50
T_REC_XTP	22
T_REC_BXX	7
T_REC_HLD	92
T_REC_XHO	4
T_REC_BHO	5
T_REC_BXH	5
T_REC_STR	97
T_REC_BST	8
T_REC_XST	3
T_REC_XBS	5
T_REC_TTP	64
T_REC_THO	4
T_REC_SLD	93
T_REC_BSL	25
T_REC_ALL	1088
T_NUM_TAP	790
T_NUM_BRK	105
T_NUM_HLD	100
T_NUM_SLD	93
T_NUM_ALL	1088
T_JUDGE_TAP	860
T_JUDGE_HLD	312
T_JUDGE_SLD	118
T_JUDGE_ALL	1290
TTM_EACHPAIRS	170
TTM_SCR_TAP	395000
TTM_SCR_BRK	273000
TTM_SCR_HLD	100000
TTM_SCR_SLD	139500
TTM_SCR_ALL	907500
TTM_SCR_S	870100
TTM_SCR_SS	897000
TTM_RAT_ACV	10117

