VERSION	0.00.00	1.05.00
FES_MODE	0
BPM_DEF	112.500	225.000	225.000	112.500
MET_DEF	4	4
RESOLUTION	384
CLK_DEF	384
COMPATIBLE_CODE	MA2

BPM	0	0	112.500
BPM	23	0	225.000
MET	0	0	4	4

NMSTR	1	0	0
NMSSL	1	0	0	96	96	4
EXHLD	1	192	5	192
NMHLD	2	0	1	96
NMSTR	2	96	3
NMSXL	2	96	3	96	144	7
NMHLD	3	0	0	192
NMHLD	3	192	3	192
NMHLD	4	0	4	192
NMTAP	4	192	7
NMHLD	5	0	6	192
NMHLD	5	192	5	192
NMHLD	6	0	2	192
NMTAP	6	192	1
NMSTR	7	0	0
NMSI_	7	0	0	96	96	3
NMTAP	7	192	5
NMTAP	7	288	6
NMSTR	8	0	7
NMSI_	8	0	7	96	96	4
NMTAP	8	192	2
NMTAP	8	288	1
NMSTR	9	0	0
NMSUR	9	0	0	96	96	4
NMTAP	9	192	5
NMTAP	9	288	6
NMSTR	10	0	7
NMSUL	10	0	7	96	96	3
NMTAP	10	192	2
NMTAP	10	288	1
NMHLD	11	0	1	240
NMHLD	11	72	3	168
NMTAP	11	288	2
NMTAP	11	312	2
NMSTR	12	0	0
NMSCR	12	0	0	96	48	3
NMSUR	12	0	0	96	48	4
NMTAP	12	192	5
NMTAP	12	288	6
NMTAP	12	312	6
NMTAP	12	336	4
NMTAP	13	0	3
NMTAP	13	0	5
NMTAP	13	48	2
NMTAP	13	72	2
NMTAP	13	96	4
NMTAP	13	144	5
NMTAP	13	192	3
NMTAP	13	192	5
NMTAP	13	288	1
NMTAP	13	312	1
NMTAP	13	336	3
NMTAP	14	0	2
NMTAP	14	0	4
NMTAP	14	48	6
NMTAP	14	72	6
NMTAP	14	96	0
NMTAP	14	144	1
NMTAP	14	192	2
NMTAP	14	192	3
NMTAP	14	288	4
NMTAP	14	288	5
NMHLD	15	0	6	72
NMHLD	15	72	5	72
NMTAP	15	144	4
NMHLD	15	192	1	72
NMHLD	15	264	2	72
NMTAP	15	336	3
NMHLD	16	0	5	72
NMHLD	16	72	6	72
NMTAP	16	144	7
NMHLD	16	192	2	72
NMHLD	16	264	1	72
NMTAP	16	336	0
NMHLD	17	0	7	72
NMHLD	17	72	5	72
NMTAP	17	144	4
NMHLD	17	192	0	72
NMHLD	17	264	2	72
NMTAP	17	336	3
NMTAP	18	0	7
NMTAP	18	96	4
NMTAP	18	96	6
NMTAP	18	192	1
NMTAP	18	192	3
NMSTR	18	288	0
NMSCR	18	288	0	96	192	6
NMTTP	19	0	0	C	1	M1
NMSTR	19	288	7
NMSCL	19	288	7	96	192	1
NMTTP	20	0	0	C	1	M1
NMSTR	20	288	0
NMSLR	20	288	0	96	96	4
NMTTP	21	0	5	E	1	M1
NMSTR	21	96	7
NMSLL	21	96	7	96	96	3
NMTTP	21	192	3	E	1	M1
NMSTR	21	288	0
NMSI_	21	288	0	96	48	4
NMSTR	22	0	7
NMSI_	22	0	7	96	48	3
NMHLD	22	96	2	48
NMTTP	22	192	5	E	0	M1
NMTTP	22	240	4	E	0	M1
NMTTP	22	288	3	E	0	M1
NMTAP	23	0	1
NMTAP	23	0	3
NMTAP	23	96	1
NMTAP	23	96	3
NMTAP	23	192	4
NMTAP	23	192	6
NMTAP	23	288	4
NMTAP	23	288	6
NMTAP	24	0	6
NMTAP	24	0	7
NMTAP	24	96	1
NMTAP	24	96	3
NMTAP	24	192	0
NMTAP	24	192	1
NMTAP	24	288	4
NMTAP	24	288	6
NMSTR	25	0	7
BRSI_	25	0	7	96	96	4
CNSI_	25	192	4	0	96	0
CNSI_	25	288	0	0	96	3
CNSI_	26	0	3	0	96	6
CNSI_	26	96	6	0	96	1
CNSI_	26	192	1	0	96	5
NMTAP	27	0	4
NMTAP	27	0	6
NMTAP	27	96	4
NMTAP	27	96	6
NMTAP	27	192	1
NMTAP	27	192	3
NMTAP	27	288	1
NMTAP	27	288	3
NMTAP	28	0	0
NMTAP	28	0	1
NMTAP	28	96	4
NMTAP	28	96	6
NMTAP	28	192	6
NMTAP	28	192	7
NMTAP	28	288	1
NMTAP	28	288	3
NMSTR	29	0	0
BRSI_	29	0	0	96	96	3
CNSI_	29	192	3	0	96	7
CNSI_	29	288	7	0	96	4
CNSI_	30	0	4	0	96	1
CNSI_	30	96	1	0	96	6
CNSI_	30	192	6	0	96	2
NMTAP	31	0	1
NMTAP	31	0	3
NMTAP	31	96	1
NMTAP	31	96	3
NMTAP	31	192	0
NMTAP	31	192	1
NMTAP	31	288	0
NMTAP	31	288	1
NMTAP	32	0	1
NMTAP	32	0	3
NMTAP	32	96	4
NMTAP	32	96	6
NMTAP	32	192	1
NMTAP	32	192	3
NMTAP	32	288	4
NMTAP	32	288	6
NMTAP	33	0	6
NMTAP	33	0	7
NMTAP	33	96	6
NMTAP	33	96	7
NMTAP	33	192	4
NMTAP	33	192	6
NMTAP	33	288	2
NMTAP	33	336	2
NMTAP	34	0	2
NMTAP	34	0	4
NMTAP	34	96	3
NMTAP	34	96	5
NMTAP	34	192	7
NMTAP	34	240	7
NMTAP	34	288	0
NMTAP	34	288	6
NMTAP	35	0	1
NMTAP	35	0	3
NMTAP	35	96	0
NMTAP	35	96	1
NMTAP	35	192	4
NMTAP	35	192	6
NMTAP	35	288	6
NMTAP	35	288	7
NMTAP	36	0	1
NMTAP	36	0	3
NMTAP	36	96	0
NMTAP	36	96	1
NMTAP	36	192	4
NMTAP	36	192	6
NMSTR	36	288	6
NMSXR	36	288	6	96	288	3
NMSTR	36	288	7
NMSXL	36	288	7	96	288	2
NMHLD	38	0	1	96
NMHLD	38	96	3	96
NMHLD	38	192	4	96
NMTAP	38	288	6
NMTAP	39	0	6
NMTAP	39	0	7
NMTAP	39	96	1
NMTAP	39	96	2
NMTAP	39	192	3
NMTAP	39	192	5
NMTAP	39	288	1
NMTAP	39	288	3
NMTAP	40	0	5
NMTAP	40	0	6
NMTAP	40	96	0
NMTAP	40	96	2
NMSTR	40	192	6
NMSUL	40	192	6	96	48	2
NMTAP	40	192	7
NMTAP	41	0	0
NMTAP	41	0	1
NMTAP	41	96	5
NMTAP	41	96	6
NMTAP	41	192	2
NMTAP	41	192	4
NMTAP	41	288	4
NMTAP	41	288	6
NMTAP	42	0	1
NMTAP	42	0	2
NMTAP	42	96	5
NMTAP	42	96	7
NMTAP	42	192	0
NMTAP	42	192	1
NMTAP	42	288	1
NMTAP	42	288	2
NMTAP	43	0	2
NMTAP	43	0	3
NMTAP	43	96	5
NMTAP	43	96	6
NMTAP	43	192	1
NMTAP	43	192	7
NMTAP	43	288	5
NMTAP	43	288	7
NMTAP	44	0	1
NMTAP	44	0	2
NMTAP	44	96	4
NMTAP	44	96	6
NMSTR	44	192	2
NMSUL	44	192	2	96	48	6
NMTAP	44	192	3
NMTAP	45	0	4
NMTAP	45	0	5
NMTAP	45	96	1
NMTAP	45	96	2
NMTAP	45	192	0
NMTAP	45	192	6
NMTAP	45	288	0
NMTAP	45	288	2
NMTAP	46	0	5
NMTAP	46	0	6
NMTAP	46	96	1
NMTAP	46	96	3
NMTAP	46	192	4
NMTAP	46	192	5
NMTAP	46	288	3
NMTAP	46	288	4
NMTAP	47	0	2
NMTAP	47	48	2
NMTAP	47	96	2
NMTAP	47	144	2
NMTAP	47	192	2
EXTAP	47	192	3
NMTAP	47	240	2
NMTAP	47	288	2
NMTAP	47	336	2
EXTAP	48	0	0
NMTAP	48	0	2
NMTAP	48	48	2
NMTAP	48	96	2
NMTAP	48	144	2
NMTAP	48	192	2
EXTAP	48	192	3
NMTAP	48	288	3
NMTAP	48	288	4
NMTAP	49	0	5
NMTAP	49	48	5
NMTAP	49	96	5
NMTAP	49	144	5
EXTAP	49	192	4
NMTAP	49	192	5
NMTAP	49	240	5
NMTAP	49	288	5
NMTAP	49	336	5
NMTAP	50	0	5
EXTAP	50	0	7
NMTAP	50	48	5
NMTAP	50	96	5
NMTAP	50	144	5
EXTAP	50	192	4
NMTAP	50	192	5
NMTAP	50	288	3
NMTAP	50	288	4
NMTAP	51	0	1
NMTAP	51	48	1
NMTAP	51	96	1
NMTAP	51	144	1
NMTAP	51	192	1
EXTAP	51	192	3
NMTAP	51	240	1
NMTAP	51	288	1
NMTAP	51	336	1
NMTAP	52	0	1
EXTAP	52	0	2
NMTAP	52	48	1
NMTAP	52	96	1
NMTAP	52	144	1
EXTAP	52	192	0
NMTAP	52	192	1
NMTAP	52	288	0
NMTAP	52	288	7
NMTAP	53	0	6
EXTAP	53	48	6
NMTAP	53	96	6
NMTAP	53	144	6
NMTAP	53	192	4
NMTAP	53	192	6
EXTAP	53	240	4
EXTAP	53	240	6
NMTAP	53	288	4
NMTAP	53	288	6
EXTAP	54	0	2
EXTAP	54	32	4
EXTAP	54	64	2
EXTAP	54	96	4
EXTAP	54	128	2
EXTAP	54	160	4
EXHLD	54	192	2	64
NMTAP	54	256	3
NMTAP	54	320	3
NMTAP	54	320	4
NMHLD	55	0	4	672
NMHLD	55	0	5	672
NMHLD	57	0	4	48
NMHLD	57	0	6	48
NMHLD	57	96	1	48
NMHLD	57	96	3	48
NMHLD	57	192	4	48
NMHLD	57	192	6	48
NMTAP	57	288	1
NMTAP	57	336	1
NMTAP	58	0	5
NMTAP	58	48	5
NMTAP	58	96	3
NMTAP	58	144	3
EXTAP	58	192	7
EXTAP	58	240	7
NMTAP	58	264	6
NMTAP	58	288	5
NMTAP	58	312	4
NMTAP	58	336	3
NMTAP	58	360	2
NMTAP	59	0	1
NMTAP	59	24	0
NMTAP	59	48	7
NMTAP	59	72	6
NMTAP	59	96	5
NMTAP	59	120	4
NMTAP	59	144	3
NMTAP	59	168	2
NMTAP	59	192	1
NMTAP	59	216	0
NMTAP	59	240	7
NMTAP	59	264	6
NMTAP	59	288	5
NMTAP	59	312	4
NMTAP	59	336	3
NMTAP	59	360	2
NMTAP	60	0	1
NMHLD	61	0	1	384
NMHLD	62	0	3	384
NMHLD	63	0	4	384
NMHLD	64	0	6	384
NMHLD	65	0	0	672
NMHLD	66	0	7	288
EXTAP	67	0	0
EXTAP	67	0	7
EXTAP	67	48	0
EXTAP	67	48	7
EXTAP	67	96	0
EXTAP	67	96	7
NMSTR	67	192	1
NMSI_	67	192	1	96	48	3
NMSTR	67	192	6
NMSI_	67	192	6	96	48	4
NMTTP	68	0	0	C	1	M1
NMTTP	68	0	2	B	0	M1
NMTTP	68	0	5	B	0	M1
NMTAP	69	0	6
NMTAP	69	192	6
NMTAP	70	0	0
NMTAP	70	0	6
NMTAP	70	192	0
NMTAP	70	192	6
NMTAP	71	0	1
NMTAP	71	0	5
NMTAP	71	48	1
NMTAP	71	48	5
NMTAP	71	144	2
NMTAP	71	144	6
NMTAP	71	192	2
NMTAP	71	192	6
NMTAP	71	288	3
NMTAP	71	288	5
NMTAP	72	0	1
NMTAP	72	192	1
NMTAP	72	192	7
NMTAP	73	0	1
NMTAP	73	192	1
NMTAP	73	192	7
NMTAP	74	0	2
NMTAP	74	0	6
NMTAP	74	96	2
NMTAP	74	96	6
NMTAP	74	192	3
NMTAP	74	192	5
NMTAP	74	288	3
NMTAP	74	288	5
NMTAP	75	0	2
NMTAP	75	0	4
NMTAP	75	96	2
NMTAP	75	96	4
NMTAP	75	192	1
NMTAP	75	192	5
NMSTR	75	288	1
NMSI_	75	288	1	96	288	6
NMHLD	75	288	5	864
NMTAP	77	0	7
NMTAP	77	96	4
NMHLD	77	192	3	192
NMTAP	78	192	0
NMTAP	78	192	7
BRTAP	78	288	0
BRTAP	78	288	7
NMTAP	79	0	0
NMTAP	79	0	2
NMTAP	79	96	4
NMTAP	79	96	5
NMTAP	79	192	5
NMTAP	79	192	7
NMTAP	79	288	2
NMTAP	79	288	3
NMTAP	80	0	0
NMTAP	80	0	1
NMTAP	80	96	6
NMTAP	80	96	7
NMTAP	80	192	1
NMTAP	80	192	3
NMTAP	80	288	0
NMTAP	80	288	4
NMTAP	81	0	6
NMTAP	81	0	7
NMTAP	81	96	1
NMTAP	81	96	3
NMTAP	81	192	0
NMTAP	81	192	1
NMTAP	81	288	4
NMTAP	81	288	6
NMTAP	82	0	7
NMTAP	82	48	7
NMTAP	82	96	0
NMTAP	82	96	6
NMHLD	82	192	1	96
NMSTR	82	192	7
NMSLL	82	192	7	96	96	3
NMTAP	83	0	2
NMTAP	83	96	0
NMTAP	83	96	1
NMTAP	83	192	4
NMTAP	83	192	6
NMTAP	83	288	7
NMTAP	83	336	7
NMTAP	84	0	0
NMTAP	84	0	6
NMTAP	84	96	2
NMTAP	84	96	3
NMTAP	84	192	4
NMTAP	84	192	5
NMTAP	84	288	3
NMTAP	84	336	3
NMTAP	85	0	2
NMTAP	85	0	4
NMTAP	85	96	1
NMTAP	85	96	3
NMTAP	85	192	4
NMTAP	85	192	6
NMSTR	85	288	7
NMSI_	85	288	7	96	48	3
NMSTR	86	0	0
NMSI_	86	0	0	96	48	2
NMSTR	86	96	6
NMSI_	86	96	6	96	48	4
EXTAP	86	192	7
EXTAP	86	288	0
NMTAP	87	0	1
NMTAP	87	0	3
NMTAP	87	96	4
NMTAP	87	96	6
NMTAP	87	192	1
NMTAP	87	192	3
NMTAP	87	288	1
NMTAP	87	288	3
NMTAP	87	336	0
NMTAP	88	0	5
NMTAP	88	0	7
NMTAP	88	96	0
NMTAP	88	96	2
NMTAP	88	192	5
NMTAP	88	192	7
BRTAP	88	288	0
BRTAP	88	288	6
NMTAP	88	336	1
NMTAP	89	0	2
NMTAP	89	0	4
NMTAP	89	96	4
NMTAP	89	96	6
NMTAP	89	192	1
NMTAP	89	192	3
NMTAP	89	288	5
NMTAP	89	288	7
NMTAP	90	0	4
NMTAP	90	0	6
NMTAP	90	48	4
NMTAP	90	48	6
NMSTR	90	96	4
NMSI_	90	96	4	96	48	0
NMSTR	90	96	6
NMSI_	90	96	6	96	48	3
NMTAP	90	336	7
NMTAP	91	0	7
EXTAP	91	72	2
EXTAP	91	72	4
EXTAP	91	120	2
EXTAP	91	120	4
NMTAP	91	240	5
NMTAP	91	288	5
NMTAP	91	336	4
NMHLD	92	0	7	96
NMTAP	92	96	0
NMHLD	92	144	0	96
NMTAP	92	240	3
NMTAP	92	288	3
NMTAP	93	0	1
NMTAP	93	0	2
NMTAP	93	96	5
NMTAP	93	96	6
NMTAP	93	192	1
NMTAP	93	192	2
NMTAP	93	240	1
NMTAP	93	240	2
NMSTR	93	288	1
NMSCL	93	288	1	96	96	6
NMSTR	93	288	2
NMSCR	93	288	2	96	96	5
NMHLD	94	192	4	96
NMHLD	94	192	7	96
NMTAP	95	0	3
NMTAP	95	0	6
NMTAP	95	96	4
NMTAP	95	96	6
NMTAP	95	192	3
NMTAP	95	192	6
NMTAP	95	288	4
NMTAP	95	288	6
NMTAP	96	0	3
NMTAP	96	0	6
NMSTR	96	96	0
NMSI_	96	96	0	96	48	4
NMTAP	96	96	6
NMTAP	96	192	6
NMTAP	96	288	3
NMTAP	96	288	6
NMTAP	97	0	4
NMTAP	97	0	6
NMTAP	97	96	6
NMSTR	97	96	7
NMSI_	97	96	7	96	48	3
NMTAP	97	192	6
NMTAP	97	288	4
NMTAP	97	288	6
NMTAP	98	0	4
NMTAP	98	0	6
NMTAP	98	96	3
NMTAP	98	96	4
NMTAP	98	192	1
NMTAP	98	192	3
NMTAP	98	288	1
NMTAP	98	288	3
NMTAP	99	0	5
NMTAP	99	48	5
NMTAP	99	96	4
NMTAP	99	144	6
NMTAP	99	192	1
NMTAP	99	240	1
NMTAP	99	288	0
NMTAP	99	336	2
NMTAP	100	0	6
NMTAP	100	48	6
NMTAP	100	96	7
NMTAP	100	144	5
NMTAP	100	192	2
NMTAP	100	240	2
NMTAP	100	288	3
NMTAP	100	336	1
NMTAP	101	0	5
NMTAP	101	48	5
NMTAP	101	96	4
NMTAP	101	144	6
NMTAP	101	192	2
NMTAP	101	288	1
NMTAP	101	288	4
NMTAP	102	0	1
NMTAP	102	0	4
NMTAP	102	72	2
NMTAP	102	72	5
NMTAP	102	144	3
NMTAP	102	144	6
NMTAP	102	192	3
NMTAP	102	192	6
NMTAP	102	288	0
NMTAP	102	288	7
NMTAP	103	0	1
NMTAP	103	48	1
NMTAP	103	96	1
NMTAP	103	144	1
NMTAP	103	192	0
NMTAP	103	192	6
NMTAP	103	240	0
NMTAP	103	240	6
BRTAP	103	288	0
BRTAP	103	288	6
NMTAP	104	0	4
NMTAP	104	48	4
NMTAP	104	96	4
NMTAP	104	144	4
NMTAP	104	192	5
NMTAP	104	192	7
NMTAP	104	240	5
NMTAP	104	240	7
BRTAP	104	288	5
BRTAP	104	288	7
NMTAP	105	0	2
NMTAP	105	48	2
NMTAP	105	96	2
NMTAP	105	144	2
NMTAP	105	192	1
NMTAP	105	192	3
NMTAP	105	240	1
NMTAP	105	240	3
BRTAP	105	288	1
BRTAP	105	288	3
NMTAP	106	0	6
NMTAP	106	48	6
NMTAP	106	96	6
NMTAP	106	144	6
NMTAP	106	192	3
NMTAP	106	192	5
NMTAP	106	240	3
NMTAP	106	240	5
BRTAP	106	288	3
BRTAP	106	288	5
NMTAP	107	0	0
NMTAP	107	48	0
NMTAP	107	96	0
NMTAP	107	144	0
NMTAP	107	192	1
NMTAP	107	192	2
NMTAP	107	240	1
NMTAP	107	240	2
BRTAP	107	288	1
BRTAP	107	288	2
NMTAP	108	0	7
NMTAP	108	48	7
NMTAP	108	96	7
NMTAP	108	144	7
NMTAP	108	192	5
NMTAP	108	192	6
NMTAP	108	240	5
NMTAP	108	240	6
BRTAP	108	288	5
BRTAP	108	288	6
NMTAP	109	0	1
NMTAP	109	0	3
NMTAP	109	48	1
NMTAP	109	48	3
BRTAP	109	96	0
NMTAP	109	192	4
NMTAP	109	192	6
NMTAP	109	240	4
NMTAP	109	240	6
BRTAP	109	288	7
NMTAP	110	0	2
NMTAP	110	0	4
NMTAP	110	48	2
NMTAP	110	48	4
BRTAP	110	96	0
NMTAP	110	192	3
NMTAP	110	192	5
NMTAP	110	240	3
NMTAP	110	240	5
BRTAP	110	288	7
NMHLD	111	0	4	288
NMTAP	111	0	6
NMTAP	111	48	6
NMTAP	111	96	6
NMTAP	111	144	6
NMTAP	111	192	6
NMTAP	111	240	6
BRTAP	111	288	6
NMTAP	112	0	1
NMHLD	112	0	3	288
NMTAP	112	48	1
NMTAP	112	96	1
NMTAP	112	144	1
NMTAP	112	192	1
NMTAP	112	240	1
BRTAP	112	288	1
NMTAP	113	0	0
NMTAP	113	0	2
NMTAP	113	96	5
NMTAP	113	96	7
NMTAP	113	192	0
NMTAP	113	192	1
NMSTR	113	288	5
NMSCL	113	288	5	96	96	2
NMSTR	113	288	6
NMSCR	113	288	6	96	96	1
NMSTR	114	192	0
NMSI_	114	192	0	96	48	4
NMTAP	115	0	7
NMTAP	115	48	7
NMTAP	115	96	0
NMTAP	115	96	6
NMTAP	115	144	0
NMTAP	115	144	6
NMTAP	115	192	1
NMTAP	115	192	5
NMTAP	115	240	1
NMTAP	115	240	5
BRTAP	115	288	2
BRTAP	115	288	4
NMTAP	116	0	0
NMTAP	116	48	0
NMTAP	116	96	1
NMTAP	116	96	7
NMTAP	116	144	1
NMTAP	116	144	7
NMTAP	116	192	2
NMTAP	116	192	6
NMTAP	116	240	2
NMTAP	116	240	6
BRTAP	116	288	3
BRTAP	116	288	5
NMTAP	117	0	6
NMHLD	117	48	6	48
NMTAP	117	96	4
NMHLD	117	144	4	48
NMTAP	117	192	3
NMHLD	117	240	3	48
NMTAP	117	288	1
NMHLD	117	336	1	48
NMTAP	118	0	7
NMHLD	118	48	7	48
NMTAP	118	96	0
NMHLD	118	144	0	48
NMSTR	118	192	7
BRSF_	118	192	7	96	96	3
NMSTR	119	192	1
NMSCR	119	192	1	96	48	3
NMSTR	119	192	6
NMSCL	119	192	6	96	48	4
NMTTP	120	0	4	E	0	M1
NMTTP	120	48	5	E	0	M1
NMTTP	120	96	6	E	0	M1
NMTTP	120	144	7	E	0	M1
NMTTP	120	192	0	E	0	M1
NMTTP	120	240	1	E	0	M1
NMTTP	120	288	2	E	0	M1
NMTTP	120	336	3	E	0	M1
NMTTP	121	0	4	E	0	M1
NMTTP	121	48	5	E	0	M1
NMTTP	121	96	6	E	0	M1
NMTTP	121	144	7	E	0	M1
NMTTP	121	192	0	E	0	M1
NMTTP	121	240	1	E	0	M1
NMTTP	121	288	2	E	0	M1
NMTTP	121	336	3	E	0	M1
NMTTP	122	0	4	E	0	M1
NMTTP	122	48	5	E	0	M1
NMTTP	122	96	6	E	0	M1
NMTTP	122	144	7	E	0	M1
NMTTP	122	192	0	E	0	M1
NMTTP	122	240	1	E	0	M1
NMTTP	122	288	2	E	0	M1
NMTTP	122	336	3	E	0	M1
NMTTP	123	0	4	E	0	M1
NMTTP	123	48	5	E	0	M1
NMTTP	123	96	6	E	0	M1
NMTTP	123	144	7	E	0	M1
NMTTP	123	192	0	E	0	M1
NMTTP	123	240	1	E	0	M1
NMTHO	123	288	0	96	C	0	M1

T_REC_TAP	570
T_REC_BRK	26
T_REC_XTP	32
T_REC_BXX	0
T_REC_HLD	54
T_REC_XHO	2
T_REC_BHO	0
T_REC_BXH	0
T_REC_STR	38
T_REC_BST	0
T_REC_XST	0
T_REC_XBS	0
T_REC_TTP	40
T_REC_THO	1
T_REC_SLD	36
T_REC_BSL	3
T_REC_ALL	802
T_NUM_TAP	680
T_NUM_BRK	29
T_NUM_HLD	57
T_NUM_SLD	36
T_NUM_ALL	802
T_JUDGE_TAP	706
T_JUDGE_HLD	261
T_JUDGE_SLD	39
T_JUDGE_ALL	1006
TTM_EACHPAIRS	226
TTM_SCR_TAP	340000
TTM_SCR_BRK	75400
TTM_SCR_HLD	57000
TTM_SCR_SLD	54000
TTM_SCR_ALL	526400
TTM_SCR_S	507800
TTM_SCR_SS	523500
TTM_RAT_ACV	10055

