VERSION	0.00.00	1.05.00
FES_MODE	0
BPM_DEF	112.500	225.000	225.000	112.500
MET_DEF	4	4
RESOLUTION	384
CLK_DEF	384
COMPATIBLE_CODE	MA2

BPM	0	0	112.500
BPM	23	0	225.000
MET	0	0	4	4

NMHLD	3	0	2	192
NMHLD	3	192	3	192
NMHLD	4	0	4	192
NMTAP	4	192	5
NMHLD	5	0	5	192
NMHLD	5	192	4	192
NMHLD	6	0	3	192
NMTAP	6	192	2
NMHLD	7	0	1	192
NMHLD	7	192	2	192
NMHLD	8	0	3	192
NMTAP	8	192	4
NMHLD	9	0	6	192
NMHLD	9	192	5	192
NMHLD	10	0	4	192
NMTAP	10	192	3
NMTAP	11	0	5
NMTAP	11	96	5
NMTAP	11	192	4
NMTAP	11	192	5
NMTAP	12	0	6
NMTAP	12	96	6
NMTAP	12	192	6
NMTAP	12	192	7
NMTAP	13	0	0
NMTAP	13	96	0
NMTAP	13	192	0
NMTAP	13	192	1
NMTAP	14	0	2
NMTAP	14	0	3
NMTAP	14	96	2
NMTAP	14	96	3
NMTAP	14	192	2
NMTAP	14	192	3
NMTAP	15	0	2
NMTAP	15	96	2
NMTAP	15	192	2
NMTAP	15	192	3
NMTAP	16	0	1
NMTAP	16	96	1
NMTAP	16	192	0
NMTAP	16	192	1
NMTAP	17	0	7
NMTAP	17	96	7
NMTAP	17	192	6
NMTAP	17	192	7
NMTAP	18	0	4
NMTAP	18	0	5
NMTAP	18	96	4
NMTAP	18	96	5
NMTAP	18	192	4
NMTAP	18	192	5
NMHLD	19	0	5	192
NMTAP	19	192	4
NMHLD	20	0	6	192
NMTAP	20	192	7
NMHLD	21	0	1	192
NMTAP	21	192	0
NMHLD	22	0	2	192
NMTAP	22	192	3
NMTAP	23	0	2
NMTAP	23	96	2
NMTAP	23	192	2
NMTAP	24	0	1
NMTAP	24	96	1
NMTAP	24	192	1
NMTAP	25	0	0
NMTAP	25	96	0
NMTAP	25	192	0
NMTAP	26	0	6
NMTAP	26	0	7
NMTAP	26	192	6
NMTAP	26	192	7
NMTAP	27	0	5
NMTAP	27	96	5
NMTAP	27	192	5
NMTAP	28	0	6
NMTAP	28	96	6
NMTAP	28	192	6
NMTAP	29	0	7
NMTAP	29	96	7
NMTAP	29	192	7
NMTAP	30	0	0
NMTAP	30	0	1
NMTAP	30	192	0
NMTAP	30	192	1
NMTTP	31	0	1	B	0	L1
NMTTP	31	96	2	B	0	L1
NMTTP	31	192	3	B	0	L1
NMTTP	32	0	6	B	0	L1
NMTTP	32	96	5	B	0	L1
NMTTP	32	192	4	B	0	L1
NMTTP	33	0	1	B	0	L1
NMTTP	33	96	2	B	0	L1
NMTTP	33	192	3	B	0	L1
NMTTP	33	288	4	B	0	L1
NMTTP	34	0	0	C	0	L1
NMTTP	35	0	7	B	0	L1
NMTTP	35	96	6	B	0	L1
NMTTP	35	192	4	B	0	L1
NMTTP	35	192	5	B	0	L1
NMTTP	36	0	0	B	0	L1
NMTTP	36	96	1	B	0	L1
NMTTP	36	192	2	B	0	L1
NMTTP	36	192	3	B	0	L1
NMTTP	37	0	6	B	0	L1
NMTTP	37	96	5	B	0	L1
NMTTP	37	192	4	B	0	L1
NMTTP	37	288	3	B	0	L1
NMTTP	38	0	0	C	1	L1
NMTAP	39	0	1
NMTAP	39	96	1
NMTAP	39	192	0
NMTAP	39	288	0
NMTAP	40	0	7
NMTAP	40	96	7
NMTAP	40	192	6
NMTAP	40	192	7
NMTAP	41	0	5
NMTAP	41	96	5
NMTAP	41	192	6
NMTAP	41	288	6
NMTAP	42	0	7
NMTAP	42	96	7
NMTAP	42	192	0
NMTAP	42	192	1
NMTAP	43	0	1
NMTAP	43	96	1
NMTAP	43	192	2
NMTAP	43	288	2
NMTAP	44	0	3
NMTAP	44	96	3
NMTAP	44	192	4
NMTAP	44	192	5
NMTAP	45	0	6
NMTAP	45	96	6
NMTAP	45	192	5
NMTAP	45	288	5
NMTAP	46	0	4
NMTAP	46	96	4
NMTAP	46	192	2
NMTAP	46	192	3
NMTAP	47	0	2
NMTAP	47	96	2
NMTAP	47	192	2
NMTAP	47	288	2
NMTAP	48	0	1
NMTAP	48	96	1
NMTAP	48	192	1
NMTAP	48	288	1
NMTAP	49	0	0
NMTAP	49	96	0
NMTAP	49	192	0
NMTAP	49	288	0
NMTAP	50	0	6
NMTAP	50	0	7
NMTAP	50	96	6
NMTAP	50	96	7
NMTAP	50	192	6
NMTAP	50	192	7
NMTAP	51	0	5
NMTAP	51	96	5
NMTAP	51	192	5
NMTAP	51	288	5
NMTAP	52	0	6
NMTAP	52	96	6
NMTAP	52	192	6
NMTAP	52	288	6
NMTAP	53	0	7
NMTAP	53	96	7
NMTAP	53	192	7
NMTAP	53	288	7
NMTAP	54	0	0
NMTAP	54	0	1
NMTAP	54	96	0
NMTAP	54	96	1
NMTAP	54	192	0
NMTAP	54	192	1
NMSTR	55	0	0
NMSI_	55	0	0	96	288	3
NMSTR	55	0	7
NMSI_	55	0	7	96	288	4
NMTAP	57	0	1
NMTAP	57	0	3
NMTAP	57	96	1
NMTAP	57	96	3
NMTAP	57	192	1
NMTAP	57	192	3
NMTAP	58	0	4
NMTAP	58	0	6
NMTAP	58	96	4
NMTAP	58	96	6
NMTAP	58	192	4
NMTAP	58	192	6
NMTAP	59	0	3
NMTAP	59	0	4
NMTAP	59	96	3
NMTAP	59	96	4
NMTAP	59	192	2
NMTAP	59	192	5
NMSTR	60	0	2
NMSI_	60	0	2	96	288	5
NMTAP	61	192	6
NMSTR	62	0	6
NMSI_	62	0	6	96	288	3
NMTAP	63	192	2
NMSTR	64	0	1
NMSI_	64	0	1	96	288	5
NMTAP	65	192	6
NMSTR	66	0	7
NMSI_	66	0	7	96	288	3
NMTAP	67	192	2
NMHLD	68	0	2	384
NMHLD	69	0	3	384
NMHLD	70	0	4	384
NMTAP	71	0	5
NMHLD	72	0	5	384
NMHLD	73	0	4	384
NMHLD	74	0	3	384
NMTAP	75	0	2
NMTTP	76	0	0	C	1	L1
BXTAP	79	0	2
EXTAP	79	96	2
EXTAP	79	192	0
EXTAP	79	192	1
EXTAP	79	288	0
EXTAP	79	288	1
EXTAP	80	0	7
EXTAP	80	96	7
EXTAP	80	192	6
EXTAP	80	192	7
NMTAP	81	0	5
NMTAP	81	96	5
NMTAP	81	192	6
NMTAP	81	192	7
NMTAP	81	288	6
NMTAP	81	288	7
NMTAP	82	0	0
NMTAP	82	96	0
NMTAP	82	192	0
NMTAP	82	192	1
NMTAP	83	0	1
NMTAP	83	96	1
NMTAP	83	192	2
NMTAP	83	192	3
NMTAP	83	288	2
NMTAP	83	288	3
NMTAP	84	0	4
NMTAP	84	96	4
NMTAP	84	192	4
NMTAP	84	192	5
NMTAP	85	0	6
NMTAP	85	96	6
NMTAP	85	192	4
NMTAP	85	192	5
NMTAP	85	288	4
NMTAP	85	288	5
NMTAP	86	0	3
NMTAP	86	96	3
NMTAP	86	192	2
NMTAP	86	192	3
NMTAP	87	0	0
NMTAP	87	0	1
NMTAP	87	96	0
NMTAP	87	96	1
NMTAP	87	192	2
NMTAP	87	288	2
NMTAP	88	0	3
NMTAP	88	0	4
NMTAP	88	96	3
NMTAP	88	96	4
NMTAP	88	192	2
NMTAP	88	192	5
NMTAP	89	0	4
NMTAP	89	0	5
NMTAP	89	96	4
NMTAP	89	96	5
NMTAP	89	192	6
NMTAP	89	288	6
NMTAP	90	0	0
NMTAP	90	0	7
NMTAP	90	96	0
NMTAP	90	96	7
NMTAP	90	192	1
NMTAP	90	192	6
NMTAP	91	0	6
NMTAP	91	0	7
NMTAP	91	96	6
NMTAP	91	96	7
NMTAP	91	192	5
NMTAP	91	288	5
NMTAP	92	0	3
NMTAP	92	0	4
NMTAP	92	96	3
NMTAP	92	96	4
NMTAP	92	192	2
NMTAP	92	192	5
NMTAP	93	0	2
NMTAP	93	0	3
NMTAP	93	96	2
NMTAP	93	96	3
NMTAP	93	192	1
NMTAP	93	288	1
NMTAP	94	0	0
NMTAP	94	0	7
NMTAP	94	96	0
NMTAP	94	96	7
BRTAP	94	192	1
BRTAP	94	192	6
NMTAP	95	0	1
NMTAP	95	96	1
NMTAP	95	192	1
NMTAP	95	288	0
NMTAP	95	288	1
NMTAP	96	0	2
NMTAP	96	96	2
NMTAP	96	192	2
NMTAP	96	288	2
NMTAP	96	288	3
NMTAP	97	0	4
NMTAP	97	96	4
NMTAP	97	192	4
NMTAP	97	288	4
NMTAP	97	288	5
NMTAP	98	0	6
NMTAP	98	0	7
NMTAP	98	96	6
NMTAP	98	96	7
NMTAP	98	192	6
NMTAP	98	192	7
NMTAP	99	0	6
NMTAP	99	96	6
NMTAP	99	192	6
NMTAP	99	288	6
NMTAP	99	288	7
NMTAP	100	0	5
NMTAP	100	96	5
NMTAP	100	192	5
NMTAP	100	288	4
NMTAP	100	288	5
NMTAP	101	0	3
NMTAP	101	96	3
NMTAP	101	192	3
NMTAP	101	288	2
NMTAP	101	288	3
NMTAP	102	0	0
NMTAP	102	0	1
NMTAP	102	96	0
NMTAP	102	96	1
NMTAP	102	192	0
NMTAP	102	192	1
NMTTP	103	0	1	B	0	L1
NMTTP	103	96	2	B	0	L1
NMTTP	103	192	3	B	0	L1
NMTTP	104	0	6	B	0	L1
NMTTP	104	96	5	B	0	L1
NMTTP	104	192	4	B	0	L1
NMTTP	105	0	1	E	0	L1
NMTTP	105	96	2	E	0	L1
NMTTP	105	192	3	E	0	L1
NMTTP	105	288	4	E	0	L1
NMTTP	106	0	0	C	0	L1
NMTTP	107	0	7	B	0	L1
NMTTP	107	96	6	B	0	L1
NMTTP	107	192	4	B	0	L1
NMTTP	107	192	5	B	0	L1
NMTTP	108	0	0	B	0	L1
NMTTP	108	96	1	B	0	L1
NMTTP	108	192	2	B	0	L1
NMTTP	108	192	3	B	0	L1
NMTTP	109	0	7	E	0	L1
NMTTP	109	96	6	E	0	L1
NMTTP	109	192	5	E	0	L1
NMTTP	109	288	4	E	0	L1
NMTTP	110	0	0	C	0	L1
NMTAP	111	0	6
NMTAP	111	96	6
NMTAP	111	192	6
NMTAP	111	192	7
NMTAP	111	288	6
NMTAP	111	288	7
NMTAP	112	0	5
NMTAP	112	96	5
NMTAP	112	192	4
NMTAP	112	192	5
NMTAP	112	288	4
NMTAP	112	288	5
NMTAP	113	0	3
NMTAP	113	96	3
NMTAP	113	192	2
NMTAP	113	192	3
NMTAP	113	288	2
NMTAP	113	288	3
NMTAP	114	0	1
NMTAP	114	96	1
NMTAP	114	192	0
NMTAP	114	192	1
NMTAP	115	0	1
NMTAP	115	96	1
NMTAP	115	192	0
NMTAP	115	192	1
NMTAP	115	288	0
NMTAP	115	288	1
NMTAP	116	0	2
NMTAP	116	96	2
NMTAP	116	192	2
NMTAP	116	192	3
NMTAP	116	288	2
NMTAP	116	288	3
NMTAP	117	0	4
NMTAP	117	96	4
NMTAP	117	192	4
NMTAP	117	192	5
NMTAP	117	288	4
NMTAP	117	288	5
NMTAP	118	0	6
NMTAP	118	96	6
NMTAP	118	192	6
NMTAP	118	192	7
NMHLD	120	0	5	192
NMHLD	120	192	4	192
NMHLD	121	0	3	192
NMTAP	121	192	2
NMHLD	122	0	2	192
NMHLD	122	192	3	192
NMHLD	123	0	4	192
NMTAP	123	192	5
BXTAP	124	0	3
BXTAP	124	0	4

T_REC_TAP	326
T_REC_BRK	2
T_REC_XTP	9
T_REC_BXX	3
T_REC_HLD	28
T_REC_XHO	0
T_REC_BHO	0
T_REC_BXH	0
T_REC_STR	6
T_REC_BST	0
T_REC_XST	0
T_REC_XBS	0
T_REC_TTP	49
T_REC_THO	0
T_REC_SLD	6
T_REC_BSL	0
T_REC_ALL	429
T_NUM_TAP	390
T_NUM_BRK	5
T_NUM_HLD	28
T_NUM_SLD	6
T_NUM_ALL	429
T_JUDGE_TAP	395
T_JUDGE_HLD	200
T_JUDGE_SLD	6
T_JUDGE_ALL	601
TTM_EACHPAIRS	95
TTM_SCR_TAP	195000
TTM_SCR_BRK	13000
TTM_SCR_HLD	28000
TTM_SCR_SLD	9000
TTM_SCR_ALL	245000
TTM_SCR_S	237200
TTM_SCR_SS	244500
TTM_RAT_ACV	10020

