VERSION	0.00.00	1.05.00
FES_MODE	0
BPM_DEF	112.500	225.000	225.000	112.500
MET_DEF	4	4
RESOLUTION	384
CLK_DEF	384
COMPATIBLE_CODE	MA2

BPM	0	0	112.500
BPM	23	0	225.000
MET	0	0	4	4

NMTAP	3	0	3
NMTAP	3	96	3
NMTAP	3	192	2
NMTAP	4	0	1
NMTAP	4	96	1
NMTAP	4	192	0
NMTAP	5	0	7
NMTAP	5	96	7
NMTAP	5	192	6
NMTAP	6	0	5
NMTAP	6	96	5
NMTAP	6	192	4
NMTAP	6	192	5
NMTAP	7	0	4
NMTAP	7	96	4
NMTAP	7	192	5
NMTAP	8	0	6
NMTAP	8	96	6
NMTAP	8	192	7
NMTAP	9	0	0
NMTAP	9	96	0
NMTAP	9	192	1
NMTAP	10	0	2
NMTAP	10	96	2
NMTAP	10	192	2
NMTAP	10	192	3
NMTAP	11	0	3
NMTAP	11	96	3
NMTAP	11	192	2
NMTAP	11	288	2
NMTAP	12	0	1
NMTAP	12	96	1
NMTAP	12	192	0
NMTAP	12	192	1
NMTAP	13	0	7
NMTAP	13	96	7
NMTAP	13	192	6
NMTAP	13	288	6
NMTAP	14	0	5
NMTAP	14	96	5
NMTAP	14	192	4
NMTAP	14	192	5
NMTAP	15	0	4
NMTAP	15	96	4
NMTAP	15	192	5
NMTAP	15	288	5
NMTAP	16	0	6
NMTAP	16	96	6
NMTAP	16	192	0
NMTAP	16	192	7
NMTAP	17	0	0
NMTAP	17	96	0
NMTAP	17	192	1
NMTAP	17	288	1
NMTAP	18	0	2
NMTAP	18	96	2
NMTAP	18	192	3
NMTAP	18	192	4
NMTTP	19	0	3	B	0	L1
NMTTP	19	0	4	B	0	L1
NMTTP	20	0	2	B	0	L1
NMTTP	20	0	5	B	0	L1
NMTTP	21	0	1	B	0	L1
NMTTP	21	0	6	B	0	L1
NMTTP	22	0	0	C	1	L1
BXTAP	23	0	7
EXTAP	23	96	7
EXTAP	23	192	7
NMTAP	24	0	6
NMTAP	24	96	6
NMTAP	24	192	6
NMTAP	25	0	5
NMTAP	25	96	5
NMTAP	25	192	5
NMTAP	26	0	4
NMTAP	26	0	5
NMTAP	26	192	4
NMTAP	26	192	5
NMTAP	27	0	3
NMTAP	27	96	3
NMTAP	27	192	3
NMTAP	28	0	2
NMTAP	28	96	2
NMTAP	28	192	2
NMTAP	29	0	1
NMTAP	29	96	1
NMTAP	29	192	1
NMTAP	30	0	0
NMTAP	30	0	1
NMTAP	30	192	0
NMTAP	30	192	1
NMTAP	31	0	0
NMTAP	31	96	0
NMTAP	31	192	0
NMTAP	32	0	1
NMTAP	32	96	1
NMTAP	32	192	1
NMTAP	33	0	2
NMTAP	33	96	2
NMTAP	33	192	2
NMTAP	34	0	3
NMTAP	34	96	3
NMTAP	34	192	3
NMTAP	34	192	4
NMTAP	35	0	5
NMTAP	35	96	5
NMTAP	35	192	5
NMTAP	36	0	6
NMTAP	36	96	6
NMTAP	36	192	6
NMHLD	37	0	0	384
NMHLD	37	0	7	384
NMTAP	39	0	7
NMTAP	39	96	7
NMTAP	39	192	7
NMTAP	40	0	6
NMTAP	40	0	7
NMTAP	40	192	6
NMTAP	40	192	7
NMTAP	41	0	5
NMTAP	41	96	5
NMTAP	41	192	5
NMTAP	42	0	4
NMTAP	42	0	5
NMTAP	42	192	4
NMTAP	42	192	5
NMTAP	43	0	3
NMTAP	43	96	3
NMTAP	43	192	3
NMTAP	44	0	2
NMTAP	44	0	3
NMTAP	44	192	2
NMTAP	44	192	3
NMTAP	45	0	1
NMTAP	45	96	1
NMTAP	45	192	1
NMTAP	46	0	0
NMTAP	46	0	1
NMTAP	46	192	0
NMTAP	46	192	1
NMTAP	47	0	1
NMTAP	47	96	1
NMTAP	47	192	0
NMTAP	47	192	1
NMTAP	48	0	2
NMTAP	48	96	2
NMTAP	48	192	2
NMTAP	48	192	3
NMTAP	49	0	5
NMTAP	49	96	5
NMTAP	49	192	4
NMTAP	49	192	5
NMTAP	50	0	6
NMTAP	50	96	6
NMTAP	50	192	6
NMTAP	50	192	7
NMTAP	51	0	5
NMTAP	51	96	5
NMTAP	51	192	4
NMTAP	51	192	5
NMTAP	52	0	2
NMTAP	52	96	2
NMTAP	52	192	2
NMTAP	52	192	3
NMTAP	53	0	4
NMTAP	53	96	4
NMTAP	53	192	3
NMTAP	53	288	3
NMTAP	54	0	3
NMTAP	54	0	4
NMTAP	54	96	3
NMTAP	54	96	4
NMHLD	54	192	3	144
NMHLD	54	192	4	144
NMSTR	57	0	3
NMSI_	57	0	3	96	672	0
NMSTR	57	0	4
NMSI_	57	0	4	96	672	7
NMSTR	60	0	6
NMSI_	60	0	6	96	288	2
NMSTR	62	0	1
NMSI_	62	0	1	96	288	5
NMSTR	64	0	7
NMSI_	64	0	7	96	288	3
NMSTR	66	0	0
NMSI_	66	0	0	96	288	4
NMTTP	68	0	5	E	0	L1
NMTTP	69	0	6	E	0	L1
NMTTP	70	0	7	E	0	L1
NMTTP	71	0	0	E	0	L1
NMTTP	72	0	1	E	0	L1
NMTTP	73	0	2	E	0	L1
NMTTP	74	0	3	E	0	L1
NMTTP	75	0	4	E	0	L1
NMTHO	76	0	0	384	C	0	L1
BRTAP	79	0	0
NMTAP	79	96	0
NMTAP	79	192	0
NMTAP	79	288	0
NMTAP	80	0	1
NMTAP	80	96	1
NMTAP	80	192	0
NMTAP	80	192	1
NMTAP	81	0	2
NMTAP	81	96	2
NMTAP	81	192	2
NMTAP	81	288	2
NMTAP	82	0	3
NMTAP	82	96	3
NMTAP	82	192	3
NMTAP	82	192	4
NMTAP	83	0	4
NMTAP	83	96	4
NMTAP	83	192	4
NMTAP	83	288	4
NMTAP	84	0	5
NMTAP	84	96	5
NMTAP	84	192	4
NMTAP	84	192	5
NMTAP	85	0	6
NMTAP	85	96	6
NMTAP	85	192	6
NMTAP	85	288	6
NMTAP	86	0	7
NMTAP	86	96	7
NMTAP	86	192	0
NMTAP	86	192	7
NMTAP	87	0	7
NMTAP	87	96	7
NMTAP	87	192	7
NMTAP	87	288	7
NMTAP	88	0	6
NMTAP	88	96	6
NMTAP	88	192	6
NMTAP	88	192	7
NMTAP	89	0	5
NMTAP	89	96	5
NMTAP	89	192	5
NMTAP	89	288	5
NMTAP	90	0	4
NMTAP	90	96	4
NMTAP	90	192	3
NMTAP	90	192	4
NMTAP	91	0	3
NMTAP	91	96	3
NMTAP	91	192	3
NMTAP	91	288	3
NMTAP	92	0	2
NMTAP	92	96	2
NMTAP	92	192	2
NMTAP	92	192	3
NMTAP	93	0	1
NMTAP	93	96	1
NMTAP	93	192	1
NMTAP	93	288	1
NMTAP	94	0	0
NMTAP	94	96	0
NMTAP	94	192	0
NMTAP	94	192	7
BXTAP	95	0	0
NMTAP	95	96	0
NMTAP	95	192	1
NMTAP	95	288	1
NMTAP	96	0	2
NMTAP	96	96	2
NMTAP	96	192	2
NMTAP	96	192	3
NMTAP	97	0	4
NMTAP	97	96	4
NMTAP	97	192	5
NMTAP	97	288	5
NMTAP	98	0	6
NMTAP	98	96	6
NMTAP	98	192	6
NMTAP	98	192	7
NMTAP	99	0	7
NMTAP	99	96	7
NMTAP	99	192	6
NMTAP	99	288	6
NMTAP	100	0	5
NMTAP	100	96	5
NMTAP	100	192	4
NMTAP	100	192	5
NMTAP	101	0	3
NMTAP	101	96	3
NMTAP	101	192	2
NMTAP	101	288	2
NMTAP	102	0	1
NMTAP	102	96	1
NMTAP	102	192	0
NMTAP	102	192	1
NMTAP	103	0	0
NMTAP	103	96	0
NMTAP	103	192	1
NMTAP	103	288	1
NMTAP	104	0	2
NMTAP	104	96	2
NMTAP	104	192	3
NMTAP	104	288	3
NMTAP	105	0	4
NMTAP	105	96	4
NMTAP	105	192	5
NMTAP	105	288	5
NMTAP	106	0	6
NMTAP	106	96	6
NMTAP	106	192	6
NMTAP	106	192	7
NMTAP	107	0	7
NMTAP	107	96	7
NMTAP	107	192	6
NMTAP	107	288	6
NMTAP	108	0	5
NMTAP	108	96	5
NMTAP	108	192	4
NMTAP	108	288	4
NMTAP	109	0	3
NMTAP	109	96	3
NMTAP	109	192	2
NMTAP	109	288	2
NMTAP	110	0	1
NMTAP	110	96	1
NMTAP	110	192	0
NMTAP	110	192	1
NMTAP	111	0	0
NMTAP	111	96	0
NMTAP	111	192	1
NMTAP	111	288	1
NMTAP	112	0	2
NMTAP	112	96	2
NMTAP	112	192	3
NMTAP	112	288	3
NMTAP	113	0	4
NMTAP	113	96	4
NMTAP	113	192	5
NMTAP	113	288	5
NMTAP	114	0	6
NMTAP	114	96	6
NMTAP	114	192	7
NMTAP	114	288	7
NMTAP	115	0	0
NMTAP	115	96	0
NMTAP	115	192	1
NMTAP	115	288	1
NMTAP	116	0	2
NMTAP	116	96	2
NMTAP	116	192	3
NMTAP	116	288	3
NMTAP	117	0	3
NMTAP	117	0	4
NMTAP	117	96	3
NMTAP	117	96	4
NMTAP	117	192	2
NMTAP	117	192	5
NMTAP	117	288	2
NMTAP	117	288	5
NMTAP	118	0	1
NMTAP	118	0	6
NMTAP	118	96	1
NMTAP	118	96	6
NMTAP	118	192	0
NMTAP	118	192	7
NMTAP	118	288	0
NMTAP	118	288	7
BXTAP	119	0	0
BXTAP	119	0	7
NMSTR	120	0	0
NMSI_	120	0	0	96	672	3
NMSTR	120	0	7
NMSI_	120	0	7	96	672	4
NMTHO	123	0	0	384	C	0	L1
NMTTP	123	0	3	B	0	L1
NMTTP	123	0	4	B	0	L1

T_REC_TAP	326
T_REC_BRK	1
T_REC_XTP	2
T_REC_BXX	4
T_REC_HLD	4
T_REC_XHO	0
T_REC_BHO	0
T_REC_BXH	0
T_REC_STR	8
T_REC_BST	0
T_REC_XST	0
T_REC_XBS	0
T_REC_TTP	17
T_REC_THO	2
T_REC_SLD	8
T_REC_BSL	0
T_REC_ALL	372
T_NUM_TAP	353
T_NUM_BRK	5
T_NUM_HLD	6
T_NUM_SLD	8
T_NUM_ALL	372
T_JUDGE_TAP	358
T_JUDGE_HLD	38
T_JUDGE_SLD	8
T_JUDGE_ALL	404
TTM_EACHPAIRS	54
TTM_SCR_TAP	176500
TTM_SCR_BRK	13000
TTM_SCR_HLD	6000
TTM_SCR_SLD	12000
TTM_SCR_ALL	207500
TTM_SCR_S	200800
TTM_SCR_SS	207000
TTM_RAT_ACV	10024

