VERSION	0.00.00	1.05.00
FES_MODE	0
BPM_DEF	150.000	150.000	150.000	150.000
MET_DEF	4	4
RESOLUTION	384
CLK_DEF	384
COMPATIBLE_CODE	MA2

BPM	0	0	150.000
MET	0	0	4	4

EXHLD	2	0	2	1440
EXTAP	2	0	5
NMTTP	2	144	4	E	0	M1
NMTTP	2	192	3	B	0	M1
NMTTP	2	240	2	B	0	M1
NMTTP	2	288	2	E	0	M1
NMTTP	3	0	1	E	0	M1
NMTTP	3	96	0	D	0	M1
NMTTP	3	144	0	E	0	M1
NMTTP	3	240	0	C	0	M1
NMTTP	3	336	4	E	0	M1
NMTTP	3	336	4	D	0	M1
NMTTP	4	48	3	E	0	M1
NMTTP	4	96	3	B	0	M1
NMTTP	4	144	4	B	0	M1
NMTTP	4	240	5	A	0	M1
NMTTP	4	288	5	B	0	M1
NMTTP	4	336	0	C	0	M1
NMTTP	5	48	7	E	0	M1
NMTTP	5	96	6	E	0	M1
NMTTP	5	144	5	E	0	M1
NMTTP	5	192	4	E	0	M1
EXHLD	6	0	5	1344
NMTTP	6	192	4	B	0	M1
NMTTP	6	192	4	E	0	M1
NMTTP	6	288	6	E	0	M1
NMTTP	7	0	0	E	0	M1
NMTTP	7	0	7	B	0	M1
NMTTP	7	96	1	E	0	M1
NMTHO	7	192	0	144	C	0	M1
NMTTP	8	48	1	E	0	M1
NMTTP	8	96	2	E	0	M1
NMTTP	8	144	3	E	0	M1
NMTTP	8	240	6	E	0	M1
NMTTP	8	288	5	E	0	M1
NMTTP	8	336	4	E	0	M1
NMTTP	9	48	0	C	0	M1
NMTTP	9	96	6	B	0	M1
NMTTP	9	144	6	A	0	M1
NMTAP	9	288	0
NMTAP	9	288	7
BXSTR	10	0	1
NMSCR	10	0	1	96	480	6
NMTAP	10	96	7
NMTAP	10	192	7
NMTAP	10	288	0
NMTAP	11	0	0
NMTAP	11	96	7
NMTAP	11	192	7
NMTAP	11	288	0
NMTAP	11	288	7
NMSTR	12	0	6
NMSCL	12	0	6	96	480	1
NMTAP	12	96	0
NMTAP	12	192	0
NMTAP	12	288	7
NMTAP	13	0	7
NMTAP	13	96	0
NMTAP	13	192	0
NMTAP	13	288	0
NMTAP	13	288	7
NMHLD	14	0	1	72
NMTAP	14	72	3
NMTAP	14	96	2
NMTAP	14	144	1
NMTAP	14	144	4
NMTAP	14	192	2
NMHLD	14	216	3	72
NMTAP	14	288	2
NMTAP	14	336	3
NMTAP	14	336	4
NMHLD	15	0	5	72
NMTAP	15	72	4
NMTAP	15	96	5
NMTAP	15	144	3
NMTAP	15	144	6
NMSTR	15	192	5
NMSI_	15	192	5	96	48	3
NMTAP	15	216	4
NMTAP	16	0	2
NMTAP	16	0	4
NMTAP	16	48	1
NMTAP	16	96	3
NMTAP	16	96	5
NMTAP	16	144	6
NMTAP	16	192	1
NMTAP	16	216	7
NMTAP	16	240	1
NMTAP	16	264	7
NMTAP	16	288	2
NMTAP	16	312	6
NMTAP	16	336	2
NMTAP	16	360	6
NMHLD	17	0	3	48
NMHLD	17	0	5	48
NMHLD	17	96	2	48
NMHLD	17	96	4	48
NMTAP	17	192	0
NMTAP	17	192	7
NMTAP	17	240	0
NMTAP	17	264	7
BRTAP	17	288	1
BRTAP	17	288	6
NMTAP	18	0	1
NMTAP	18	24	3
NMTAP	18	48	2
NMTAP	18	72	3
NMTAP	18	96	1
NMTAP	18	120	4
NMTAP	18	144	3
NMTAP	18	168	4
NMTAP	18	192	1
NMTAP	18	216	3
NMTAP	18	240	2
NMTAP	18	264	3
NMTAP	18	288	1
NMTAP	18	312	4
NMTAP	18	336	3
NMTAP	18	360	4
NMTAP	19	0	0
NMTAP	19	24	3
NMTAP	19	48	2
NMTAP	19	72	3
NMTAP	19	96	0
NMTAP	19	120	4
NMTAP	19	144	3
NMTAP	19	168	4
NMSTR	19	192	1
NMSI_	19	192	1	96	48	4
NMTAP	19	240	5
NMTAP	19	264	5
NMTAP	19	288	1
NMTAP	20	0	6
NMTAP	20	24	4
NMTAP	20	48	5
NMTAP	20	72	4
NMTAP	20	96	6
NMTAP	20	120	3
NMTAP	20	144	4
NMTAP	20	168	3
NMTAP	20	192	6
NMTAP	20	216	4
NMTAP	20	240	5
NMTAP	20	264	4
NMTAP	20	288	6
NMTAP	20	312	3
NMTAP	20	336	4
NMTAP	20	360	3
NMTAP	21	0	7
NMTAP	21	24	4
NMTAP	21	48	5
NMTAP	21	72	4
NMTAP	21	96	7
NMTAP	21	120	3
NMTAP	21	144	4
NMTAP	21	168	3
NMSTR	21	192	6
NMSI_	21	192	6	96	48	3
NMTAP	21	240	2
NMTAP	21	264	2
NMTAP	21	288	6
BRTAP	22	0	1
NMTAP	22	24	3
NMTAP	22	48	2
NMTAP	22	72	3
NMTAP	22	96	1
NMTAP	22	120	4
NMTAP	22	144	3
NMTAP	22	168	4
NMTAP	22	192	0
NMTAP	22	216	3
NMTAP	22	240	2
NMTAP	22	264	3
NMTAP	22	288	0
NMTAP	22	312	4
NMTAP	22	336	3
NMTAP	22	360	4
BRTAP	23	0	1
NMTAP	23	24	3
NMTAP	23	48	2
NMTAP	23	72	3
NMTAP	23	96	0
NMTAP	23	120	4
NMTAP	23	144	2
NMTAP	23	168	3
NMSTR	23	192	1
NMSCR	23	192	1	96	48	4
NMTAP	23	240	0
NMHLD	23	264	7	72
NMTAP	23	288	1
NMTAP	24	0	5
NMTAP	24	0	6
NMTAP	24	48	5
NMTAP	24	48	6
NMTAP	24	96	3
NMTAP	24	96	4
NMTAP	24	144	3
NMTAP	24	144	4
NMTAP	24	192	1
NMTAP	24	192	2
NMTAP	24	240	1
NMTAP	24	240	2
NMTAP	24	288	0
NMTAP	24	288	7
NMTAP	24	336	0
NMTAP	24	336	7
NMTAP	25	0	6
NMTAP	25	24	7
NMTAP	25	48	6
NMTAP	25	72	0
NMTAP	25	96	6
NMTAP	25	120	1
NMTAP	25	144	6
NMTAP	25	168	2
NMTAP	25	192	6
EXTAP	25	204	5
EXTAP	25	216	4
EXTAP	25	228	3
EXTAP	25	240	2
EXTAP	25	252	1
EXTAP	25	264	0
EXTAP	25	276	7
EXTAP	25	288	6
EXTAP	25	300	5
EXTAP	25	312	4
EXTAP	25	324	3
EXTAP	25	336	2
EXTAP	25	348	1
EXTAP	25	360	0
EXTAP	25	372	7
BRSTR	26	0	2
NMSI_	26	0	2	96	576	5
BXTAP	26	0	6
NMSTR	28	0	6
NMSI_	28	0	6	96	576	1
NMHLD	30	0	2	192
NMTAP	30	144	3
NMSTR	30	192	3
NMSI_	30	192	3	96	48	5
NMTAP	30	240	2
NMTAP	30	288	1
NMTAP	30	288	3
NMTAP	31	0	0
NMHLD	31	0	6	96
NMTAP	31	96	4
NMSTR	31	144	4
NMSI_	31	144	4	96	48	2
NMSTR	31	240	4
NMSI_	31	240	4	96	48	6
NMTAP	31	240	6
NMSTR	31	336	1
NMSCR	31	336	1	96	96	4
NMTAP	31	336	4
NMTAP	32	48	0
NMTAP	32	96	7
NMSTR	32	144	6
NMSCR	32	144	6	96	96	1
NMTAP	32	240	5
NMTAP	32	288	4
NMSTR	32	336	3
NMSI_	32	336	3	96	72	7
NMTAP	33	48	2
NMTAP	33	96	1
NMTAP	33	192	0
NMTAP	33	192	6
NMSTR	33	288	1
NMSI_	33	288	1	96	48	4
NMTAP	34	0	0
NMTAP	34	0	1
NMTAP	34	96	3
NMHLD	34	96	7	96
NMHLD	34	192	5	96
NMSTR	34	288	3
NMSI_	34	288	3	96	48	5
NMTAP	35	0	1
NMSTR	35	0	3
NMSI_	35	0	3	96	48	1
NMTAP	35	96	3
NMTAP	35	96	6
NMTAP	35	192	0
NMTAP	35	192	4
NMTAP	35	288	1
NMTAP	35	288	5
NMTAP	35	336	1
NMSTR	35	336	5
NMSLL	35	336	5	96	96	1
NMTAP	36	48	6
NMTAP	36	96	7
NMSTR	36	144	0
NMSLL	36	144	0	96	96	4
NMTAP	36	240	1
NMTAP	36	288	2
NMSTR	36	336	3
NMSLL	36	336	3	96	96	7
NMTAP	37	48	4
NMSTR	37	96	5
BRSI_	37	96	5	96	48	7
NMTAP	37	192	0
NMTAP	37	288	1
NMTAP	37	288	6
NMTAP	38	0	2
BXSTR	38	0	5
NMSCR	38	0	5	96	240	2
NMTAP	38	96	2
NMTAP	38	192	3
NMTAP	38	288	3
CNSCL	38	336	2	0	240	5
NMTAP	39	0	4
NMTAP	39	96	4
NMTAP	39	192	3
NMTAP	39	288	3
NMTAP	39	288	4
BXSTR	40	0	2
NMSCL	40	0	2	96	288	5
NMTAP	40	0	5
NMTAP	40	96	5
NMTAP	40	192	4
NMTAP	40	288	4
NMTAP	41	0	3
CNSCR	41	0	5	0	192	2
NMTAP	41	96	3
NMTAP	41	192	4
NMTAP	41	288	3
NMTAP	41	288	4
NMSTR	42	0	5
NMSCR	42	0	5	96	240	3
NMTAP	42	96	4
NMTAP	42	192	4
NMTAP	42	288	4
CNSCL	42	336	3	0	240	5
NMTAP	43	0	4
NMTAP	43	96	4
NMTAP	43	192	3
NMTAP	43	288	2
NMTAP	43	288	4
NMTAP	44	0	2
NMTAP	44	48	2
NMTAP	44	96	3
NMTAP	44	144	3
NMTAP	44	192	1
NMTAP	44	216	4
NMTAP	44	240	1
NMTAP	44	264	4
NMTAP	44	288	2
NMTAP	44	312	5
NMTAP	44	336	2
NMTAP	44	360	5
NMSTR	45	0	3
NMSLR	45	0	3	96	192	0
NMSTR	45	0	6
NMSLL	45	0	6	96	192	0
BXTAP	46	0	1
BXTAP	46	0	7
NMTAP	46	96	0
NMTTP	46	96	7	E	0	M1
NMTAP	46	192	0
NMTTP	46	192	0	C	0	M1
NMTAP	46	288	0
NMTTP	46	288	3	E	0	M1
NMTAP	47	0	0
NMTTP	47	0	2	E	0	M1
NMTAP	47	96	0
NMTTP	47	96	1	E	0	M1
NMTAP	47	192	0
NMTTP	47	192	0	C	0	M1
NMTAP	47	288	0
NMTTP	47	288	5	E	0	M1
NMHLD	48	0	1	72
NMHLD	48	72	2	72
NMTAP	48	144	3
NMHLD	48	192	6	72
NMHLD	48	264	5	72
NMTAP	48	336	4
NMHLD	49	0	0	72
NMHLD	49	72	2	72
NMSTR	49	144	3
NMSUR	49	144	3	96	96	4
NMTAP	50	0	1
NMTAP	50	0	5
NMTTP	50	96	3	E	0	M1
NMTAP	50	96	4
NMTTP	50	192	0	C	0	M1
NMTAP	50	192	4
NMTAP	50	288	4
NMTTP	50	288	7	E	0	M1
NMTTP	51	0	0	E	0	M1
NMTAP	51	0	5
NMTTP	51	96	1	E	0	M1
NMTAP	51	96	5
NMTTP	51	192	0	C	0	M1
NMTAP	51	192	6
NMTTP	51	288	4	B	0	M1
NMTTP	51	288	4	E	0	M1
NMTAP	51	288	7
NMHLD	52	0	5	72
NMHLD	52	72	6	72
NMTAP	52	144	7
NMHLD	52	192	2	72
NMHLD	52	264	1	72
NMTAP	52	336	0
NMHLD	53	0	6	72
NMHLD	53	72	4	72
NMSTR	53	144	3
NMSSR	53	144	3	96	72	7
NMTAP	54	0	0
NMSTR	54	0	6
NMSI_	54	0	6	96	96	2
NMTAP	54	96	0
NMTAP	54	192	1
CNSI_	54	192	2	0	96	4
NMTAP	54	288	1
CNSI_	54	288	4	0	72	0
CNSI_	54	360	0	0	72	4
NMTAP	55	0	7
CNSLL	55	48	4	0	240	6
NMTAP	55	96	7
NMTAP	55	192	0
NMTAP	55	288	0
NMSTR	56	0	1
NMSI_	56	0	1	96	96	5
NMTAP	56	0	7
NMTAP	56	96	7
CNSI_	56	192	5	0	96	3
NMTAP	56	192	6
CNSI_	56	288	3	0	72	7
NMTAP	56	288	6
CNSI_	56	360	7	0	72	3
NMTAP	57	0	0
CNSLR	57	48	3	0	240	1
NMTAP	57	96	0
NMTAP	57	192	7
NMTAP	57	288	7
NMHLD	58	0	5	72
NMTAP	58	72	4
NMTAP	58	96	5
NMTAP	58	144	3
NMTAP	58	144	6
NMTAP	58	192	5
NMTAP	58	216	4
NMTAP	58	264	4
NMTAP	58	288	5
NMTAP	58	336	3
NMTAP	58	336	4
NMHLD	59	0	2	72
NMTAP	59	72	3
NMTAP	59	96	2
NMTAP	59	144	1
NMTAP	59	144	4
NMSTR	59	192	2
BRSI_	59	192	2	96	48	4
NMTAP	59	216	3
NMTAP	59	264	3
NMTAP	60	0	3
NMTAP	60	0	5
NMTAP	60	48	6
NMTAP	60	96	2
NMTAP	60	96	4
NMTAP	60	144	1
NMTAP	60	192	0
NMTAP	60	216	0
NMTAP	60	240	6
NMTAP	60	264	6
NMTAP	60	288	4
NMTAP	60	312	4
NMTAP	60	336	2
NMTAP	60	360	2
EXHLD	61	0	0	96
NMHLD	61	96	4	96
NMTAP	61	192	2
NMTAP	61	204	3
NMTAP	61	216	4
NMTAP	61	228	5
NMTAP	61	240	6
NMTAP	61	252	7
NMTAP	61	264	0
NMTAP	61	276	1
NMTAP	61	288	2
NMTAP	61	300	3
NMTAP	61	312	4
NMTAP	61	324	5
NMTAP	61	336	6
NMTAP	61	348	7
NMTAP	61	360	0
NMTAP	61	372	1
BXSTR	62	0	2
NMSI_	62	0	2	96	48	7
BXSTR	62	0	6
NMSI_	62	0	6	96	48	3
BXTAP	62	96	2
BXTAP	62	96	6
EXSTR	62	192	0
NMSCR	62	192	0	96	48	3
NMTAP	62	216	4
NMTAP	62	264	4
EXSTR	62	288	0
NMSV_	62	288	0	96	48	5
NMTAP	62	336	5
EXTAP	63	0	0
EXTAP	63	0	6
NMTAP	63	48	7
NMTAP	63	72	7
EXTAP	63	96	4
NMTAP	63	120	6
NMTAP	63	144	1
NMSTR	63	168	3
NMSCR	63	168	3	96	72	7
EXTAP	63	192	0
NMTAP	63	216	0
NMTAP	63	264	1
EXTAP	63	288	1
EXTAP	63	336	2
NMTAP	64	0	3
EXTAP	64	0	6
NMTAP	64	48	5
NMTAP	64	72	4
EXTAP	64	96	5
NMTAP	64	120	4
NMTAP	64	144	6
NMTAP	64	192	1
EXTAP	64	192	7
NMTAP	64	240	2
NMTAP	64	264	3
EXTAP	64	288	2
NMTAP	64	312	3
NMTAP	64	336	1
EXTAP	65	0	0
EXTAP	65	0	6
NMTAP	65	48	1
NMTAP	65	72	7
EXSTR	65	96	2
NMSI_	65	96	2	96	48	7
NMTAP	65	120	6
EXSTR	65	144	3
NMSI_	65	144	3	96	48	6
NMTAP	65	168	5
EXTAP	65	192	2
NMTAP	65	240	3
NMTAP	65	288	0
BXSTR	66	0	1
NMSV_	66	0	1	96	48	4
BXSTR	66	0	5
NMSI_	66	0	5	96	48	0
EXTAP	66	96	1
EXTAP	66	96	5
EXSTR	66	192	7
NMSCL	66	192	7	96	48	4
NMTAP	66	216	3
NMTAP	66	264	3
EXSTR	66	288	7
NMSV_	66	288	7	96	48	2
NMTAP	66	336	2
EXTAP	67	0	1
EXTAP	67	0	7
NMTAP	67	48	0
NMTAP	67	72	0
EXTAP	67	96	3
NMTAP	67	120	1
NMTAP	67	144	6
NMSTR	67	168	4
NMSCL	67	168	4	96	72	0
EXTAP	67	192	7
NMTAP	67	216	7
NMTAP	67	264	6
EXTAP	67	288	6
EXTAP	67	336	5
NMHLD	68	0	1	96
EXTAP	68	0	4
BXTAP	68	96	3
NMTAP	68	144	0
EXTAP	68	144	7
NMTAP	68	192	4
EXTAP	68	192	6
NMTAP	68	216	4
EXTAP	68	216	6
EXTAP	68	264	1
NMTAP	68	264	3
EXTAP	68	336	0
NMTAP	68	336	1
NMHLD	69	0	2	72
EXTAP	69	0	7
NMHLD	69	72	4	72
NMTAP	69	144	5
EXTAP	69	192	6
NMTAP	69	216	7
BXTAP	69	240	6
NMTAP	69	264	7
EXTAP	69	288	0
EXTAP	69	288	5
NMSTR	70	0	7
NMSI_	70	0	7	96	96	4
CNSUR	70	192	4	0	96	1
NMSTR	71	0	2
NMSXL	71	0	2	96	96	3
CNSI_	71	192	3	0	96	0
BRHLD	72	0	1	48
BRHLD	72	0	7	48
NMTAP	72	96	4
EXTAP	72	96	6
EXTAP	72	144	5
EXTAP	72	192	2
NMTAP	72	192	3
EXTAP	72	216	2
NMTAP	72	216	3
NMHLD	72	264	1	72
EXTAP	72	264	4
EXHLD	72	336	3	48
EXSTR	73	0	4
NMSI_	73	0	4	96	48	0
EXTAP	73	96	4
NMTAP	73	96	7
NMTTP	73	144	6	A	0	M1
NMTTP	73	152	6	E	0	M1
NMTTP	73	160	5	B	0	M1
NMTTP	73	168	4	B	0	M1
NMTTP	73	176	4	E	0	M1
NMTTP	73	184	3	A	0	M1
EXTAP	73	192	1
EXHLD	73	216	1	48
EXTAP	73	264	3
EXTAP	73	288	0
EXTAP	73	288	4
BRSTR	74	0	0
NMSI_	74	0	0	96	48	4
BRSTR	74	0	7
NMSI_	74	0	7	96	48	3
NMTAP	74	48	1
NMTAP	74	48	6
BRSTR	74	96	0
NMSCR	74	96	0	96	48	3
BRSTR	74	96	7
NMSCL	74	96	7	96	48	4
NMTTP	74	192	0	A	0	M1
NMTTP	74	192	0	D	1	M1
NMTTP	74	192	7	A	0	M1
NMTAP	74	288	2
NMTAP	74	336	1
NMTAP	74	336	3
EXTAP	75	0	1
NMTAP	75	0	3
EXTAP	75	48	0
NMTAP	75	48	7
EXTAP	75	96	4
NMTAP	75	96	6
EXTAP	75	144	6
EXTAP	75	156	7
EXTAP	75	168	0
EXTAP	75	180	1
NMTAP	75	192	3
NMTAP	75	216	3
NMHLD	75	264	2	72
NMHLD	75	264	4	72
NMTAP	76	0	3
NMTAP	76	0	5
NMTAP	76	48	2
NMTAP	76	72	1
NMTAP	76	72	3
NMTAP	76	120	5
NMTAP	76	144	4
NMTAP	76	144	6
BXTAP	76	192	0
BXTAP	76	192	1
BXTAP	76	216	0
BXTAP	76	216	1
BXTAP	76	264	6
BXTAP	76	264	7
EXTAP	76	312	1
EXTAP	76	312	5
EXTAP	76	336	1
EXTAP	76	336	5
NMTAP	77	0	2
NMTAP	77	24	3
NMTAP	77	48	0
NMTAP	77	72	6
NMTAP	77	96	4
NMTAP	77	120	5
NMTAP	77	144	1
NMTAP	77	168	7
EXTAP	77	192	1
NMTAP	77	204	2
NMTAP	77	216	3
NMTAP	77	228	4
EXTAP	77	240	1
NMTAP	77	252	0
NMTAP	77	264	7
NMTAP	77	276	6
EXSTR	77	288	1
BRSI_	77	288	1	96	48	5
NMTAP	77	300	2
NMTAP	77	312	3
NMTAP	77	324	4
EXTAP	77	336	1
NMTAP	77	348	0
NMTAP	77	360	7
NMTAP	77	372	6
BXTAP	78	0	1
BRTAP	78	0	5
NMTTP	78	24	0	C	1	M1

T_REC_TAP	391
T_REC_BRK	5
T_REC_XTP	71
T_REC_BXX	14
T_REC_HLD	33
T_REC_XHO	5
T_REC_BHO	2
T_REC_BXH	0
T_REC_STR	31
T_REC_BST	5
T_REC_XST	8
T_REC_XBS	7
T_REC_TTP	60
T_REC_THO	1
T_REC_SLD	48
T_REC_BSL	3
T_REC_ALL	684
T_NUM_TAP	561
T_NUM_BRK	36
T_NUM_HLD	39
T_NUM_SLD	48
T_NUM_ALL	684
T_JUDGE_TAP	592
T_JUDGE_HLD	131
T_JUDGE_SLD	51
T_JUDGE_ALL	774
TTM_EACHPAIRS	91
TTM_SCR_TAP	280500
TTM_SCR_BRK	93600
TTM_SCR_HLD	39000
TTM_SCR_SLD	72000
TTM_SCR_ALL	485100
TTM_SCR_S	467100
TTM_SCR_SS	481500
TTM_RAT_ACV	10074

