VERSION	0.00.00	1.04.00
FES_MODE	0
BPM_DEF	150.000	150.000	150.000	150.000
MET_DEF	4	4
RESOLUTION	384
CLK_DEF	384
COMPATIBLE_CODE	MA2

BPM	0	0	150.000
MET	0	0	4	4

NMHLD	2	0	2	384
NMTTP	2	192	3	E	0	M1
NMHLD	3	0	3	384
NMTTP	3	192	4	E	0	M1
NMHLD	4	0	1	384
NMTTP	4	192	3	E	0	M1
NMTAP	5	0	3
NMTAP	5	192	3
NMTAP	5	288	4
NMHLD	6	0	5	384
NMTTP	6	192	5	E	0	M1
NMHLD	7	0	4	384
NMTTP	7	192	4	E	0	M1
NMHLD	8	0	6	384
NMTTP	8	192	5	E	0	M1
NMSTR	9	0	4
NMSCL	9	0	4	96	144	1
NMTAP	10	0	2
NMTAP	10	0	3
NMTAP	10	96	2
NMTAP	10	96	3
NMTAP	10	192	3
NMTAP	10	192	4
NMTAP	10	288	3
NMTAP	10	288	4
NMTAP	11	0	4
NMTAP	11	0	5
NMTAP	11	96	4
NMTAP	11	96	5
NMTAP	11	192	3
NMTAP	11	192	4
NMTAP	11	288	3
NMTAP	11	288	4
NMTAP	12	0	1
NMTAP	12	0	3
NMTAP	12	96	1
NMTAP	12	96	3
NMTAP	12	192	3
NMTAP	12	192	4
NMTAP	12	288	3
NMTAP	12	288	4
NMTAP	13	0	4
NMTAP	13	0	6
NMTAP	13	96	4
NMTAP	13	96	6
NMTAP	13	192	3
NMTAP	13	192	4
NMTAP	13	288	3
NMTAP	13	288	4
NMHLD	14	0	2	72
NMHLD	14	72	3	72
NMHLD	14	144	1	72
NMTAP	14	216	2
NMTAP	14	288	1
NMTAP	14	288	3
NMHLD	15	0	5	72
NMHLD	15	72	4	72
NMHLD	15	144	6	72
NMTAP	15	216	5
NMTAP	15	288	4
NMTAP	15	288	6
NMTAP	16	0	7
NMTAP	16	48	7
NMTAP	16	96	1
NMTAP	16	144	1
NMTAP	16	192	6
NMTAP	16	240	6
NMTAP	16	288	0
NMTTP	17	0	0	C	1	M1
BXSTR	17	288	1
NMSI_	17	288	1	96	48	3
NMSTR	18	0	7
NMSI_	18	0	7	96	48	5
NMSTR	18	96	0
NMSI_	18	96	0	96	48	4
NMTAP	18	192	7
NMSTR	18	288	6
NMSI_	18	288	6	96	48	4
NMSTR	19	0	0
NMSI_	19	0	0	96	48	2
NMTAP	19	96	6
NMTAP	19	192	7
NMTAP	19	240	7
NMTAP	19	288	2
NMSTR	19	288	6
NMSI_	19	288	6	96	48	4
NMSTR	20	0	0
NMSI_	20	0	0	96	48	2
NMSTR	20	96	7
NMSI_	20	96	7	96	48	3
NMTAP	20	192	0
NMSTR	20	288	1
NMSI_	20	288	1	96	48	3
NMSTR	21	0	7
NMSI_	21	0	7	96	48	5
NMTAP	21	96	1
NMTAP	21	192	0
NMTAP	21	240	0
BRTAP	21	288	1
BRSTR	21	288	7
NMSI_	21	288	7	96	48	3
NMSTR	22	0	1
NMSI_	22	0	1	96	48	5
NMSTR	22	96	6
NMSI_	22	96	6	96	48	2
NMSTR	22	192	0
NMSI_	22	192	0	96	48	4
NMSTR	22	288	7
NMSI_	22	288	7	96	48	3
NMTAP	23	0	2
NMTAP	23	96	1
NMTAP	23	192	2
NMTAP	23	192	3
NMTAP	23	240	2
NMTAP	23	240	3
NMTAP	23	288	1
NMTAP	23	288	4
NMTAP	24	0	6
NMTAP	24	48	6
NMTAP	24	96	4
NMTAP	24	144	4
NMTAP	24	192	7
NMTAP	24	240	7
NMTAP	24	288	1
NMTAP	24	336	1
NMTAP	25	0	3
NMTAP	25	48	3
NMTAP	25	96	0
NMTAP	25	144	0
NMTAP	25	192	4
NMTAP	25	288	2
NMTAP	25	288	6
BRSTR	26	0	1
NMSXR	26	0	1	96	408	6
BRHLD	26	0	7	1344
CNSCR	27	120	6	0	432	5
CNSXR	28	168	5	0	408	2
NMHLD	30	0	1	384
NMTTP	30	192	0	B	0	M1
NMHLD	31	0	3	384
NMTTP	31	192	4	B	0	M1
NMHLD	32	0	2	384
NMTTP	32	192	1	B	0	M1
NMTAP	33	0	3
NMTAP	33	192	4
NMTAP	33	288	5
NMHLD	34	0	6	384
NMTTP	34	192	7	B	0	M1
NMHLD	35	0	4	384
NMTTP	35	192	3	B	0	M1
NMHLD	36	0	5	384
NMTTP	36	192	6	B	0	M1
NMSTR	37	0	7
NMSLL	37	0	7	96	192	3
NMHLD	38	0	2	96
NMTAP	38	0	3
NMTAP	38	96	3
NMTAP	38	192	3
NMHLD	38	192	4	96
NMTAP	38	288	3
NMHLD	39	0	1	96
NMTAP	39	0	3
NMTAP	39	96	3
NMTAP	39	192	2
NMTAP	39	192	4
NMTAP	39	288	3
NMTAP	39	288	5
NMTAP	40	0	4
NMHLD	40	0	6	96
NMTAP	40	96	4
NMHLD	40	192	2	96
NMTAP	40	192	4
NMTAP	40	288	4
NMTAP	41	0	4
NMHLD	41	0	7	96
NMTAP	41	96	4
NMTAP	41	192	3
NMTAP	41	192	6
NMTAP	41	288	2
NMTAP	41	288	5
NMHLD	42	0	2	96
NMHLD	42	96	3	96
NMHLD	42	192	4	96
NMHLD	42	288	5	96
NMHLD	43	0	1	96
NMHLD	43	96	3	96
NMHLD	43	192	4	96
NMHLD	43	288	6	96
NMTAP	44	0	0
NMTAP	44	48	0
NMTAP	44	96	3
NMTAP	44	144	3
NMTAP	44	192	1
NMTAP	44	240	1
NMTAP	44	288	5
NMTAP	44	336	5
NMSTR	45	0	3
NMSF_	45	0	3	96	192	7
BRSTR	46	0	1
NMSI_	46	0	1	96	192	6
BRSTR	46	0	5
NMSI_	46	0	5	96	192	2
NMSTR	47	0	3
NMSCR	47	0	3	96	192	6
NMSTR	47	0	7
NMSCR	47	0	7	96	192	2
NMTTP	48	0	3	E	0	M1
NMTTP	48	96	0	C	0	M1
NMTTP	48	192	7	E	0	M1
NMTTP	48	288	0	E	0	M1
NMTTP	49	0	1	E	0	M1
NMTTP	49	96	0	C	0	M1
NMTTP	49	192	5	E	0	M1
NMTTP	49	192	5	D	0	M1
BRSTR	50	0	2
NMSI_	50	0	2	96	192	5
BRSTR	50	0	6
NMSI_	50	0	6	96	192	1
NMSTR	51	0	0
NMSCL	51	0	0	96	192	5
NMSTR	51	0	4
NMSCL	51	0	4	96	192	1
NMHLD	52	0	2	72
NMTAP	52	72	3
NMTAP	52	144	1
NMTAP	52	144	4
NMHLD	52	192	5	72
NMTAP	52	264	4
NMTAP	52	336	3
NMTAP	52	336	6
NMHLD	53	0	1	72
NMTAP	53	72	0
NMTAP	53	144	2
NMTAP	53	144	7
NMHLD	53	192	6	72
NMTAP	53	264	7
NMTAP	53	336	0
NMTAP	53	336	5
BRTAP	54	0	0
BRTAP	54	0	5
NMTAP	54	192	2
NMTAP	54	192	3
NMTAP	54	288	2
NMTAP	54	288	3
NMTAP	55	0	1
NMTAP	55	0	2
NMTAP	55	96	1
NMTAP	55	96	2
NMTAP	55	192	0
NMTAP	55	192	1
NMTAP	55	288	0
NMTAP	55	288	1
NMTAP	56	0	0
NMTAP	56	0	7
NMTAP	56	96	0
NMTAP	56	96	7
NMTAP	56	192	6
NMTAP	56	192	7
NMTAP	56	288	6
NMTAP	56	288	7
NMTAP	57	0	5
NMTAP	57	0	6
NMTAP	57	96	5
NMTAP	57	96	6
NMTAP	57	192	4
NMTAP	57	192	5
NMTAP	57	288	3
NMTAP	57	288	6
NMHLD	58	0	5	72
NMHLD	58	72	4	72
NMHLD	58	144	6	72
NMTAP	58	216	5
NMTAP	58	288	4
NMTAP	58	288	7
NMHLD	59	0	2	72
NMHLD	59	72	3	72
NMHLD	59	144	1	72
NMTAP	59	216	2
NMTAP	59	288	0
NMTAP	59	288	3
NMTAP	60	0	5
NMTAP	60	48	5
NMTAP	60	96	1
NMTAP	60	144	1
NMTAP	60	192	7
NMTAP	60	216	0
NMTAP	60	240	7
NMTAP	60	264	0
NMTAP	60	288	7
NMTTP	61	0	0	C	1	M1
NMTTP	61	0	2	B	0	M1
NMTTP	61	0	2	A	0	M1
NMTTP	61	0	5	B	0	M1
NMTTP	61	0	5	A	0	M1
BXTAP	61	288	0
BXTAP	61	288	7
NMTAP	62	0	0
EXTAP	62	0	1
NMTAP	62	96	5
EXTAP	62	96	6
EXTAP	62	192	1
NMTAP	62	192	3
NMTAP	62	288	4
EXTAP	62	288	5
NMTAP	63	0	5
EXTAP	63	0	7
EXTAP	63	96	1
NMTAP	63	96	2
NMTAP	63	192	4
EXTAP	63	192	6
EXTAP	63	288	2
NMTAP	63	288	3
NMTAP	63	336	2
EXTAP	63	336	3
EXTAP	64	0	1
NMTAP	64	0	4
NMTAP	64	96	6
EXTAP	64	96	7
EXTAP	64	192	1
NMTAP	64	192	2
NMTAP	64	288	4
EXTAP	64	288	6
EXTAP	65	0	2
NMTAP	65	0	3
NMTAP	65	96	4
EXTAP	65	96	5
EXTAP	65	144	4
NMTAP	65	144	5
NMSTR	65	192	3
NMSI_	65	192	3	96	48	7
EXSTR	65	192	6
NMSI_	65	192	6	96	48	3
BXTAP	66	0	0
BRTAP	66	0	4
NMTAP	66	96	6
EXTAP	66	96	7
NMTAP	66	192	0
EXTAP	66	192	2
NMTAP	66	288	5
EXTAP	66	288	6
NMTAP	67	0	2
EXTAP	67	0	3
EXTAP	67	96	4
NMTAP	67	96	6
EXTAP	67	192	0
NMTAP	67	192	1
EXTAP	67	288	5
NMTAP	67	288	6
NMTAP	68	0	2
EXTAP	68	0	3
EXTAP	68	96	1
NMTAP	68	96	4
NMTAP	68	144	1
EXTAP	68	144	4
NMTAP	68	192	2
NMTAP	68	216	3
EXTAP	68	264	1
EXTAP	68	264	4
EXTAP	68	336	3
NMTAP	68	336	6
NMTAP	69	0	3
EXSTR	69	0	6
NMSI_	69	0	6	96	48	2
EXSTR	69	96	1
NMSI_	69	96	1	96	48	5
EXSTR	69	192	7
NMSI_	69	192	7	96	48	3
BXSTR	69	288	0
NMSCR	69	288	0	96	480	7
NMHLD	70	0	6	480
NMSTR	71	192	0
NMSI_	71	192	0	96	48	4
BRTAP	71	288	5
EXTAP	72	0	4
NMTAP	72	0	6
NMTAP	72	96	6
EXTAP	72	96	7
NMTAP	72	144	0
EXTAP	72	144	5
NMHLD	72	192	1	72
NMTAP	72	192	4
NMHLD	72	264	3	72
NMTAP	72	336	2
EXTAP	73	0	2
NMTAP	73	96	3
EXTAP	73	96	6
EXTAP	73	144	5
EXTAP	73	168	4
EXSTR	73	192	5
NMSI_	73	192	5	96	48	0
NMSI_	73	192	5	96	48	2
BXTAP	74	0	3
NMTAP	74	0	7
NMTAP	74	96	5
BXTAP	74	96	6
BXSTR	74	192	0
NMSI_	74	192	0	96	48	6
NMSTR	74	192	4
NMSI_	74	192	4	96	48	2
NMTAP	75	0	0
BXTAP	75	0	4
NMTAP	75	48	1
BXTAP	75	48	5
NMHLD	75	96	2	96
BXTAP	75	96	6
EXTAP	75	192	5
EXTAP	75	216	3
EXTAP	75	264	1
BXTAP	75	264	7
NMTAP	75	336	2
BXTAP	75	336	6
BXTAP	76	0	2
NMTAP	76	0	6
BXTAP	76	72	1
NMTAP	76	72	3
BXTAP	76	144	0
NMTAP	76	144	5
EXTAP	76	192	6
EXTAP	76	216	7
NMTAP	76	264	0
BXTAP	76	264	5
NMTAP	76	336	2
BXTAP	76	336	3
BXTAP	77	0	2
NMTAP	77	0	3
NMTAP	77	72	4
BXTAP	77	72	5
BXTAP	77	144	0
NMTAP	77	144	6
NMTAP	77	192	0
BXTAP	77	192	6
BRSTR	77	288	2
BRSI_	77	288	2	96	48	5
BRSTR	77	288	7
BRSI_	77	288	7	96	48	3

T_REC_TAP	216
T_REC_BRK	5
T_REC_XTP	41
T_REC_BXX	19
T_REC_HLD	46
T_REC_XHO	0
T_REC_BHO	1
T_REC_BXH	0
T_REC_STR	23
T_REC_BST	8
T_REC_XST	5
T_REC_XBS	3
T_REC_TTP	26
T_REC_THO	0
T_REC_SLD	38
T_REC_BSL	2
T_REC_ALL	433
T_NUM_TAP	311
T_NUM_BRK	38
T_NUM_HLD	46
T_NUM_SLD	38
T_NUM_ALL	433
T_JUDGE_TAP	346
T_JUDGE_HLD	200
T_JUDGE_SLD	40
T_JUDGE_ALL	586
TTM_EACHPAIRS	115
TTM_SCR_TAP	155500
TTM_SCR_BRK	98800
TTM_SCR_HLD	46000
TTM_SCR_SLD	57000
TTM_SCR_ALL	357300
TTM_SCR_S	342900
TTM_SCR_SS	353500
TTM_RAT_ACV	10107

