VERSION	0.00.00	1.05.00
FES_MODE	0
BPM_DEF	150.000	150.000	150.000	150.000
MET_DEF	4	4
RESOLUTION	384
CLK_DEF	384
COMPATIBLE_CODE	MA2

BPM	0	0	150.000
MET	0	0	4	4

NMTAP	2	0	7
NMTAP	2	192	7
NMTAP	3	0	6
NMTAP	3	192	6
NMTAP	4	0	5
NMTAP	4	192	5
NMTAP	5	0	4
NMTAP	5	0	5
NMTAP	6	0	3
NMTAP	6	192	3
NMTAP	7	0	2
NMTAP	7	192	2
NMTAP	8	0	1
NMTAP	8	192	1
NMTAP	9	0	0
NMTAP	9	0	1
NMTAP	10	0	0
NMTAP	10	192	0
NMTAP	11	0	1
NMTAP	11	192	1
NMTAP	12	0	2
NMTAP	12	192	2
NMTAP	13	0	2
NMTAP	13	0	3
NMTAP	14	0	4
NMTAP	14	192	4
NMTAP	15	0	5
NMTAP	15	192	5
NMTAP	16	0	6
NMTAP	16	192	6
NMTAP	17	0	6
NMTAP	17	0	7
BXTAP	18	0	7
NMTAP	18	96	7
NMTAP	18	192	7
NMTAP	19	0	6
NMTAP	19	192	6
NMTAP	20	0	5
NMTAP	20	96	5
NMTAP	20	192	5
NMTAP	21	0	3
NMTAP	21	0	4
NMTAP	22	0	3
NMTAP	22	96	3
NMTAP	22	192	3
NMTAP	23	0	2
NMTAP	23	192	2
NMTAP	24	0	1
NMTAP	24	96	1
NMTAP	24	192	1
NMTAP	25	0	0
NMTAP	25	0	7
NMTTP	26	0	0	B	0	L1
NMTTP	26	0	7	B	0	L1
NMTTP	27	0	1	B	0	L1
NMTTP	27	0	6	B	0	L1
NMTTP	28	0	2	B	0	L1
NMTTP	28	0	5	B	0	L1
NMTTP	29	0	0	C	0	L1
NMSTR	30	0	0
NMSI_	30	0	0	96	288	4
NMSTR	32	0	7
NMSI_	32	0	7	96	288	3
NMSTR	34	0	1
NMSI_	34	0	1	96	288	5
NMSTR	36	0	6
NMSI_	36	0	6	96	288	2
NMTAP	38	0	0
NMTAP	38	192	0
NMTAP	39	0	0
NMTAP	39	0	1
NMTAP	39	192	0
NMTAP	39	192	1
NMTAP	40	0	2
NMTAP	40	192	2
NMTAP	41	0	2
NMTAP	41	0	3
NMTAP	41	192	2
NMTAP	41	192	3
NMTAP	42	0	4
NMTAP	42	192	4
NMTAP	43	0	4
NMTAP	43	0	5
NMTAP	43	192	4
NMTAP	43	192	5
NMTAP	44	0	6
NMTAP	44	192	6
NMTAP	45	0	6
NMTAP	45	0	7
NMHLD	46	0	6	384
NMHLD	46	0	7	384
NMHLD	48	0	4	384
NMHLD	48	0	5	384
NMHLD	50	0	2	384
NMHLD	50	0	3	384
NMHLD	52	0	0	384
NMHLD	52	0	1	384
NMTTP	54	0	0	B	0	L1
NMTTP	55	0	7	B	0	L1
NMTTP	56	0	1	B	0	L1
NMTTP	57	0	6	B	0	L1
NMTTP	58	0	2	B	0	L1
NMTTP	59	0	5	B	0	L1
NMTHO	60	0	0	384	C	1	L1
BXTAP	62	0	0
NMTAP	62	96	0
NMTAP	62	192	0
NMTAP	63	0	1
NMTAP	63	96	1
NMTAP	63	192	1
NMTAP	64	0	2
NMTAP	64	96	2
NMTAP	64	192	2
NMTAP	65	0	2
NMTAP	65	0	3
NMTAP	65	192	2
NMTAP	65	192	3
NMTAP	66	0	4
NMTAP	66	96	4
NMTAP	66	192	4
NMTAP	67	0	5
NMTAP	67	96	5
NMTAP	67	192	5
NMTAP	68	0	6
NMTAP	68	96	6
NMTAP	68	192	6
NMTAP	69	0	6
NMTAP	69	0	7
NMTAP	69	192	6
NMTAP	69	192	7
NMHLD	70	0	0	384
NMHLD	70	0	7	384
NMTAP	71	192	0
NMTAP	71	192	7
BRTAP	72	0	6
NMTAP	72	96	6
NMTAP	72	192	6
NMTAP	72	288	6
NMTAP	73	0	5
NMTAP	73	96	5
NMTAP	73	192	4
NMTAP	73	192	5
NMTAP	74	0	3
NMTAP	74	96	3
NMTAP	74	192	3
NMTAP	74	288	3
NMTAP	75	0	2
NMTAP	75	96	2
NMTAP	75	192	2
NMTAP	75	192	3
NMTAP	76	0	1
NMTAP	76	96	1
NMTAP	76	192	1
NMTAP	76	288	1
NMTAP	77	0	0
NMTAP	77	96	0
NMTAP	77	192	0
NMTAP	77	192	7
BRTAP	78	0	0
BRTAP	78	0	7

T_REC_TAP	123
T_REC_BRK	3
T_REC_XTP	0
T_REC_BXX	2
T_REC_HLD	10
T_REC_XHO	0
T_REC_BHO	0
T_REC_BXH	0
T_REC_STR	4
T_REC_BST	0
T_REC_XST	0
T_REC_XBS	0
T_REC_TTP	13
T_REC_THO	1
T_REC_SLD	4
T_REC_BSL	0
T_REC_ALL	160
T_NUM_TAP	140
T_NUM_BRK	5
T_NUM_HLD	11
T_NUM_SLD	4
T_NUM_ALL	160
T_JUDGE_TAP	145
T_JUDGE_HLD	88
T_JUDGE_SLD	4
T_JUDGE_ALL	237
TTM_EACHPAIRS	27
TTM_SCR_TAP	70000
TTM_SCR_BRK	13000
TTM_SCR_HLD	11000
TTM_SCR_SLD	6000
TTM_SCR_ALL	100000
TTM_SCR_S	96550
TTM_SCR_SS	99500
TTM_RAT_ACV	10050

