VERSION	0.00.00	1.05.00
FES_MODE	0
BPM_DEF	170.000	170.000	170.000	170.000
MET_DEF	4	4
RESOLUTION	384
CLK_DEF	384
COMPATIBLE_CODE	MA2

BPM	0	0	170.000
MET	0	0	4	4

NMTHO	1	192	0	192	C	0	M1
BXSTR	2	0	7
NMSCL	2	0	7	96	624	0
EXTAP	3	336	3
EXHLD	4	0	3	96
NMTAP	4	96	1
NMHLD	4	144	1	96
NMHLD	4	240	0	96
BXSTR	4	336	2
NMSI_	4	336	2	96	48	6
EXTAP	5	48	1
BXSTR	5	96	1
NMSI_	5	96	1	96	48	5
BXSTR	5	192	0
NMSF_	5	192	0	96	48	4
NMTAP	6	0	2
NMTAP	6	48	4
EXTAP	6	96	0
NMTAP	6	96	6
NMHLD	6	144	5	96
NMTAP	6	240	4
EXTAP	6	288	1
NMTAP	6	288	7
NMHLD	6	336	2	96
NMTAP	7	48	3
NMTAP	7	96	0
EXTAP	7	96	6
NMTAP	7	144	5
NMSTR	7	192	3
NMSI_	7	192	3	96	48	7
NMTAP	7	192	4
NMTAP	7	240	2
EXTAP	7	288	1
NMTAP	8	0	6
NMTAP	8	48	0
NMTAP	8	96	1
EXTAP	8	96	7
NMHLD	8	144	2	96
NMTAP	8	240	3
NMTAP	8	288	0
EXTAP	8	288	6
NMHLD	8	336	5	96
NMTAP	9	48	4
EXTAP	9	96	3
NMTAP	9	96	6
NMTAP	9	144	2
NMSTR	9	192	0
NMSI_	9	192	0	96	48	4
NMTAP	9	192	1
NMTAP	9	240	7
EXTAP	9	288	6
NMTAP	9	336	5
NMTAP	9	360	5
NMTAP	10	0	3
NMTAP	10	48	6
NMTAP	10	96	1
EXTAP	10	96	7
NMHLD	10	144	2	96
NMTAP	10	240	3
NMTAP	10	288	0
EXTAP	10	288	6
NMHLD	10	336	5	96
NMTAP	11	48	4
NMTAP	11	96	3
EXTAP	11	96	6
NMTAP	11	144	5
NMTAP	11	192	3
NMTAP	11	192	4
NMTAP	11	240	2
EXTAP	11	288	1
EXTAP	11	288	6
NMTAP	11	336	0
NMTAP	11	360	7
NMTAP	12	0	0
NMTAP	12	24	7
NMTAP	12	48	0
NMTAP	12	72	7
NMTAP	12	96	0
NMTAP	12	120	7
EXTAP	12	144	0
EXTAP	12	156	1
EXTAP	12	168	2
EXTAP	12	180	3
EXTAP	12	192	4
EXTAP	12	204	5
EXTAP	12	216	6
EXTAP	12	228	7
EXTAP	12	240	0
EXTAP	12	252	1
EXTAP	12	264	2
EXTAP	12	276	3
EXSTR	12	288	0
NMSUR	12	288	0	96	192	6
EXSTR	12	288	4
NMSUR	12	288	4	96	192	2
BRSTR	13	288	0
NMSUL	13	288	0	96	48	4
BRTAP	13	288	4
EXHLD	14	0	7	96
EXTAP	14	96	3
EXTAP	14	144	6
NMTAP	14	168	6
EXTAP	14	192	4
BXTAP	14	240	5
NMHLD	14	288	1	48
NMTAP	14	336	3
NMSTR	15	0	2
NMSI_	15	0	2	96	48	4
NMHLD	15	48	6	48
NMTAP	15	96	2
NMTAP	15	144	5
NMTAP	15	168	5
EXTAP	15	192	4
EXTAP	15	240	6
NMTAP	15	288	3
EXSTR	15	288	7
NMSUR	15	288	7	96	48	3
EXHLD	16	0	0	96
NMTAP	16	96	4
NMTAP	16	144	1
NMTAP	16	168	3
NMTAP	16	192	2
NMSTR	16	240	5
BRSI_	16	240	5	96	48	3
NMTAP	16	288	4
EXTAP	16	336	5
NMTAP	17	0	2
NMHLD	17	48	1	48
NMTAP	17	96	3
NMTAP	17	144	0
NMTAP	17	168	1
NMTAP	17	192	2
NMTAP	17	216	3
NMTAP	17	240	4
NMTAP	17	264	5
NMTAP	17	288	6
NMSTR	17	288	7
NMSUL	17	288	7	96	48	3
EXHLD	18	0	2	96
NMTAP	18	96	1
NMTAP	18	144	2
NMTAP	18	168	2
BXTAP	18	192	0
NMTAP	18	240	1
NMHLD	18	288	5	48
NMTAP	18	336	7
NMTAP	19	0	6
NMHLD	19	48	2	48
NMTAP	19	96	0
NMTAP	19	144	1
NMTAP	19	168	1
NMTAP	19	192	0
NMTAP	19	240	2
NMSTR	19	288	3
NMSUR	19	288	3	96	48	7
NMTAP	19	288	7
EXHLD	20	0	4	96
NMTAP	20	96	0
NMTAP	20	144	5
NMTAP	20	168	7
NMTAP	20	192	6
NMTAP	20	240	0
NMTAP	20	240	7
NMTAP	20	288	1
NMTAP	20	312	0
NMSTR	20	336	2
NMSI_	20	336	2	96	48	4
NMSTR	21	48	2
NMSI_	21	48	2	96	48	7
NMTAP	21	96	6
NMSTR	21	144	2
NMSCR	21	144	2	96	48	4
NMSTR	21	192	5
NMSI_	21	192	5	96	48	7
NMTAP	21	240	2
CNSI_	21	288	4	0	48	0
NMTAP	21	288	5
BRTAP	22	0	2
BRSTR	22	0	6
NMSCL	22	0	6	96	144	1
NMTAP	22	96	1
NMSTR	22	144	1
NMSUR	22	144	1	96	96	6
NMTAP	22	240	7
NMTAP	22	288	7
NMHLD	22	336	7	96
NMTAP	23	48	6
NMTAP	23	72	0
NMTAP	23	96	5
NMTAP	23	120	1
NMTAP	23	144	4
NMTAP	23	168	2
NMTAP	23	192	5
NMTAP	23	216	3
NMTAP	23	240	6
NMTAP	23	264	2
NMHLD	23	288	7	96
NMSTR	24	0	2
NMSCL	24	0	2	96	144	5
NMTAP	24	96	5
NMSTR	24	144	5
NMSLR	24	144	5	96	96	1
NMTAP	24	240	3
NMTAP	24	288	3
NMHLD	24	336	3	96
NMTAP	25	48	1
NMTAP	25	72	1
NMTAP	25	96	3
NMTAP	25	120	4
NMTAP	25	144	5
NMTAP	25	168	6
NMTAP	25	192	3
NMTAP	25	216	2
NMTAP	25	240	1
NMTAP	25	264	0
NMTAP	25	288	3
NMTAP	25	288	7
BRSTR	26	0	1
NMSCR	26	0	1	96	144	6
BRTAP	26	0	5
NMTAP	26	96	6
NMSTR	26	144	6
NMSUL	26	144	6	96	96	1
NMTAP	26	240	0
NMTAP	26	288	0
NMHLD	26	336	0	96
NMTAP	27	48	1
NMTAP	27	72	7
NMTAP	27	96	2
NMTAP	27	120	6
NMTAP	27	144	3
NMTAP	27	168	5
NMTAP	27	192	2
NMTAP	27	216	4
NMTAP	27	240	1
NMTAP	27	264	5
NMHLD	27	288	0	96
NMHLD	28	0	5	96
NMTAP	28	96	7
NMHLD	28	144	7	96
NMTAP	28	240	0
NMTAP	28	288	0
NMHLD	28	336	1	96
NMTAP	28	336	7
NMSTR	29	48	0
NMSI_	29	48	0	96	48	3
NMTAP	29	64	7
NMTAP	29	80	6
NMSTR	29	96	5
NMSI_	29	96	5	96	48	2
NMTAP	29	144	0
NMTAP	29	192	5
NMTAP	29	240	1
BRTAP	29	288	0
BRTAP	29	288	4
NMHLD	30	0	1	48
NMHLD	30	48	2	48
NMHLD	30	96	1	48
NMHLD	30	144	3	96
NMTAP	30	240	0
NMTAP	30	288	3
NMTAP	30	336	4
NMTAP	30	336	7
NMHLD	31	48	6	48
NMHLD	31	96	5	48
NMHLD	31	144	7	96
NMTAP	31	240	4
NMTAP	31	288	0
NMTAP	31	288	3
NMHLD	32	0	1	48
NMHLD	32	48	2	48
NMHLD	32	96	0	48
NMHLD	32	144	3	48
NMHLD	32	192	1	48
NMTAP	32	240	3
NMTAP	32	288	0
NMTAP	32	336	4
NMTAP	32	336	7
NMHLD	33	48	5	48
NMHLD	33	96	6	48
NMHLD	33	144	7	96
NMTAP	33	240	4
NMTAP	33	288	0
NMTAP	33	288	3
NMHLD	34	0	1	48
NMHLD	34	48	3	48
NMHLD	34	96	0	48
NMHLD	34	144	2	96
NMHLD	34	240	0	48
NMTAP	34	288	3
NMTAP	34	336	4
NMTAP	34	336	7
NMHLD	35	48	6	48
NMHLD	35	96	4	48
NMHLD	35	144	5	96
NMTAP	35	240	7
NMTAP	35	288	0
NMTAP	35	288	6
NMTAP	36	0	0
NMSTR	36	48	0
NMSCR	36	48	0	96	48	3
NMTAP	36	96	3
NMTAP	36	144	0
NMSTR	36	240	7
NMSCL	36	240	7	96	48	4
NMTAP	36	288	4
NMTAP	36	336	7
NMSTR	37	48	0
NMSCR	37	48	0	96	48	3
NMTAP	37	96	3
NMTAP	37	144	0
NMSTR	37	192	4
NMSI_	37	192	4	96	48	1
NMSI_	37	192	4	96	48	6
NMTAP	37	240	3
NMTAP	37	240	5
BRTAP	37	288	4
NMTAP	38	0	7
NMTAP	38	48	7
NMTAP	38	96	0
EXTAP	38	96	1
NMHLD	38	144	2	96
NMTAP	38	240	0
NMTAP	38	288	1
EXTAP	38	288	7
NMHLD	38	336	6	96
NMTAP	39	48	7
EXTAP	39	96	0
NMTAP	39	96	6
NMTAP	39	144	1
NMTAP	39	192	2
NMTAP	39	192	3
NMTAP	39	240	4
NMTAP	39	288	0
EXTAP	39	288	5
NMTAP	39	336	6
NMHLD	39	336	7	96
NMTTP	40	48	6	E	0	M1
NMTTP	40	64	5	B	0	M1
NMTTP	40	80	4	B	0	M1
NMTTP	40	96	4	E	0	M1
NMTTP	40	144	1	E	0	M1
NMTTP	40	144	1	D	0	M1
NMTTP	40	192	5	E	0	M1
NMTTP	40	192	5	D	0	M1
NMTTP	40	240	3	E	0	M1
NMTTP	40	240	3	D	0	M1
NMTTP	40	288	7	E	0	M1
NMTTP	40	288	7	D	0	M1
NMTTP	40	336	0	E	0	M1
NMTTP	40	336	0	D	0	M1
NMTTP	41	48	4	E	0	M1
NMTTP	41	96	3	E	0	M1
NMTTP	41	96	5	E	0	M1
NMTTP	41	144	2	E	0	M1
NMTTP	41	144	6	E	0	M1
NMTTP	41	192	1	E	0	M1
NMTTP	41	192	7	E	0	M1
NMTAP	41	288	2
NMTAP	41	288	5
NMHLD	42	0	3	432
NMTAP	42	0	4
NMTAP	42	48	4
NMTAP	42	96	4
NMTTP	42	192	3	E	0	M1
NMTAP	42	288	2
NMTAP	42	336	2
NMTAP	43	48	4
NMHLD	43	96	4	288
NMTTP	43	192	5	E	0	M1
NMTAP	43	288	5
NMTAP	44	0	3
NMTAP	44	48	3
NMTAP	44	96	2
NMTAP	44	96	4
NMTAP	44	192	1
NMTAP	44	192	5
NMTAP	44	240	1
NMTAP	44	240	5
NMTAP	44	288	0
NMTAP	44	288	4
NMTAP	44	336	0
NMTAP	44	336	4
NMSTR	45	0	3
NMSCR	45	0	3	96	48	5
NMSTR	45	0	7
NMSCR	45	0	7	96	48	1
NMSTR	45	96	3
NMSI_	45	96	3	96	48	6
NMSTR	45	96	7
NMSI_	45	96	7	96	48	2
NMSTR	45	192	3
NMSI_	45	192	3	96	48	7
NMSTR	45	192	7
NMSI_	45	192	7	96	48	3
NMTAP	45	288	3
NMTAP	45	288	7
BRTAP	46	0	2
BRHLD	46	0	6	480
NMTTP	46	192	0	A	0	M1
NMTTP	46	216	0	B	0	M1
NMTTP	46	240	0	C	0	M1
NMTTP	46	264	4	B	0	M1
NMTTP	46	288	4	A	0	M1
NMTAP	47	0	2
NMHLD	47	96	2	384
NMTTP	47	192	7	A	0	M1
NMTTP	47	216	7	B	0	M1
NMTTP	47	240	0	C	0	M1
NMTTP	47	264	3	B	0	M1
NMTTP	47	288	3	A	0	M1
NMTAP	48	0	5
NMHLD	48	96	5	384
NMTTP	48	192	3	A	0	M1
NMTTP	48	216	3	B	0	M1
NMTTP	48	240	0	C	0	M1
NMTTP	48	264	7	B	0	M1
NMTTP	48	288	7	A	0	M1
NMTAP	49	0	1
NMHLD	49	96	1	384
NMTTP	49	192	4	A	0	M1
NMTTP	49	216	4	B	0	M1
NMTTP	49	240	0	C	0	M1
NMTTP	49	264	0	B	0	M1
NMTTP	49	288	0	A	0	M1
NMTAP	50	0	7
NMHLD	50	96	7	384
NMTTP	50	192	1	A	0	M1
NMTTP	50	216	1	B	0	M1
NMTTP	50	240	0	C	0	M1
NMTTP	50	264	5	B	0	M1
NMTTP	50	288	5	A	0	M1
NMTAP	51	0	3
NMHLD	51	96	3	384
NMTTP	51	192	6	A	0	M1
NMTTP	51	216	6	B	0	M1
NMTTP	51	240	0	C	0	M1
NMTTP	51	264	2	B	0	M1
NMTTP	51	288	2	A	0	M1
NMTAP	52	0	1
NMTAP	52	96	4
NMTAP	52	192	2
NMTAP	52	192	5
NMTAP	52	240	2
NMTAP	52	240	5
NMTTP	52	336	0	C	0	M1
NMTTP	52	336	5	A	0	M1
NMTTP	52	336	6	B	0	M1
NMTTP	52	336	6	A	1	M1
NMTTP	52	336	6	D	0	M1
NMTTP	52	336	7	B	0	M1
NMTTP	52	336	7	A	0	M1
NMTTP	53	96	0	B	0	M1
NMTTP	53	96	0	A	0	M1
NMTTP	53	96	1	B	0	M1
NMTTP	53	96	1	A	1	M1
NMTTP	53	96	1	D	0	M1
NMTTP	53	192	3	B	0	M1
NMTTP	53	192	4	B	0	M1
NMTTP	53	192	4	E	0	M1
NMTTP	53	192	4	D	1	M1
BRSTR	53	288	2
BRSI_	53	288	2	96	96	0
BRTAP	53	288	5
NMTAP	54	0	4
CNSV_	54	96	0	0	192	7
NMTAP	54	96	4
NMTAP	54	192	3
NMTAP	54	288	3
CNSI_	54	288	7	0	384	5
NMTAP	55	0	2
NMTAP	55	96	2
NMTAP	55	192	2
NMTAP	55	288	2
CNSI_	55	288	5	0	288	7
NMTAP	56	0	3
NMTAP	56	96	3
NMTAP	56	192	4
CNSV_	56	192	7	0	192	0
NMTAP	56	288	4
CNSI_	57	0	0	0	96	2
NMTAP	57	0	5
NMTAP	57	96	5
NMTAP	57	192	4
NMTAP	57	192	5
NMTAP	57	288	3
NMTAP	57	288	6
NMTAP	58	0	2
NMTAP	58	48	2
NMTAP	58	96	3
NMTAP	58	144	3
NMTAP	58	192	1
NMTAP	58	240	1
NMTAP	58	288	1
NMTAP	58	288	4
NMTAP	58	336	2
NMTAP	58	360	3
NMTAP	59	0	2
NMTAP	59	48	5
NMTAP	59	96	5
NMTAP	59	144	4
NMTAP	59	192	4
NMTAP	59	240	6
NMTAP	59	288	6
NMTAP	59	336	2
NMTAP	59	360	7
NMTAP	60	0	2
NMTAP	60	24	7
NMTAP	60	48	2
NMTAP	60	72	7
NMTAP	60	96	2
NMTAP	60	120	7
NMTTP	60	144	4	E	0	M1
NMTTP	60	156	5	E	0	M1
NMTTP	60	168	6	E	0	M1
NMTTP	60	180	7	E	0	M1
NMTTP	60	192	0	E	0	M1
NMTTP	60	204	1	E	0	M1
NMTTP	60	216	2	E	0	M1
NMTTP	60	228	3	E	0	M1
NMTTP	60	240	4	D	0	M1
NMTTP	60	252	5	D	0	M1
NMTTP	60	264	6	D	0	M1
NMTTP	60	276	7	D	0	M1
NMTTP	60	288	0	D	0	M1
NMTTP	60	300	1	D	0	M1
NMTTP	60	312	2	D	0	M1
NMTTP	60	324	3	D	0	M1
NMTHO	60	336	0	336	C	1	M1
NMTTP	60	336	4	D	0	M1
NMSTR	61	192	3
NMSI_	61	192	3	96	48	7
NMSTR	62	0	1
NMSI_	62	0	1	96	48	5
NMSTR	62	48	0
NMSI_	62	48	0	96	24	6
NMTAP	62	96	1
NMTAP	62	144	0
CNSCL	62	168	6	0	24	4
CNSI_	62	192	4	0	48	2
NMSTR	62	240	7
NMSI_	62	240	7	96	48	2
NMSI_	62	240	7	96	48	3
NMTAP	62	288	0
NMTAP	62	336	7
NMTAP	63	48	1
NMHLD	63	48	4	48
NMTAP	63	96	1
NMTAP	63	112	0
NMTAP	63	128	7
NMTAP	63	144	6
NMTAP	63	160	5
NMTAP	63	176	4
NMTAP	63	192	3
NMTAP	63	192	7
BRTAP	63	240	7
BRTAP	63	288	1
BRTAP	63	288	5
NMSTR	64	0	1
NMSI_	64	0	1	96	48	5
NMSTR	64	48	3
NMSCR	64	48	3	96	72	0
NMTAP	64	96	1
NMTAP	64	144	3
NMTAP	64	240	4
NMTAP	64	288	4
NMSTR	64	336	0
NMSI_	64	336	0	96	48	5
NMTAP	64	336	4
NMTAP	65	48	0
BRSTR	65	48	2
NMSI_	65	48	2	96	48	7
NMTAP	65	144	2
BRHLD	65	144	6	96
BRTAP	65	240	0
BRTAP	65	288	1
NMTAP	65	288	5
NMSTR	66	0	6
NMSI_	66	0	6	96	48	3
NMSTR	66	48	3
NMSI_	66	48	3	96	48	6
NMSTR	66	96	6
NMSI_	66	96	6	96	48	4
NMTAP	66	144	0
NMTAP	66	240	1
CNSI_	66	240	4	0	48	0
NMTAP	66	288	1
NMHLD	66	336	2	96
NMSTR	66	336	6
NMSCR	66	336	6	96	48	1
NMTAP	67	48	6
NMTAP	67	96	2
NMTAP	67	112	3
NMTAP	67	128	4
NMTAP	67	144	5
NMTAP	67	160	6
NMTAP	67	176	7
NMSTR	67	192	0
NMSI_	67	192	0	96	48	3
NMSI_	67	192	0	96	48	5
BXTAP	67	240	1
BXTAP	67	240	7
BRTAP	67	288	0
NMTAP	68	0	4
NMTAP	68	0	6
NMTAP	68	48	7
NMTAP	68	96	0
NMTAP	68	96	1
NMSTR	68	144	2
NMSI_	68	144	2	96	48	0
NMSTR	68	192	7
NMSI_	68	192	7	96	48	3
NMTAP	68	240	2
NMTAP	68	288	7
NMSTR	68	336	1
NMSI_	68	336	1	96	48	5
BRSTR	69	48	1
NMSF_	69	48	1	96	48	5
BRTAP	69	144	1
BXTAP	69	240	3
BXTAP	69	240	7
NMTTP	69	288	0	C	1	M1
NMTTP	69	288	1	B	0	M1
NMTTP	69	288	1	A	0	M1
NMTTP	69	288	5	B	0	M1
NMTTP	69	288	5	A	0	M1
NMSTR	70	0	6
NMSI_	70	0	6	96	48	2
NMSTR	70	48	7
NMSCR	70	48	7	96	24	1
NMTAP	70	96	6
NMTAP	70	144	7
CNSI_	70	168	1	0	24	3
CNSCR	70	192	3	0	48	5
NMSTR	70	240	0
NMSI_	70	240	0	96	48	4
NMSI_	70	240	0	96	48	5
NMTAP	70	288	7
NMTAP	70	336	0
NMHLD	71	48	3	48
NMTAP	71	48	6
NMTAP	71	96	6
NMTAP	71	112	7
NMTAP	71	128	0
NMTAP	71	144	1
NMTAP	71	160	2
NMTAP	71	176	3
NMTAP	71	192	0
NMTAP	71	192	4
BRTAP	71	240	0
BRTAP	71	288	2
BRTAP	71	288	6
NMSTR	72	0	6
BRSI_	72	0	6	96	48	2
NMSTR	72	48	4
NMSLL	72	48	4	96	64	0
NMTAP	72	96	6
NMTAP	72	144	4
CNSI_	72	208	0	0	32	6
NMTAP	72	240	3
NMTAP	72	288	3
NMTAP	72	336	3
NMSTR	72	336	7
NMSCR	72	336	7	96	48	2
BRSTR	73	48	5
NMSI_	73	48	5	96	48	0
NMTAP	73	48	7
BRHLD	73	144	1	96
NMTAP	73	144	5
BRTAP	73	240	7
NMTAP	73	288	2
BRTAP	73	288	6
NMSTR	74	0	1
NMSI_	74	0	1	96	48	4
NMSTR	74	48	4
NMSI_	74	48	4	96	48	1
NMSTR	74	96	1
NMSCR	74	96	1	96	48	3
NMTAP	74	144	7
CNSI_	74	240	3	0	48	7
NMTAP	74	240	6
NMTAP	74	288	6
NMSTR	74	336	1
NMSCR	74	336	1	96	48	4
NMHLD	74	336	5	96
NMTAP	75	48	1
NMTAP	75	96	5
NMTAP	75	112	6
NMTAP	75	128	7
NMTAP	75	144	0
NMTAP	75	160	1
NMTAP	75	176	2
NMSTR	75	192	3
NMSI_	75	192	3	96	48	0
NMSI_	75	192	3	96	48	6
BXTAP	75	240	2
BXTAP	75	240	4
BRTAP	75	288	3
NMTAP	76	0	7
NMTAP	76	48	0
NMTAP	76	48	6
NMTAP	76	96	2
NMTAP	76	144	1
NMTAP	76	144	3
NMTAP	76	192	4
NMTAP	76	192	5
NMTAP	76	240	6
NMTAP	76	240	7
NMTAP	76	288	0
NMTAP	76	288	1
BRTAP	76	336	2
BRHLD	76	336	7	96
NMTAP	77	48	0
NMTAP	77	72	0
NMTAP	77	96	0
NMTAP	77	144	6
NMTAP	77	168	6
NMSTR	77	192	6
BRSF_	77	192	6	96	48	2
NMTTP	77	288	6	A	1	M1
BRHLD	78	0	0	96
BRTAP	78	0	4
NMHLD	78	96	5	48
NMTAP	78	144	1
NMTAP	78	168	3
NMHLD	78	192	2	48
NMTAP	78	240	5
NMTAP	78	264	4
NMHLD	78	288	6	48
NMTAP	78	336	3
NMTAP	78	360	4
NMHLD	79	0	1	48
NMTAP	79	48	3
NMTAP	79	72	2
NMHLD	79	96	7	48
NMTAP	79	144	4
NMTAP	79	168	5
NMHLD	79	192	1	48
NMTAP	79	240	4
NMTAP	79	264	2
NMSTR	79	288	3
NMSI_	79	288	3	96	48	0
NMTAP	79	336	4
BRTAP	80	0	3
BRSTR	80	0	6
NMSI_	80	0	6	96	48	4
NMSTR	80	96	6
NMSI_	80	96	6	96	48	1
NMTAP	80	144	0
NMTAP	80	168	0
NMSTR	80	192	6
NMSI_	80	192	6	96	48	3
NMTAP	80	240	2
NMTAP	80	264	2
NMSTR	80	288	6
NMSI_	80	288	6	96	48	0
NMTAP	80	336	0
NMTAP	80	360	0
NMTAP	81	0	6
NMTAP	81	48	2
NMTAP	81	72	2
NMHLD	81	96	7	48
NMTAP	81	144	2
NMTAP	81	168	1
NMTAP	81	192	0
NMTAP	81	216	7
NMTAP	81	240	6
NMTAP	81	264	5
NMSTR	81	288	3
NMSI_	81	288	3	96	48	1
NMSTR	81	288	4
NMSI_	81	288	4	96	48	6
BRTAP	82	0	3
BRTAP	82	0	4
EXSTR	82	96	1
NMSI_	82	96	1	96	48	7
NMSTR	82	144	7
NMSI_	82	144	7	96	48	5
NMSTR	82	192	5
NMSV_	82	192	5	96	48	3
NMSTR	82	240	3
NMSCL	82	240	3	96	48	0
EXTAP	82	288	4
BXTAP	82	336	4
NMTAP	83	48	6
NMTAP	83	72	6
NMTAP	83	96	7
NMTAP	83	144	1
NMTAP	83	168	1
NMTAP	83	192	0
NMTAP	83	240	7
NMTAP	83	264	7
NMSTR	83	288	0
NMSV_	83	288	0	96	48	3
NMSTR	83	288	6
NMSV_	83	288	6	96	48	3
BRTAP	84	0	0
BRTAP	84	0	6
NMTAP	84	96	2
NMTAP	84	96	4
NMTAP	84	144	1
NMTAP	84	168	3
NMTAP	84	192	0
NMTAP	84	240	1
NMTAP	84	240	7
NMTAP	84	288	5
NMTAP	84	312	4
NMHLD	84	336	6	96
NMTAP	85	48	7
NMTAP	85	96	6
NMTAP	85	96	7
NMTAP	85	144	0
NMTAP	85	144	7
NMTAP	85	192	0
NMTAP	85	192	1
NMTAP	85	240	2
NMTAP	85	240	3
NMTAP	85	288	4
NMTAP	85	288	5
NMTAP	85	336	6
BRTAP	86	0	5
BRTAP	86	0	7
NMTAP	86	48	2
NMTAP	86	72	3
NMTAP	86	96	1
BRTAP	86	144	0
BRTAP	86	144	2
NMTAP	86	192	5
NMTAP	86	216	4
NMTAP	86	240	5
BRTAP	86	288	1
BRTAP	86	288	6
BRTAP	86	336	0
BRTAP	86	336	7
NMTAP	86	348	1
NMTAP	86	348	6
NMTAP	86	360	2
NMTAP	86	360	5
NMTAP	86	372	3
NMTAP	86	372	4

T_REC_TAP	409
T_REC_BRK	36
T_REC_XTP	38
T_REC_BXX	9
T_REC_HLD	66
T_REC_XHO	5
T_REC_BHO	5
T_REC_BXH	0
T_REC_STR	64
T_REC_BST	8
T_REC_XST	4
T_REC_XBS	4
T_REC_TTP	92
T_REC_THO	2
T_REC_SLD	81
T_REC_BSL	4
T_REC_ALL	827
T_NUM_TAP	607
T_NUM_BRK	66
T_NUM_HLD	73
T_NUM_SLD	81
T_NUM_ALL	827
T_JUDGE_TAP	664
T_JUDGE_HLD	180
T_JUDGE_SLD	85
T_JUDGE_ALL	929
TTM_EACHPAIRS	102
TTM_SCR_TAP	303500
TTM_SCR_BRK	171600
TTM_SCR_HLD	73000
TTM_SCR_SLD	121500
TTM_SCR_ALL	669600
TTM_SCR_S	643150
TTM_SCR_SS	663000
TTM_RAT_ACV	10099

