VERSION	0.00.00	1.05.00
FES_MODE	0
BPM_DEF	170.000	170.000	170.000	170.000
MET_DEF	4	4
RESOLUTION	384
CLK_DEF	384
COMPATIBLE_CODE	MA2

BPM	0	0	170.000
MET	0	0	4	4

NMTTP	2	0	0	C	1	M1
NMTTP	2	0	2	B	0	M1
NMTTP	2	0	2	E	0	M1
NMTTP	2	0	6	B	0	M1
NMTTP	2	0	6	E	0	M1
EXTAP	3	336	6
EXTAP	3	336	7
EXTAP	4	0	0
EXTAP	4	0	5
BXTAP	4	336	2
EXTAP	4	336	4
NMTAP	5	48	1
NMTAP	5	48	5
BXTAP	5	96	1
EXTAP	5	96	5
BXTAP	5	192	0
EXSTR	5	192	6
NMSI_	5	192	6	96	48	2
NMHLD	6	0	1	96
EXTAP	6	96	0
NMTAP	6	144	1
NMTAP	6	240	6
EXTAP	6	288	6
NMTAP	6	336	7
NMTAP	7	48	5
EXTAP	7	96	4
EXTAP	7	96	5
NMTAP	7	192	2
NMTAP	7	240	2
EXTAP	7	288	1
EXTAP	7	288	3
NMTAP	8	0	5
NMTAP	8	48	5
EXTAP	8	96	4
NMTAP	8	144	6
NMTAP	8	240	1
EXTAP	8	288	1
NMTAP	8	336	0
NMTAP	9	48	2
EXTAP	9	96	2
EXTAP	9	96	3
NMTAP	9	192	5
NMTAP	9	240	5
EXTAP	9	288	4
EXTAP	9	288	6
NMTAP	10	0	1
NMTAP	10	48	1
EXTAP	10	96	0
NMTAP	10	144	2
NMTAP	10	240	5
EXTAP	10	288	5
NMTAP	10	336	4
NMTAP	11	48	6
EXTAP	11	96	6
EXTAP	11	96	7
NMTAP	11	192	0
NMTAP	11	240	0
EXSTR	11	288	1
NMSCR	11	288	1	96	192	7
EXTAP	11	288	7
NMTAP	12	288	1
NMTAP	12	288	3
EXTAP	12	336	1
EXTAP	12	336	3
NMTAP	13	48	4
NMTAP	13	48	6
EXTAP	13	96	4
EXTAP	13	96	6
NMSTR	13	192	0
BRSI_	13	192	0	96	48	4
NMSTR	13	192	7
BRSI_	13	192	7	96	48	3
BXTAP	14	0	1
BXTAP	14	0	6
NMTAP	14	96	3
NMTAP	14	96	4
NMTAP	14	192	5
NMTAP	14	240	4
NMTAP	14	240	5
NMHLD	14	336	1	96
NMTAP	14	336	7
NMTAP	15	48	3
NMTAP	15	96	2
NMTAP	15	96	3
NMTAP	15	192	4
NMTAP	15	192	6
NMTAP	15	288	0
NMSTR	15	288	1
NMSI_	15	288	1	96	48	4
NMTAP	16	96	5
NMTAP	16	192	6
NMTAP	16	192	7
NMSTR	16	240	6
NMSI_	16	240	6	96	48	2
NMTAP	16	240	7
NMSTR	17	48	0
NMSV_	17	48	0	96	48	1
NMTAP	17	96	0
CNSCR	17	192	1	0	144	4
BXTAP	18	0	7
NMTAP	18	96	4
NMTAP	18	96	6
NMTAP	18	192	2
NMTAP	18	240	2
NMTAP	18	240	3
NMTAP	18	336	0
NMHLD	18	336	6	96
NMTAP	19	48	4
NMTAP	19	96	4
NMTAP	19	96	5
NMTAP	19	192	1
NMTAP	19	192	3
NMSTR	19	288	6
NMSI_	19	288	6	96	48	3
NMTAP	19	288	7
NMTAP	20	96	2
NMTAP	20	192	0
NMTAP	20	192	1
NMTAP	20	240	0
NMSTR	20	240	1
NMSI_	20	240	1	96	48	5
NMTAP	21	48	6
NMSTR	21	96	6
NMSCL	21	96	6	96	48	3
NMSTR	21	192	0
NMSI_	21	192	0	96	48	4
NMHLD	22	0	3	96
NMHLD	22	0	5	96
NMHLD	22	144	3	96
NMHLD	22	144	5	96
NMTAP	22	288	2
NMTAP	22	288	6
NMTAP	22	336	2
NMTAP	22	336	6
NMTAP	23	48	0
NMTAP	23	96	1
NMTAP	23	144	2
NMTAP	23	192	3
NMTAP	23	240	4
NMTAP	23	288	1
NMTAP	23	288	5
NMHLD	24	0	2	96
NMHLD	24	0	4	96
NMHLD	24	144	2	96
NMHLD	24	144	4	96
NMTAP	24	288	1
NMTAP	24	288	5
NMTAP	24	336	1
NMTAP	24	336	5
NMTAP	25	48	7
NMTAP	25	96	6
NMTAP	25	144	5
NMTAP	25	192	4
NMTAP	25	240	3
NMTAP	25	288	2
NMTAP	25	288	6
NMHLD	26	0	3	96
NMHLD	26	0	5	96
NMHLD	26	144	2	96
NMHLD	26	144	4	96
NMTAP	26	288	1
NMTAP	26	288	3
NMTAP	26	336	1
NMTAP	26	336	3
NMTAP	27	48	5
NMTAP	27	96	6
NMTAP	27	144	7
NMTAP	27	192	0
NMTAP	27	240	1
NMTAP	27	288	2
NMTAP	27	288	6
NMHLD	28	0	4	96
NMHLD	28	0	5	96
NMHLD	28	144	2	96
NMHLD	28	144	3	96
NMTAP	28	288	0
NMTAP	28	288	7
NMSTR	28	336	0
NMSXL	28	336	0	96	192	3
NMSTR	28	336	7
NMSXR	28	336	7	96	192	4
BRTAP	29	288	1
BRTAP	29	288	6
NMTAP	30	0	2
NMTAP	30	48	2
NMTAP	30	96	3
NMHLD	30	144	1	96
NMTAP	30	240	3
NMTAP	30	288	3
NMTAP	30	336	2
NMTAP	31	48	7
NMTAP	31	96	7
NMHLD	31	144	6	96
NMTAP	31	240	7
NMTAP	31	288	6
NMTAP	32	0	2
NMTAP	32	48	2
NMTAP	32	96	3
NMTAP	32	144	3
NMTAP	32	192	1
NMHLD	32	240	3	96
NMTAP	32	336	2
NMTAP	33	48	7
NMTAP	33	96	7
NMHLD	33	144	6	96
NMTAP	33	240	7
NMTAP	33	288	0
NMTAP	33	288	6
NMTAP	34	0	2
NMTAP	34	48	2
NMTAP	34	96	3
NMHLD	34	144	1	96
NMTAP	34	240	3
NMTAP	34	288	3
NMTAP	34	336	2
NMTAP	34	336	4
NMTAP	35	48	7
NMTAP	35	96	7
NMTAP	35	144	6
NMTAP	35	240	6
NMTAP	35	240	7
NMTAP	35	288	0
NMTAP	35	288	5
NMTAP	36	0	2
NMTAP	36	48	2
NMTAP	36	96	3
NMHLD	36	144	1	96
NMTAP	36	240	3
NMTAP	36	288	3
NMHLD	36	336	2	96
NMTAP	37	48	3
NMTAP	37	96	2
NMTAP	37	96	3
NMTAP	37	192	3
NMTAP	37	192	4
NMTAP	37	288	4
NMTAP	37	288	5
NMTAP	38	0	6
NMTAP	38	48	6
NMTAP	38	96	4
NMHLD	38	144	5	96
NMTAP	38	240	4
NMTAP	38	288	4
NMHLD	38	336	6	96
NMTAP	39	48	0
NMTAP	39	96	0
NMTAP	39	192	6
NMTAP	39	192	7
NMTAP	39	288	0
NMSTR	39	288	1
NMSXR	39	288	1	96	240	5
NMTAP	40	288	7
NMTAP	41	0	4
NMTAP	41	0	5
NMSTR	41	96	2
NMSI_	41	96	2	96	48	5
NMSTR	41	192	6
NMSI_	41	192	6	96	48	1
NMTAP	42	0	2
NMTAP	42	48	2
NMTAP	42	96	2
NMTAP	42	192	2
EXTAP	42	192	6
NMTAP	42	240	2
NMTAP	42	288	2
NMTAP	42	336	2
NMTAP	43	48	2
NMTAP	43	96	2
NMTAP	43	144	2
EXTAP	43	192	6
NMTAP	43	240	2
NMTAP	43	288	2
NMTAP	44	0	2
NMTAP	44	48	2
NMTAP	44	96	2
NMTAP	44	192	2
EXTAP	44	192	6
NMTAP	44	240	2
NMTAP	44	288	2
NMHLD	44	336	2	96
NMTAP	45	96	2
NMTAP	45	96	6
NMTAP	45	192	1
NMTAP	45	192	5
NMTAP	45	288	0
NMTAP	45	288	4
BRTAP	46	0	3
BRTAP	46	0	7
NMSTR	46	240	1
NMSUR	46	240	1	96	240	4
NMHLD	46	240	5	96
NMHLD	47	288	2	96
NMSTR	47	288	6
NMSCL	47	288	6	96	96	3
NMSTR	48	240	2
NMSUL	48	240	2	96	240	7
NMHLD	48	240	6	96
NMSTR	49	288	1
NMSCR	49	288	1	96	96	4
NMSTR	49	288	5
NMSCR	49	288	5	96	96	0
NMSTR	50	240	2
NMSXR	50	240	2	96	240	7
NMSTR	50	240	6
NMSXR	50	240	6	96	240	3
NMSTR	51	288	7
NMSXL	51	288	7	96	240	2
NMSXR	51	288	7	96	240	4
NMTTP	52	336	3	B	0	M1
NMTTP	52	336	3	E	0	M1
NMTTP	52	336	4	E	0	M1
NMTTP	53	96	5	B	0	M1
NMTTP	53	96	6	E	0	M1
NMTTP	53	192	0	E	1	M1
NMSTR	54	0	4
NMSI_	54	0	4	96	96	7
CNSI_	54	192	7	0	96	3
CNSI_	54	288	3	0	96	0
NMSTR	55	0	1
NMSCL	55	0	1	96	288	1
NMSTR	56	0	7
NMSV_	56	0	7	96	96	4
CNSV_	56	192	4	0	144	1
NMSTR	57	0	2
NMSI_	57	0	2	96	96	0
CNSV_	57	192	0	0	96	7
CNSI_	57	288	7	0	96	5
NMHLD	58	0	4	48
NMHLD	58	96	4	48
NMHLD	58	192	3	48
NMHLD	58	288	3	48
NMTAP	59	0	5
NMTAP	59	48	5
NMTAP	59	96	4
NMTAP	59	144	6
NMTAP	59	192	2
NMTAP	59	240	2
NMTAP	59	288	3
NMTAP	59	336	1
NMTAP	60	0	7
NMTAP	60	48	7
NMTAP	60	96	0
EXTAP	60	144	0
EXTAP	60	168	6
EXTAP	60	192	0
EXTAP	60	216	6
EXTAP	60	240	0
EXHLD	60	264	6	360
EXHLD	60	288	0	336
BRTAP	61	288	1
BRTAP	61	288	5
NMTAP	62	0	7
NMTAP	62	48	7
NMTAP	62	96	0
NMSTR	62	144	6
NMSI_	62	144	6	96	48	3
NMSTR	62	144	7
NMSI_	62	144	7	96	48	2
EXTAP	62	336	0
EXTAP	62	336	5
NMTAP	63	48	0
NMSTR	63	48	1
NMSUR	63	48	1	96	72	5
NMTAP	63	144	6
BRTAP	63	240	7
BRTAP	63	288	7
NMTAP	64	0	6
NMTAP	64	48	6
NMTAP	64	96	4
NMSTR	64	144	3
NMSI_	64	144	3	96	48	1
NMSTR	64	144	5
NMSI_	64	144	5	96	48	7
EXSTR	64	336	0
NMSI_	64	336	0	96	48	4
EXSTR	65	48	6
NMSCL	65	48	6	96	48	3
BRTAP	65	240	1
BRTAP	65	288	1
NMTAP	66	0	7
NMTAP	66	48	7
NMTAP	66	96	0
NMHLD	66	144	6	96
NMSTR	66	240	7
NMSCR	66	240	7	96	48	2
EXSTR	67	48	4
NMSI_	67	48	4	96	48	0
EXSTR	67	48	5
NMSI_	67	48	5	96	48	0
BRTAP	67	240	7
BRTAP	67	288	7
NMTAP	68	0	1
NMTAP	68	48	1
NMTAP	68	96	3
NMSTR	68	144	2
NMSI_	68	144	2	96	48	5
NMSI_	68	144	2	96	48	7
EXSTR	68	336	6
NMSI_	68	336	6	96	48	0
EXSTR	69	48	2
NMSI_	69	48	2	96	48	4
BXTAP	69	240	1
BRTAP	69	240	5
BXTAP	69	288	1
BRTAP	69	288	5
NMTAP	70	0	6
NMTAP	70	48	6
NMTAP	70	96	0
NMSTR	70	144	1
NMSCR	70	144	1	96	48	4
NMSTR	70	144	7
NMSCL	70	144	7	96	48	4
EXTAP	70	336	2
EXTAP	70	336	6
NMTAP	71	48	0
NMTAP	71	48	1
NMTAP	71	96	7
NMTAP	71	144	6
NMTAP	71	192	5
BXTAP	71	240	0
EXTAP	71	240	4
BXTAP	71	288	0
EXTAP	71	288	4
NMTAP	72	0	1
NMTAP	72	48	1
NMTAP	72	96	3
NMSTR	72	144	2
NMSI_	72	144	2	96	48	4
NMSTR	72	144	4
NMSI_	72	144	4	96	48	6
EXSTR	72	336	7
NMSI_	72	336	7	96	48	3
EXSTR	73	48	1
NMSCR	73	48	1	96	48	4
BRTAP	73	240	6
BRTAP	73	288	6
NMTAP	74	0	0
NMTAP	74	48	0
NMTAP	74	96	7
NMHLD	74	144	1	96
NMSTR	74	240	0
NMSCL	74	240	0	96	48	5
EXSTR	75	48	2
NMSI_	75	48	2	96	48	7
EXSTR	75	48	3
NMSI_	75	48	3	96	48	7
BRTAP	75	240	0
BRTAP	75	288	0
NMTAP	76	0	6
NMTAP	76	48	6
NMTAP	76	96	4
NMHLD	76	144	5	96
NMTAP	76	240	4
NMTAP	76	288	4
EXTAP	76	336	2
EXTAP	76	336	6
NMTAP	77	48	1
NMTAP	77	72	0
NMTAP	77	96	1
NMTAP	77	144	6
NMTAP	77	168	7
NMTAP	77	192	6
BRSTR	77	288	1
BRSI_	77	288	1	96	48	4
BRSTR	77	288	5
BRSI_	77	288	5	96	48	0
EXTAP	78	96	2
EXTAP	78	96	6
NMTAP	78	192	5
NMTAP	78	240	5
NMTAP	78	288	4
NMHLD	78	336	6	96
NMTAP	79	48	7
NMSTR	79	96	0
NMSI_	79	96	0	96	48	2
NMSTR	79	96	6
NMSI_	79	96	6	96	48	2
EXTAP	79	288	3
EXTAP	79	288	5
NMHLD	80	0	0	96
NMSTR	80	0	4
NMSCR	80	0	4	96	48	7
NMTAP	80	192	1
NMSTR	80	240	1
NMSI_	80	240	1	96	48	5
NMTAP	80	336	0
NMSTR	81	48	7
NMSV_	81	48	7	96	48	6
NMTAP	81	96	7
CNSCL	81	192	6	0	144	3
EXTAP	82	0	0
NMTAP	82	96	4
NMTAP	82	96	6
NMTAP	82	192	2
NMTAP	82	240	2
NMTAP	82	288	3
NMHLD	82	336	1	96
NMTAP	83	48	0
NMSTR	83	96	1
NMSI_	83	96	1	96	48	5
NMSTR	83	96	7
NMSI_	83	96	7	96	48	5
EXTAP	83	288	2
EXTAP	83	288	4
NMSTR	84	0	3
NMSCL	84	0	3	96	48	0
NMHLD	84	0	7	96
NMTAP	84	192	6
NMTAP	84	240	6
NMTAP	84	288	7
NMTAP	84	336	0
NMTAP	84	336	6
NMTAP	85	48	1
NMTAP	85	48	5
NMSTR	85	96	1
NMSI_	85	96	1	96	48	4
NMTAP	85	96	5
NMSTR	85	192	7
NMSI_	85	192	7	96	48	3
EXTAP	85	288	1
BRHLD	86	0	0	96
BRHLD	86	0	2	96
BRHLD	86	144	5	96
BRHLD	86	144	7	96
EXTAP	86	288	3
EXTAP	86	288	4
BXTAP	86	336	1
BXTAP	86	336	6

T_REC_TAP	252
T_REC_BRK	18
T_REC_XTP	53
T_REC_BXX	12
T_REC_HLD	43
T_REC_XHO	2
T_REC_BHO	4
T_REC_BXH	0
T_REC_STR	48
T_REC_BST	2
T_REC_XST	12
T_REC_XBS	0
T_REC_TTP	11
T_REC_THO	0
T_REC_SLD	60
T_REC_BSL	4
T_REC_ALL	521
T_NUM_TAP	376
T_NUM_BRK	40
T_NUM_HLD	45
T_NUM_SLD	60
T_NUM_ALL	521
T_JUDGE_TAP	408
T_JUDGE_HLD	105
T_JUDGE_SLD	64
T_JUDGE_ALL	577
TTM_EACHPAIRS	107
TTM_SCR_TAP	188000
TTM_SCR_BRK	104000
TTM_SCR_HLD	45000
TTM_SCR_SLD	90000
TTM_SCR_ALL	427000
TTM_SCR_S	410350
TTM_SCR_SS	423000
TTM_RAT_ACV	10094

