VERSION	0.00.00	1.05.00
FES_MODE	0
BPM_DEF	170.000	170.000	170.000	170.000
MET_DEF	4	4
RESOLUTION	384
CLK_DEF	384
COMPATIBLE_CODE	MA2

BPM	0	0	170.000
MET	0	0	4	4

NMTAP	6	0	6
NMTAP	6	96	6
NMTAP	6	192	6
NMTAP	7	0	5
NMTAP	7	96	5
NMTAP	7	192	5
NMTAP	8	0	4
NMTAP	8	96	4
NMTAP	8	192	4
NMTAP	9	0	2
NMTAP	9	0	3
NMTAP	9	192	2
NMTAP	9	192	3
NMTAP	10	0	1
NMTAP	10	96	1
NMTAP	10	192	1
NMTAP	11	0	2
NMTAP	11	96	2
NMTAP	11	192	2
NMTAP	12	0	3
NMTAP	12	96	3
NMTAP	12	192	3
NMTAP	13	0	4
NMTAP	13	0	5
NMTAP	13	192	4
NMTAP	13	192	5
NMTAP	14	0	5
NMTAP	14	96	5
NMTAP	14	192	6
NMTAP	14	288	6
NMTAP	15	0	7
NMTAP	15	96	7
NMTAP	15	192	0
NMTAP	15	192	1
NMTAP	16	0	2
NMTAP	16	96	2
NMTAP	16	192	1
NMTAP	16	288	1
NMTAP	17	0	0
NMTAP	17	96	0
NMTAP	17	192	6
NMTAP	17	192	7
NMTAP	18	0	6
NMTAP	18	96	6
NMTAP	18	192	5
NMTAP	18	288	5
NMTAP	19	0	4
NMTAP	19	96	4
NMTAP	19	192	2
NMTAP	19	192	3
NMTAP	20	0	1
NMTAP	20	96	1
NMTAP	20	192	2
NMTAP	20	288	2
NMTAP	21	0	3
NMTAP	21	96	3
NMTAP	21	192	4
NMTAP	21	192	5
NMTTP	22	0	6	B	0	L1
NMTTP	22	96	5	B	0	L1
NMTTP	22	192	4	B	0	L1
NMTTP	23	0	1	B	0	L1
NMTTP	23	96	2	B	0	L1
NMTTP	23	192	3	B	0	L1
NMTTP	24	0	6	B	0	L1
NMTTP	24	96	5	B	0	L1
NMTTP	24	192	4	B	0	L1
NMTTP	24	288	3	B	0	L1
NMTTP	25	0	2	B	0	L1
NMTTP	25	96	1	B	0	L1
NMTTP	25	192	0	C	0	L1
NMTTP	26	0	0	B	0	L1
NMTTP	26	96	1	B	0	L1
NMTTP	26	192	2	B	0	L1
NMTTP	26	192	3	B	0	L1
NMTTP	27	0	7	B	0	L1
NMTTP	27	96	6	B	0	L1
NMTTP	27	192	4	B	0	L1
NMTTP	27	192	5	B	0	L1
NMTTP	28	0	1	B	0	L1
NMTTP	28	96	2	B	0	L1
NMTTP	28	192	3	B	0	L1
NMTTP	28	288	4	B	0	L1
NMTTP	29	0	5	B	0	L1
NMTTP	29	96	6	B	0	L1
NMTTP	29	192	0	C	0	L1
NMTAP	30	0	1
NMTAP	30	96	1
NMTAP	30	192	0
NMTAP	30	192	1
NMTAP	31	0	2
NMTAP	31	96	2
NMTAP	31	192	2
NMTAP	31	192	3
NMTAP	32	0	4
NMTAP	32	96	4
NMTAP	32	192	4
NMTAP	32	192	5
NMTAP	33	0	6
NMTAP	33	0	7
NMTAP	33	96	6
NMTAP	33	96	7
NMTAP	33	192	6
NMTAP	33	192	7
NMTAP	34	0	6
NMTAP	34	96	6
NMTAP	34	192	6
NMTAP	34	192	7
NMTAP	35	0	5
NMTAP	35	96	5
NMTAP	35	192	4
NMTAP	35	192	5
NMTAP	36	0	3
NMTAP	36	96	3
NMTAP	36	192	2
NMTAP	36	192	3
NMTAP	37	0	0
NMTAP	37	0	1
NMTAP	37	96	0
NMTAP	37	96	1
NMTAP	37	192	0
NMTAP	37	192	1
NMTAP	38	0	2
NMTAP	38	96	2
NMTAP	38	192	2
NMTAP	38	288	2
NMTAP	39	0	1
NMTAP	39	96	1
NMTAP	39	192	1
NMTAP	39	288	1
NMTAP	40	0	0
NMTAP	40	96	0
NMTAP	40	192	0
NMTAP	40	288	0
NMTAP	41	0	6
NMTAP	41	0	7
NMTAP	42	0	5
NMTAP	42	96	5
NMTAP	42	192	5
NMTAP	42	288	5
NMTAP	43	0	6
NMTAP	43	96	6
NMTAP	43	192	6
NMTAP	43	288	6
NMTAP	44	0	7
NMTAP	44	96	7
NMTAP	44	192	7
NMTAP	44	288	7
NMTAP	45	0	0
NMTAP	45	0	1
NMHLD	46	0	2	192
NMHLD	46	192	3	192
NMHLD	47	0	4	192
NMTAP	47	192	5
NMHLD	48	0	5	192
NMHLD	48	192	4	192
NMHLD	49	0	3	192
NMTAP	49	192	2
NMHLD	50	0	1	192
NMHLD	50	192	2	192
NMHLD	51	0	3	192
NMTAP	51	192	4
NMHLD	52	0	6	192
NMHLD	52	192	5	192
NMHLD	53	0	4	192
NMTAP	53	192	3
NMSTR	54	0	1
NMSI_	54	0	1	96	192	4
NMSTR	55	0	5
NMSI_	55	0	5	96	192	0
NMSTR	56	0	1
NMSI_	56	0	1	96	192	5
NMSTR	57	0	6
NMSI_	57	0	6	96	192	2
NMSTR	58	0	0
NMSI_	58	0	0	96	192	4
NMSTR	59	0	6
NMSI_	59	0	6	96	192	3
NMSTR	60	0	1
NMSUR	60	0	1	96	480	4
BRTAP	62	0	5
NMTAP	62	96	5
NMTAP	62	192	6
NMTAP	62	192	7
NMTAP	62	288	6
NMTAP	62	288	7
NMTAP	63	0	0
NMTAP	63	96	0
NMTAP	63	192	0
NMTAP	63	192	1
NMTAP	64	0	2
NMTAP	64	96	2
NMTAP	64	192	0
NMTAP	64	192	1
NMTAP	64	288	0
NMTAP	64	288	1
NMTAP	65	0	7
NMTAP	65	96	7
NMTAP	65	192	6
NMTAP	65	192	7
NMTAP	66	0	6
NMTAP	66	96	6
NMTAP	66	192	4
NMTAP	66	192	5
NMTAP	66	288	4
NMTAP	66	288	5
NMTAP	67	0	3
NMTAP	67	96	3
NMTAP	67	192	2
NMTAP	67	192	3
NMTAP	68	0	1
NMTAP	68	96	1
NMTAP	68	192	2
NMTAP	68	192	3
NMTAP	68	288	2
NMTAP	68	288	3
NMTAP	69	0	4
NMTAP	69	96	4
NMTAP	69	192	4
NMTAP	69	192	5
NMTAP	70	0	5
NMTAP	70	48	5
NMTAP	70	96	5
NMTAP	70	192	6
NMTAP	70	240	6
NMTAP	70	288	6
NMTAP	71	0	7
NMTAP	71	48	7
NMTAP	71	96	7
NMTAP	71	192	0
NMTAP	71	192	1
NMTAP	72	0	2
NMTAP	72	48	2
NMTAP	72	96	2
NMTAP	72	192	1
NMTAP	72	240	1
NMTAP	72	288	1
NMTAP	73	0	0
NMTAP	73	48	0
NMTAP	73	96	0
NMTAP	73	192	6
NMTAP	73	192	7
NMTAP	74	0	6
NMTAP	74	48	6
NMTAP	74	96	6
NMTAP	74	192	5
NMTAP	74	240	5
NMTAP	74	288	5
NMTAP	75	0	4
NMTAP	75	48	4
NMTAP	75	96	4
NMTAP	75	192	2
NMTAP	75	192	3
NMTAP	76	0	1
NMTAP	76	48	1
NMTAP	76	96	1
NMTAP	76	192	2
NMTAP	76	240	2
NMTAP	76	288	2
NMTAP	77	0	3
NMTAP	77	48	3
NMTAP	77	96	3
NMTAP	77	192	4
NMTAP	77	192	5
NMTAP	78	0	3
NMTAP	78	96	2
NMTAP	78	192	1
NMTAP	78	288	0
NMTAP	79	0	7
NMTAP	79	96	6
NMTAP	79	192	4
NMTAP	79	192	5
NMTAP	80	0	4
NMTAP	80	96	5
NMTAP	80	192	6
NMTAP	80	288	7
NMTAP	81	0	0
NMTAP	81	96	1
NMTAP	81	192	2
NMTAP	81	192	3
NMTAP	82	0	0
NMTAP	82	0	1
NMTAP	82	96	0
NMTAP	82	96	1
NMTAP	82	192	2
NMTAP	82	192	7
NMTAP	83	0	2
NMTAP	83	0	3
NMTAP	83	96	2
NMTAP	83	96	3
NMTAP	83	192	1
NMTAP	83	192	4
NMTAP	84	0	4
NMTAP	84	0	5
NMTAP	84	96	4
NMTAP	84	96	5
NMTAP	84	192	3
NMTAP	84	192	6
NMTAP	85	0	6
NMTAP	85	0	7
NMTAP	85	96	6
NMTAP	85	96	7
NMTAP	85	192	0
NMTAP	85	192	5
NMHLD	86	0	0	144
NMHLD	86	0	7	144
EXTAP	86	288	1
EXTAP	86	288	6
EXTAP	86	336	1
EXTAP	86	336	6

T_REC_TAP	249
T_REC_BRK	1
T_REC_XTP	4
T_REC_BXX	0
T_REC_HLD	14
T_REC_XHO	0
T_REC_BHO	0
T_REC_BXH	0
T_REC_STR	7
T_REC_BST	0
T_REC_XST	0
T_REC_XBS	0
T_REC_TTP	28
T_REC_THO	0
T_REC_SLD	7
T_REC_BSL	0
T_REC_ALL	310
T_NUM_TAP	288
T_NUM_BRK	1
T_NUM_HLD	14
T_NUM_SLD	7
T_NUM_ALL	310
T_JUDGE_TAP	289
T_JUDGE_HLD	54
T_JUDGE_SLD	7
T_JUDGE_ALL	350
TTM_EACHPAIRS	55
TTM_SCR_TAP	144000
TTM_SCR_BRK	2600
TTM_SCR_HLD	14000
TTM_SCR_SLD	10500
TTM_SCR_ALL	171100
TTM_SCR_S	165900
TTM_SCR_SS	171000
TTM_RAT_ACV	10005

