VERSION	0.00.00	1.04.00
FES_MODE	0
BPM_DEF	170.000	170.000	170.000	170.000
MET_DEF	4	4
RESOLUTION	384
CLK_DEF	384
COMPATIBLE_CODE	MA2

BPM	0	0	170.000
MET	0	0	4	4

NMTAP	2	0	7
NMTAP	2	192	7
NMTAP	3	0	7
NMTAP	4	0	0
NMTAP	4	192	0
EXTAP	5	0	0
EXTAP	5	0	7
BRTAP	6	0	0
NMTAP	6	192	0
NMTAP	7	0	1
NMTAP	7	192	1
NMTAP	8	0	2
NMTAP	8	192	2
NMTAP	9	0	2
NMTAP	9	0	3
NMTAP	10	0	4
NMTAP	10	192	4
NMTAP	11	0	5
NMTAP	11	192	5
NMTAP	12	0	6
NMTAP	12	192	6
EXTAP	13	0	6
EXTAP	13	0	7
NMHLD	14	0	6	384
NMHLD	14	0	7	384
NMHLD	16	0	4	384
NMHLD	16	0	5	384
NMHLD	18	0	2	384
NMHLD	18	0	3	384
NMHLD	20	0	0	384
NMHLD	20	0	1	384
NMSTR	22	0	1
NMSI_	22	0	1	96	288	5
NMSTR	24	0	7
NMSI_	24	0	7	96	288	3
NMSTR	26	0	0
NMSI_	26	0	0	96	288	4
NMSTR	28	0	6
NMSI_	28	0	6	96	288	2
BRTAP	30	0	0
NMTAP	30	96	0
NMTAP	30	192	0
NMTAP	31	0	1
NMTAP	31	192	1
NMTAP	32	0	2
NMTAP	32	96	2
NMTAP	32	192	2
NMTAP	33	0	2
NMTAP	33	0	3
NMTAP	34	0	4
NMTAP	34	96	4
NMTAP	34	192	4
NMTAP	35	0	5
NMTAP	35	192	5
NMTAP	36	0	6
NMTAP	36	96	6
NMTAP	36	192	6
EXTAP	37	0	6
EXTAP	37	0	7
NMTAP	38	0	0
NMTAP	38	96	0
NMTAP	38	192	0
NMTAP	39	0	0
NMTAP	39	0	1
NMTAP	40	0	7
NMTAP	40	96	7
NMTAP	40	192	7
NMTAP	41	0	6
NMTAP	41	0	7
NMTAP	42	0	6
NMTAP	42	0	7
NMTAP	42	192	6
NMTAP	42	192	7
NMTAP	43	0	6
NMTAP	43	0	7
NMTAP	44	0	0
NMTAP	44	0	1
NMTAP	44	192	0
NMTAP	44	192	1
NMTAP	45	0	0
NMTAP	45	0	1
NMSTR	46	0	7
NMSI_	46	0	7	96	288	3
NMSTR	48	0	2
NMSI_	48	0	2	96	288	7
NMSTR	50	0	6
NMSI_	50	0	6	96	288	2
NMSTR	52	0	1
NMSI_	52	0	1	96	288	5
NMTTP	54	0	7	B	0	L1
NMTTP	55	0	0	B	0	L1
NMTTP	56	0	6	B	0	L1
NMTTP	57	0	1	B	0	L1
NMTTP	58	0	5	B	0	L1
NMTTP	59	0	2	B	0	L1
NMTHO	60	0	0	336	C	0	L1
BRTAP	62	0	0
NMTAP	62	96	0
NMTAP	62	192	0
NMTAP	63	0	1
NMTAP	63	96	1
NMTAP	63	192	1
NMTAP	64	0	2
NMTAP	64	96	2
NMTAP	64	192	2
NMTAP	65	0	2
NMTAP	65	0	3
NMTAP	65	192	2
NMTAP	65	192	3
NMTAP	66	0	4
NMTAP	66	96	4
NMTAP	66	192	4
NMTAP	67	0	5
NMTAP	67	96	5
NMTAP	67	192	5
NMTAP	68	0	6
NMTAP	68	96	6
NMTAP	68	192	6
EXTAP	69	0	6
EXTAP	69	0	7
EXTAP	69	192	6
EXTAP	69	192	7
NMTAP	70	0	7
NMTAP	70	96	7
NMTAP	70	192	7
NMTAP	71	0	6
NMTAP	71	96	6
NMTAP	71	192	6
NMTAP	72	0	5
NMTAP	72	96	5
NMTAP	72	192	5
NMTAP	73	0	4
NMTAP	73	96	4
NMTAP	73	192	3
NMTAP	73	192	4
NMTAP	74	0	3
NMTAP	74	96	3
NMTAP	74	192	3
NMTAP	75	0	2
NMTAP	75	96	2
NMTAP	75	192	2
NMTAP	76	0	1
NMTAP	76	96	1
NMTAP	76	192	1
BXTAP	77	0	0
BXTAP	77	0	7
NMTAP	78	0	0
NMTAP	78	96	0
NMTAP	78	192	0
NMTAP	78	288	0
NMTAP	79	0	1
NMTAP	79	96	1
NMTAP	79	192	0
NMTAP	79	192	1
NMTAP	80	0	2
NMTAP	80	96	2
NMTAP	80	192	2
NMTAP	80	288	2
NMTAP	81	0	3
NMTAP	81	96	3
NMTAP	81	192	3
NMTAP	81	192	4
NMTAP	82	0	4
NMTAP	82	96	4
NMTAP	82	192	4
NMTAP	82	288	4
NMTAP	83	0	5
NMTAP	83	96	5
NMTAP	83	192	4
NMTAP	83	192	5
NMTAP	84	0	6
NMTAP	84	96	6
NMTAP	84	192	6
NMTAP	84	288	6
NMTAP	85	0	7
NMTAP	85	96	7
NMTAP	85	192	0
NMTAP	85	192	7
NMHLD	86	0	0	336
NMHLD	86	0	7	336

T_REC_TAP	132
T_REC_BRK	3
T_REC_XTP	10
T_REC_BXX	2
T_REC_HLD	10
T_REC_XHO	0
T_REC_BHO	0
T_REC_BXH	0
T_REC_STR	8
T_REC_BST	0
T_REC_XST	0
T_REC_XBS	0
T_REC_TTP	6
T_REC_THO	1
T_REC_SLD	8
T_REC_BSL	0
T_REC_ALL	180
T_NUM_TAP	156
T_NUM_BRK	5
T_NUM_HLD	11
T_NUM_SLD	8
T_NUM_ALL	180
T_JUDGE_TAP	161
T_JUDGE_HLD	85
T_JUDGE_SLD	8
T_JUDGE_ALL	254
TTM_EACHPAIRS	28
TTM_SCR_TAP	78000
TTM_SCR_BRK	13000
TTM_SCR_HLD	11000
TTM_SCR_SLD	12000
TTM_SCR_ALL	114000
TTM_SCR_S	110100
TTM_SCR_SS	113500
TTM_RAT_ACV	10044

