VERSION	0.00.00	1.04.00
FES_MODE	0
BPM_DEF	140.000	140.000	140.000	140.000
MET_DEF	4	4
RESOLUTION	384
CLK_DEF	384
COMPATIBLE_CODE	MA2

BPM	0	0	140.000
MET	0	0	4	4

EXTAP	1	288	2
EXTAP	1	288	5
NMSTR	2	0	6
NMSCL	2	0	6	96	48	3
NMTAP	2	64	7
NMTAP	2	96	7
NMSTR	2	192	0
NMSUR	2	192	0	96	48	4
NMTAP	2	256	5
NMTAP	2	288	5
NMSTR	3	0	7
NMSUL	3	0	7	96	48	3
NMTAP	3	64	2
NMTAP	3	96	2
NMSTR	3	192	1
NMSI_	3	192	1	96	48	5
NMSI_	3	192	1	96	48	7
NMTAP	3	288	1
NMSTR	4	0	3
NMSUL	4	0	3	96	48	7
NMTAP	4	64	4
NMTAP	4	96	4
NMSTR	4	192	5
NMSCR	4	192	5	96	48	0
NMTAP	4	256	1
NMTAP	4	288	1
NMTAP	5	0	0
NMTAP	5	0	2
NMTAP	5	64	7
NMTAP	5	96	7
NMTAP	5	128	1
NMTAP	5	160	1
NMSTR	5	192	0
NMSI_	5	192	0	96	48	2
NMSTR	5	192	6
NMSI_	5	192	6	96	48	3
NMTAP	5	288	0
NMTAP	5	288	6
BRTAP	6	0	1
BRTAP	6	0	4
NMTAP	6	64	2
NMTAP	6	96	3
NMTAP	6	192	3
NMTAP	6	192	6
NMTAP	6	256	5
NMTAP	6	288	4
NMTAP	7	0	1
NMTAP	7	0	4
NMTAP	7	64	2
NMTAP	7	96	3
NMSTR	7	192	0
NMSI_	7	192	0	96	48	2
NMSTR	7	192	5
NMSI_	7	192	5	96	48	7
NMTAP	7	288	0
NMTAP	7	288	5
NMTAP	8	0	3
NMTAP	8	0	6
NMTAP	8	64	5
NMTAP	8	96	4
NMTAP	8	192	1
NMTAP	8	192	4
NMTAP	8	256	2
NMTAP	8	288	3
NMTAP	9	0	3
NMTAP	9	0	6
NMTAP	9	64	5
NMTAP	9	96	4
NMTAP	9	128	6
NMTAP	9	160	7
BRTAP	9	192	0
BRTAP	9	192	5
NMTAP	9	352	1
NMHLD	10	0	1	192
NMTTP	10	96	3	E	0	M1
NMTAP	10	160	5
NMHLD	10	192	5	192
NMTTP	10	288	4	E	0	M1
NMTAP	10	352	2
NMHLD	11	0	2	192
NMTTP	11	96	4	E	0	M1
NMTAP	11	160	6
NMTAP	11	192	6
NMTAP	11	288	4
NMTAP	11	288	5
NMHLD	12	0	5	96
NMTAP	12	64	4
NMHLD	12	96	4	96
NMTAP	12	160	3
NMHLD	12	192	3	96
NMTAP	12	256	2
NMHLD	12	288	2	96
NMTAP	12	352	3
NMTAP	13	0	3
NMTAP	13	64	2
NMTAP	13	64	4
NMSTR	13	96	2
NMSUR	13	96	2	96	128	4
NMTAP	13	96	4
NMHLD	14	0	6	192
NMTTP	14	96	5	E	0	M1
NMTAP	14	160	3
NMHLD	14	192	3	192
NMTTP	14	288	4	E	0	M1
NMTAP	14	352	5
NMHLD	15	0	5	192
NMTTP	15	96	5	E	0	M1
NMTAP	15	160	2
NMTAP	15	192	2
NMTAP	15	288	2
NMTAP	15	288	3
NMSTR	16	0	4
NMSCR	16	0	4	96	48	7
NMTTP	16	96	0	E	0	M1
NMSTR	16	192	3
NMSCL	16	192	3	96	48	0
NMTTP	16	288	0	E	0	M1
NMTAP	17	0	1
NMTTP	17	0	5	B	0	M1
NMTTP	17	0	5	E	0	M1
NMTTP	17	0	6	E	0	M1
NMTTP	17	96	2	B	0	M1
NMTTP	17	96	2	E	0	M1
NMTTP	17	96	3	E	0	M1
NMTAP	17	96	6
BRTAP	17	192	0
NMTTP	17	192	0	C	0	M1
NMTTP	17	192	3	B	0	M1
NMTTP	17	192	4	B	0	M1
NMTTP	17	192	4	E	1	M1
NMSTR	18	0	1
NMSI_	18	0	1	96	72	5
NMTAP	18	96	4
CNSI_	18	168	5	0	48	7
NMTAP	18	192	4
CNSI_	18	216	7	0	72	3
NMTAP	18	288	4
NMSTR	19	0	6
NMSI_	19	0	6	96	72	2
NMTAP	19	96	3
CNSI_	19	168	2	0	72	7
NMTAP	19	192	3
CNSI_	19	240	7	0	48	4
NMTAP	19	288	3
NMSTR	20	0	1
NMSCR	20	0	1	96	96	4
NMSTR	20	96	4
NMSI_	20	96	4	96	96	0
NMSTR	20	192	0
NMSCL	20	192	0	96	96	5
NMSTR	20	288	5
NMSCL	20	288	5	96	96	2
NMSTR	21	0	2
NMSSL	21	0	2	96	96	6
NMTAP	21	96	6
NMTAP	21	192	7
NMTAP	21	288	0
NMTAP	21	288	6
NMSTR	22	0	5
NMSI_	22	0	5	96	72	1
NMTAP	22	96	3
CNSI_	22	168	1	0	72	6
NMTAP	22	192	3
CNSI_	22	240	6	0	48	0
NMTAP	22	288	3
NMSTR	23	0	1
NMSLR	23	0	1	96	96	7
NMTAP	23	96	6
NMTAP	23	192	6
NMTAP	23	288	6
NMTAP	23	288	7
BRTAP	24	0	0
BRTAP	24	0	5
NMSTR	24	96	2
NMSCL	24	96	2	96	96	7
NMSTR	24	96	3
NMSCR	24	96	3	96	96	6
NMSTR	25	0	0
NMSI_	25	0	0	96	48	4
NMTAP	25	0	4
NMTAP	25	96	5
NMTAP	25	192	3
NMSTR	25	192	6
NMSCL	25	192	6	96	48	3
NMTAP	25	288	2
NMHLD	26	0	2	96
NMHLD	26	0	3	96
NMTAP	26	160	4
NMTAP	26	160	6
NMHLD	26	192	4	96
NMHLD	26	192	6	96
NMTAP	26	352	1
NMTAP	26	352	5
NMTAP	27	0	1
NMTAP	27	0	5
NMSTR	27	96	2
NMSV_	27	96	2	96	48	7
NMSTR	27	96	6
NMSCL	27	96	6	96	48	3
NMTAP	27	192	2
NMTAP	27	192	6
NMSTR	27	288	0
NMSI_	27	288	0	96	48	5
NMTAP	27	288	4
BRSTR	28	0	0
NMSI_	28	0	0	96	48	3
NMTAP	28	64	3
NMSTR	28	96	0
NMSI_	28	96	0	96	48	4
NMTAP	28	160	4
NMTAP	28	192	0
NMTAP	28	256	5
NMTAP	28	288	3
NMTAP	28	288	5
NMTAP	28	352	6
NMTAP	29	0	6
NMTAP	29	32	4
NMTAP	29	64	7
NMTAP	29	96	2
NMTAP	29	128	3
NMTAP	29	160	1
NMSTR	29	192	7
NMSUR	29	192	7	96	48	3
NMTAP	29	224	0
NMTAP	29	256	6
NMTAP	29	288	7
NMHLD	30	0	6	64
NMTAP	30	32	4
NMTAP	30	64	4
NMHLD	30	96	5	64
NMTAP	30	128	3
NMTAP	30	160	3
NMHLD	30	192	4	64
NMTAP	30	224	2
NMTAP	30	256	2
NMSTR	30	288	3
NMSI_	30	288	3	96	48	7
NMSTR	31	0	3
NMSCL	31	0	3	96	48	1
NMSCR	31	0	3	96	48	5
NMSTR	31	96	3
BRSXL	31	96	3	96	96	3
BRSXR	31	96	3	96	96	3
NMSTR	32	0	7
NMSLL	32	0	7	96	96	1
NMTAP	32	64	2
NMTAP	32	96	2
NMTAP	32	160	0
NMSTR	32	192	0
BRSLR	32	192	0	96	96	6
NMTAP	32	256	5
NMTAP	32	288	5
NMTAP	32	352	7
NMSTR	33	0	7
NMSI_	33	0	7	96	48	1
NMTAP	33	64	3
NMSTR	33	96	3
NMSI_	33	96	3	96	48	5
NMTAP	33	160	6
NMSTR	33	192	6
NMSI_	33	192	6	96	48	2
NMTAP	33	256	0
NMTAP	33	288	0
NMTAP	34	0	1
NMSTR	34	0	3
NMSI_	34	0	3	96	48	7
NMTAP	34	64	2
NMTAP	34	96	2
NMTAP	34	160	4
NMSTR	34	192	4
NMSI_	34	192	4	96	48	0
NMTAP	34	192	6
NMTAP	34	256	5
NMTAP	34	288	5
BRHLD	35	0	1	96
BRTAP	35	0	7
NMTAP	35	96	3
NMTAP	35	128	2
NMTAP	35	160	5
NMTAP	35	192	4
NMTAP	35	256	0
NMTAP	35	256	6
BRSTR	35	288	0
NMSSR	35	288	0	96	192	4
BRSTR	35	288	6
BRSSL	35	288	6	96	192	2
NMSTR	36	288	0
NMSF_	36	288	0	96	48	4
NMSTR	37	96	7
NMSXL	37	96	7	96	48	1
NMSXR	37	96	7	96	48	5
NMSTR	37	288	0
NMSCR	37	288	0	96	96	6
NMSTR	38	0	6
NMSCL	38	0	6	96	96	0
NMTAP	38	96	0
NMTAP	38	192	6
NMTAP	38	288	1
NMTAP	38	288	7
NMTTP	39	0	0	B	0	M1
NMTTP	39	0	0	C	1	M1
NMTTP	39	0	0	A	0	M1
NMTTP	39	0	4	B	0	M1
NMTTP	39	0	4	A	0	M1
EXTAP	39	288	2
EXTAP	39	288	6
NMTAP	40	0	0
NMTAP	40	0	7
NMTAP	40	64	1
NMTAP	40	96	1
NMTAP	40	128	0
NMTAP	40	160	2
NMTAP	40	192	3
NMTAP	40	192	7
NMTAP	40	256	6
NMTAP	40	288	6
NMTAP	40	320	7
NMTAP	40	352	5
NMTAP	41	0	0
NMTAP	41	0	4
NMTAP	41	64	1
NMTAP	41	96	3
NMTAP	41	128	2
NMTAP	41	160	4
NMTAP	41	192	1
NMTAP	41	192	5
NMTAP	41	288	2
NMTAP	41	288	6
NMTAP	42	0	3
NMTAP	42	0	5
NMTAP	42	64	2
NMTAP	42	96	1
NMTAP	42	96	4
NMTAP	42	160	5
NMTAP	42	192	3
NMTAP	42	192	6
NMTAP	42	256	1
NMSTR	42	288	0
NMSI_	42	288	0	96	48	4
NMTAP	42	288	4
NMSTR	43	0	6
NMSI_	43	0	6	96	48	2
NMSTR	43	96	1
NMSI_	43	96	1	96	48	5
NMTAP	43	192	7
NMTAP	43	288	0
NMTAP	43	288	6
NMTAP	44	0	0
NMTAP	44	0	7
NMTAP	44	64	6
NMTAP	44	96	6
NMTAP	44	128	7
NMTAP	44	160	5
NMTAP	44	192	0
NMTAP	44	192	4
NMTAP	44	256	1
NMTAP	44	288	1
NMTAP	44	320	0
NMTAP	44	352	2
NMTAP	45	0	3
NMTAP	45	0	7
NMTAP	45	64	6
NMTAP	45	96	4
NMTAP	45	128	5
NMTAP	45	160	3
NMTAP	45	192	2
NMTAP	45	192	6
NMTAP	45	288	1
NMTAP	45	288	5
NMSTR	46	0	0
NMSV_	46	0	0	96	48	3
NMSTR	46	0	6
NMSV_	46	0	6	96	48	3
NMTAP	46	32	7
NMTAP	46	96	0
NMTAP	46	96	6
NMSTR	46	192	1
NMSI_	46	192	1	96	48	4
NMSTR	46	192	7
NMSI_	46	192	7	96	48	4
NMTAP	46	224	0
NMTAP	46	288	1
NMTAP	46	288	7
NMSTR	47	0	3
NMSCL	47	0	3	96	48	0
NMSTR	47	0	5
NMSCR	47	0	5	96	48	0
NMTAP	47	32	4
NMTAP	47	96	3
NMTAP	47	96	5
BRHLD	47	192	2	96
BRHLD	47	192	6	96
NMHLD	48	0	1	64
NMTAP	48	64	3
NMHLD	48	96	3	64
NMTAP	48	160	5
NMHLD	48	192	5	64
NMTAP	48	256	7
NMHLD	48	288	7	64
NMTAP	48	352	5
NMHLD	49	0	5	64
NMTAP	49	64	3
NMHLD	49	96	3	64
NMTAP	49	160	1
NMHLD	49	192	1	64
NMTAP	49	256	0
NMSTR	49	288	0
NMSCL	49	288	0	96	48	4
NMTAP	49	352	1
NMTAP	50	0	1
NMTAP	50	64	7
NMSTR	50	96	7
NMSCR	50	96	7	96	48	3
NMTAP	50	160	6
NMTAP	50	192	6
NMTAP	50	256	7
NMTAP	50	288	7
NMTAP	51	0	3
NMTAP	51	0	6
NMTAP	51	32	7
NMTAP	51	64	0
NMTAP	51	96	1
NMTAP	51	96	4
NMTAP	51	160	2
NMTAP	51	160	3
NMSTR	51	192	2
NMSV_	51	192	2	96	48	0
NMSTR	51	192	3
NMSV_	51	192	3	96	48	5
NMHLD	52	0	6	64
NMTAP	52	64	4
NMHLD	52	96	4	64
NMTAP	52	160	2
NMHLD	52	192	2	64
NMTAP	52	256	0
NMHLD	52	288	0	64
NMTAP	52	352	2
NMHLD	53	0	2	64
NMTAP	53	64	4
NMHLD	53	96	4	64
NMTAP	53	160	6
NMHLD	53	192	6	64
NMTAP	53	256	0
NMTAP	53	288	0
NMTAP	53	352	1
NMHLD	54	0	0	96
NMHLD	54	0	2	96
NMTAP	54	160	6
NMHLD	54	192	5	96
NMHLD	54	192	7	96
NMTAP	55	0	1
NMTAP	55	32	3
NMTAP	55	64	2
NMTAP	55	96	6
NMTAP	55	128	4
NMTAP	55	160	5
NMTAP	55	192	3
NMTAP	55	192	4
NMTAP	55	288	2
NMSTR	55	288	7
NMSCR	55	288	7	96	48	2
BRSTR	56	0	7
NMSCL	56	0	7	96	48	4
NMTAP	56	64	4
NMSTR	56	96	7
NMSI_	56	96	7	96	48	3
NMTAP	56	160	3
NMTAP	56	192	7
NMTAP	56	256	2
NMTAP	56	288	2
NMTAP	56	288	4
NMTAP	56	352	1
NMTAP	57	0	1
NMTAP	57	32	3
NMTAP	57	64	0
NMTAP	57	96	5
NMTAP	57	128	4
NMTAP	57	160	6
NMSTR	57	192	0
NMSUL	57	192	0	96	48	4
NMTAP	57	224	7
NMTAP	57	256	1
NMTAP	57	288	0
NMHLD	58	0	1	64
NMTAP	58	32	3
NMTAP	58	64	3
NMHLD	58	96	2	64
NMTAP	58	128	4
NMTAP	58	160	4
NMHLD	58	192	3	64
NMTAP	58	224	5
NMTAP	58	256	5
NMSTR	58	288	4
NMSI_	58	288	4	96	48	0
NMSTR	59	0	4
NMSCL	59	0	4	96	24	3
NMSCR	59	0	4	96	24	5
NMSTR	59	96	4
BRSXL	59	96	4	96	96	4
BRSXR	59	96	4	96	96	4
CNSI_	59	120	3	0	24	1
CNSI_	59	120	5	0	24	7
NMSTR	60	0	0
NMSCR	60	0	0	96	48	2
NMTAP	60	64	5
NMTAP	60	96	5
CNSI_	60	144	2	0	48	6
NMTAP	60	160	7
NMSTR	60	192	7
BRSCL	60	192	7	96	48	5
NMTAP	60	256	2
NMTAP	60	288	2
CNSI_	60	336	5	0	48	1
NMTAP	60	352	0
NMSTR	61	0	0
NMSCL	61	0	0	96	48	6
NMTAP	61	64	4
NMSTR	61	96	4
NMSCL	61	96	4	96	48	2
NMTAP	61	160	1
NMSTR	61	192	1
NMSI_	61	192	1	96	48	5
NMTAP	61	256	7
NMTAP	61	288	7
NMSTR	62	0	4
NMSUL	62	0	4	96	48	0
NMTAP	62	0	6
NMTAP	62	64	5
NMTAP	62	96	5
NMTAP	62	160	3
NMTAP	62	192	1
NMSTR	62	192	3
NMSUR	62	192	3	96	48	7
NMTAP	62	256	2
NMTAP	62	288	2
NMSTR	63	0	0
NMSCR	63	0	0	96	48	2
NMSTR	63	0	6
NMSUR	63	0	6	96	48	2
NMSTR	63	96	0
NMSUL	63	96	0	96	48	4
NMSTR	63	96	6
NMSCL	63	96	6	96	48	4
NMTAP	63	192	0
NMTAP	63	192	6
NMSTR	63	288	1
NMSI_	63	288	1	96	48	7
NMTAP	63	288	5
BRSTR	64	0	1
NMSI_	64	0	1	96	48	4
NMTAP	64	64	4
NMSTR	64	96	1
NMSXR	64	96	1	96	128	4
NMTAP	64	160	7
NMTAP	64	192	1
NMTAP	64	256	5
NMSTR	64	288	5
NMSI_	64	288	5	96	48	0
NMTAP	64	352	3
BRSTR	65	0	5
NMSI_	65	0	5	96	48	3
NMTAP	65	64	1
NMSTR	65	96	5
NMSXL	65	96	5	96	128	2
NMTAP	65	160	0
NMTAP	65	192	5
NMTAP	65	256	3
NMTAP	65	288	3
NMTAP	66	0	1
NMTAP	66	0	5
NMTAP	66	32	0
NMTAP	66	64	7
NMTAP	66	96	2
NMTAP	66	96	6
NMTAP	66	128	3
NMTAP	66	160	4
NMTAP	66	192	1
NMTAP	66	192	5
NMTAP	66	256	2
NMTAP	66	256	6
NMSTR	66	288	2
NMSI_	66	288	2	96	48	7
NMSTR	66	288	6
NMSI_	66	288	6	96	48	3
NMSTR	67	0	2
NMSCR	67	0	2	96	48	5
NMSTR	67	0	6
NMSCR	67	0	6	96	48	1
NMSTR	67	96	2
NMSXR	67	96	2	96	128	7
NMSTR	67	96	6
NMSXR	67	96	6	96	128	3
BRTAP	67	192	2
BRTAP	67	192	6
NMSTR	68	0	0
NMSI_	68	0	0	96	32	5
NMTAP	68	64	4
NMTAP	68	96	4
CNSI_	68	128	5	0	32	1
CNSI_	68	160	1	0	32	4
NMTAP	68	160	7
NMSTR	68	192	7
NMSI_	68	192	7	96	32	2
NMTAP	68	256	3
NMTAP	68	288	3
CNSI_	68	320	2	0	32	6
NMTAP	68	352	0
CNSI_	68	352	6	0	32	3
NMTAP	69	0	0
NMTAP	69	64	4
NMTAP	69	96	2
NMTAP	69	128	7
NMTAP	69	160	0
NMSTR	69	192	5
NMSUL	69	192	5	96	48	1
NMTAP	69	224	4
NMTAP	69	256	6
NMTAP	69	288	5
NMTAP	69	288	7
NMSTR	70	0	6
NMSI_	70	0	6	96	48	3
NMTAP	70	64	0
NMSTR	70	96	0
NMSI_	70	96	0	96	48	5
NMTAP	70	96	6
NMTAP	70	160	2
NMTAP	70	192	0
NMSTR	70	192	2
NMSI_	70	192	2	96	48	7
NMTAP	70	256	4
NMTAP	70	288	2
NMTAP	70	288	4
BRSTR	71	0	1
BRSXR	71	0	1	96	120	3
BRSTR	71	0	5
BRSXL	71	0	5	96	120	3
NMTAP	71	288	2
NMTAP	71	288	4
BRTAP	72	0	0
BRTAP	72	0	6
NMTAP	72	64	1
NMTAP	72	96	0
NMTAP	72	96	2
NMTAP	72	160	5
NMTAP	72	192	4
NMTAP	72	192	6
NMTAP	72	256	2
NMTAP	72	288	1
NMTAP	72	288	3
NMTAP	72	352	6
NMTAP	73	0	5
NMTAP	73	0	7
NMTAP	73	64	1
NMTAP	73	96	0
NMTAP	73	96	2
NMTAP	73	160	0
NMTAP	73	160	7
NMTAP	73	192	1
NMTAP	73	192	6
NMTAP	73	256	2
NMTAP	73	256	5
NMSTR	73	288	2
NMSI_	73	288	2	96	48	7
NMTAP	73	288	5
NMSTR	74	0	6
NMSI_	74	0	6	96	48	3
NMTAP	74	64	6
NMSTR	74	96	1
NMSI_	74	96	1	96	48	4
NMTAP	74	160	1
NMSTR	74	192	5
NMSI_	74	192	5	96	48	0
NMTAP	74	256	5
NMTAP	74	288	2
NMTAP	74	352	1
NMTAP	75	0	0
NMTAP	75	0	1
NMTAP	75	32	7
NMTAP	75	64	6
NMTAP	75	96	4
NMTAP	75	96	5
NMTAP	75	128	3
NMTAP	75	160	2
NMSTR	75	192	0
NMSI_	75	192	0	96	48	4
NMSTR	75	192	1
NMSI_	75	192	1	96	48	5
NMTAP	75	288	0
NMTAP	75	288	1
BRTAP	76	0	0
BRTAP	76	0	7
NMTAP	76	64	6
NMTAP	76	96	5
NMTAP	76	96	7
NMTAP	76	160	2
NMTAP	76	192	1
NMTAP	76	192	3
NMTAP	76	256	5
NMTAP	76	288	4
NMTAP	76	288	6
NMTAP	76	352	1
NMTAP	77	0	0
NMTAP	77	0	2
NMTAP	77	64	6
NMTAP	77	96	5
NMTAP	77	96	7
NMTAP	77	160	0
NMTAP	77	160	7
NMTAP	77	192	1
NMTAP	77	192	6
NMTAP	77	256	3
NMTAP	77	256	4
NMTAP	77	288	3
NMTAP	77	288	4
NMTAP	77	352	5
NMHLD	78	0	5	64
NMTAP	78	64	7
NMHLD	78	96	7	64
NMTAP	78	160	1
NMHLD	78	192	1	64
NMTAP	78	256	3
NMHLD	78	288	3	64
NMTAP	78	352	6
NMTAP	79	0	3
NMTAP	79	0	6
NMTAP	79	64	2
NMTAP	79	96	7
NMTAP	79	128	1
NMTAP	79	160	0
NMSTR	79	192	2
NMSI_	79	192	2	96	48	5
NMSTR	79	192	7
NMSI_	79	192	7	96	48	4
NMTAP	79	288	2
NMTAP	79	288	7
BRTAP	80	0	3
BRTAP	80	0	6
NMTAP	80	64	2
NMTAP	80	96	2
NMTAP	80	128	2
NMTAP	80	160	2
NMTAP	80	192	1
NMTAP	80	192	3
NMTAP	80	256	5
NMTAP	80	288	5
NMTAP	80	320	5
NMTAP	80	352	5
NMTAP	81	0	4
NMTAP	81	0	6
NMTAP	81	64	2
NMTAP	81	96	2
NMTAP	81	128	2
NMTAP	81	160	2
NMSTR	81	192	1
NMSV_	81	192	1	96	48	6
NMSTR	81	192	3
NMSV_	81	192	3	96	48	6
BRTAP	81	288	1
BRTAP	81	288	3
NMTAP	82	0	5
NMTAP	82	0	7
NMTAP	82	64	6
NMTAP	82	96	6
NMTAP	82	128	6
NMTAP	82	160	6
NMTAP	82	192	5
NMTAP	82	192	7
NMTAP	82	256	1
NMTAP	82	288	1
NMTAP	82	320	1
NMTAP	82	352	1
NMTAP	83	0	0
NMTAP	83	0	2
NMTAP	83	64	7
NMSTR	83	96	7
BRSF_	83	96	7	96	48	3
NMTAP	83	128	0
NMTAP	83	160	6
BRTAP	83	192	7

T_REC_TAP	448
T_REC_BRK	19
T_REC_XTP	4
T_REC_BXX	0
T_REC_HLD	42
T_REC_XHO	0
T_REC_BHO	3
T_REC_BXH	0
T_REC_STR	102
T_REC_BST	8
T_REC_XST	0
T_REC_XBS	0
T_REC_TTP	23
T_REC_THO	0
T_REC_SLD	106
T_REC_BSL	10
T_REC_ALL	765
T_NUM_TAP	577
T_NUM_BRK	40
T_NUM_HLD	42
T_NUM_SLD	106
T_NUM_ALL	765
T_JUDGE_TAP	604
T_JUDGE_HLD	102
T_JUDGE_SLD	116
T_JUDGE_ALL	822
TTM_EACHPAIRS	125
TTM_SCR_TAP	288500
TTM_SCR_BRK	104000
TTM_SCR_HLD	42000
TTM_SCR_SLD	159000
TTM_SCR_ALL	593500
TTM_SCR_S	571850
TTM_SCR_SS	589500
TTM_RAT_ACV	10067

