VERSION	0.00.00	1.04.00
FES_MODE	0
BPM_DEF	140.000	140.000	140.000	140.000
MET_DEF	4	4
RESOLUTION	384
CLK_DEF	384
COMPATIBLE_CODE	MA2

BPM	0	0	140.000
MET	0	0	4	4

EXTAP	1	288	2
EXTAP	1	288	5
NMTAP	2	0	0
NMTAP	2	0	1
NMTAP	2	96	2
NMTAP	2	192	3
NMTAP	2	192	4
NMTAP	2	288	4
NMTAP	2	288	5
NMTAP	3	0	6
NMTAP	3	0	7
NMTAP	3	96	5
NMTAP	3	192	3
NMTAP	3	192	4
NMTAP	3	288	2
NMTAP	3	288	3
NMTAP	4	0	0
NMTAP	4	0	1
NMTAP	4	96	2
NMTAP	4	192	3
NMTAP	4	192	4
NMTAP	4	288	4
NMTAP	4	288	5
NMTAP	5	0	6
NMTAP	5	0	7
NMTAP	5	96	0
NMTAP	5	96	1
NMTAP	5	192	2
NMTAP	5	192	7
NMTAP	5	288	0
NMTAP	5	288	5
NMHLD	6	0	1	64
NMTAP	6	64	3
EXTAP	6	96	3
NMHLD	6	192	5	64
NMTAP	6	256	3
EXTAP	6	288	3
NMHLD	7	0	1	64
NMTAP	7	64	3
EXTAP	7	96	3
EXTAP	7	192	2
EXTAP	7	192	4
EXTAP	7	288	3
EXTAP	7	288	5
NMHLD	8	0	6	64
NMTAP	8	64	4
EXTAP	8	96	4
NMHLD	8	192	2	64
NMTAP	8	256	4
EXTAP	8	288	4
NMHLD	9	0	6	64
NMTAP	9	64	4
EXTAP	9	96	4
BXTAP	9	192	0
BXTAP	9	192	7
NMHLD	10	0	6	192
NMTAP	10	96	7
NMHLD	10	192	7	192
NMTAP	10	288	0
NMHLD	11	0	0	192
NMTAP	11	96	1
NMTAP	11	192	1
NMTAP	11	288	0
NMTAP	11	288	2
NMHLD	12	0	2	192
NMTAP	12	96	1
NMHLD	12	192	1	192
NMTAP	12	288	0
NMHLD	13	0	0	96
NMTAP	13	96	7
NMTAP	13	192	0
NMTAP	13	192	6
NMTAP	13	288	1
NMTAP	13	288	5
NMHLD	14	0	6	96
NMHLD	14	96	4	96
NMHLD	14	192	3	96
NMTAP	14	288	1
NMHLD	15	0	1	96
NMHLD	15	96	3	96
NMHLD	15	192	4	96
NMTAP	15	288	6
NMTAP	16	0	6
NMTAP	16	0	7
NMTAP	16	96	4
NMTAP	16	96	5
NMTAP	16	192	2
NMTAP	16	192	3
NMTAP	16	288	0
NMTAP	16	288	1
NMTAP	17	0	1
NMTAP	17	0	7
NMTAP	17	96	0
NMTAP	17	96	6
BRTAP	17	192	2
BRTAP	17	192	7
NMHLD	18	0	4	192
NMTAP	18	0	5
NMTAP	18	96	5
NMSTR	18	192	6
NMSSL	18	192	6	96	192	2
EXTAP	19	192	3
NMTAP	19	288	2
NMTAP	19	288	3
NMHLD	20	0	1	96
NMHLD	20	0	3	96
NMHLD	20	192	1	96
NMHLD	20	192	3	96
NMTAP	21	0	2
NMTAP	21	0	4
NMTAP	21	96	3
NMTAP	21	192	4
NMTAP	21	192	6
NMTAP	21	288	4
NMTAP	21	288	6
NMTAP	22	0	6
NMHLD	22	0	7	288
NMTAP	22	96	6
NMTAP	22	192	6
NMSTR	22	288	5
NMSI_	22	288	5	96	96	2
NMSTR	23	96	0
NMSI_	23	96	0	96	96	4
NMTAP	23	288	5
NMSTR	24	0	6
NMSCR	24	0	6	96	96	1
NMTAP	24	192	2
NMTAP	24	288	2
NMTAP	24	288	3
NMHLD	25	0	1	96
NMHLD	25	96	0	96
NMHLD	25	192	7	96
NMTAP	25	288	6
EXHLD	26	0	4	96
EXHLD	26	0	5	96
NMTAP	26	160	2
NMTAP	26	160	3
EXHLD	26	192	2	96
EXHLD	26	192	3	96
NMTAP	26	352	4
NMTAP	26	352	5
EXTAP	27	0	4
EXTAP	27	0	5
NMTAP	27	96	2
NMTAP	27	96	7
NMTAP	27	192	0
NMTAP	27	192	5
BRTAP	27	288	2
BRTAP	27	288	3
NMTAP	28	0	0
NMTAP	28	0	1
NMTAP	28	64	2
NMTAP	28	64	7
NMTAP	28	96	2
NMTAP	28	96	7
NMTAP	28	192	6
NMTAP	28	192	7
NMTAP	28	256	0
NMTAP	28	256	5
NMTAP	28	288	0
NMTAP	28	288	5
NMHLD	29	0	6	64
NMTAP	29	64	4
NMHLD	29	96	4	64
NMTAP	29	160	3
NMHLD	29	192	3	64
NMTAP	29	256	1
NMTAP	29	288	1
NMSTR	30	0	0
NMSUR	30	0	0	96	48	4
NMSTR	30	0	1
NMSCR	30	0	1	96	48	3
NMSTR	30	192	6
NMSCL	30	192	6	96	48	4
NMSTR	30	192	7
NMSUL	30	192	7	96	48	3
NMTAP	31	0	2
NMTAP	31	64	0
NMTAP	31	64	1
NMTAP	31	96	0
NMSTR	31	96	1
NMSCR	31	96	1	96	96	5
NMTAP	32	0	6
NMTAP	32	0	7
NMTAP	32	64	0
NMTAP	32	64	5
NMTAP	32	96	0
NMTAP	32	96	5
NMTAP	32	192	0
NMTAP	32	192	1
NMTAP	32	256	2
NMTAP	32	256	7
NMTAP	32	288	2
NMTAP	32	288	7
NMHLD	33	0	1	64
NMTAP	33	64	3
NMHLD	33	96	3	64
NMTAP	33	160	4
NMHLD	33	192	4	64
NMTAP	33	256	6
NMTAP	33	288	6
NMTAP	34	0	6
NMTAP	34	0	7
NMTAP	34	64	4
NMTAP	34	64	5
NMTAP	34	96	4
NMTAP	34	96	5
NMTAP	34	192	6
NMTAP	34	192	7
NMTAP	34	256	0
NMTAP	34	256	1
NMSTR	34	288	0
NMSCL	34	288	0	96	192	2
NMTAP	34	288	1
NMTAP	35	0	2
EXTAP	35	192	0
NMSTR	35	288	1
NMSXR	35	288	1	96	192	4
NMHLD	36	288	5	64
NMTAP	36	352	7
NMHLD	37	0	7	96
NMHLD	37	96	0	64
NMTAP	37	160	2
NMTAP	37	192	2
NMTAP	37	288	0
NMTAP	37	288	1
NMTAP	38	0	6
NMTAP	38	0	7
NMTAP	38	96	1
NMTAP	38	96	4
NMTAP	38	160	2
NMTAP	38	160	3
NMTAP	38	192	2
NMTAP	38	192	3
NMTAP	38	288	1
NMSTR	38	288	4
BRSCL	38	288	4	96	192	5
NMTTP	39	192	0	C	1	M1
NMHLD	40	0	1	96
NMTAP	40	96	3
NMHLD	40	192	6	96
NMTAP	40	288	4
NMHLD	41	0	1	96
NMTAP	41	96	0
NMHLD	41	192	6	96
NMTAP	41	288	7
NMTAP	42	0	0
NMTAP	42	0	1
NMTAP	42	96	0
NMTAP	42	96	2
NMTAP	42	192	6
NMTAP	42	192	7
NMTAP	42	288	5
NMTAP	42	288	7
NMTAP	43	0	3
NMTAP	43	0	4
NMSTR	43	96	1
NMSCL	43	96	1	96	96	6
NMSTR	43	96	5
NMSCL	43	96	5	96	96	2
NMHLD	44	0	1	64
NMTAP	44	64	3
NMTAP	44	96	3
NMHLD	44	192	6	64
NMTAP	44	256	4
NMTAP	44	288	4
NMHLD	45	0	1	64
NMTAP	45	64	0
NMTAP	45	96	0
NMHLD	45	192	6	64
NMTAP	45	256	7
NMTAP	45	288	7
NMTAP	46	0	0
NMTAP	46	0	1
NMTAP	46	64	0
NMTAP	46	64	2
NMTAP	46	96	0
NMTAP	46	96	2
NMTAP	46	192	6
NMTAP	46	192	7
NMTAP	46	256	5
NMTAP	46	256	7
NMTAP	46	288	5
NMTAP	46	288	7
NMTAP	47	0	0
NMTAP	47	0	1
NMTAP	47	64	2
NMTAP	47	64	3
NMTAP	47	96	2
NMTAP	47	96	3
EXHLD	47	192	4	96
EXHLD	47	192	6	96
NMSTR	48	0	3
NMSI_	48	0	3	96	48	0
NMSTR	48	192	7
NMSI_	48	192	7	96	48	4
NMTAP	49	0	0
NMTAP	49	96	1
NMTAP	49	96	3
NMTAP	49	192	2
NMTAP	49	192	4
NMTAP	49	288	3
NMTAP	49	288	5
NMTAP	50	0	4
NMSTR	50	0	7
NMSI_	50	0	7	96	48	4
NMSTR	50	192	3
NMSI_	50	192	3	96	48	0
NMTAP	51	0	7
NMTAP	51	96	6
NMSTR	51	96	7
NMSCL	51	96	7	96	96	2
NMSTR	52	0	6
NMSI_	52	0	6	96	48	1
NMSTR	52	192	2
NMSI_	52	192	2	96	48	5
NMTAP	53	0	7
NMTAP	53	96	4
NMTAP	53	96	5
NMTAP	53	192	2
NMTAP	53	192	3
NMSTR	53	288	0
BRSCR	53	288	0	96	192	7
NMTAP	53	288	1
BRTAP	54	192	3
NMTAP	55	0	6
NMTAP	55	0	7
NMTAP	55	64	0
NMTAP	55	64	1
NMSTR	55	96	0
NMSI_	55	96	0	96	48	4
NMSTR	55	96	1
NMSI_	55	96	1	96	48	5
BRTAP	55	288	3
BRTAP	55	288	6
NMTAP	56	0	2
NMTAP	56	0	3
NMTAP	56	64	0
NMTAP	56	64	4
NMTAP	56	96	0
NMTAP	56	96	4
NMTAP	56	192	4
NMTAP	56	192	5
NMTAP	56	256	3
NMTAP	56	256	7
NMTAP	56	288	3
NMTAP	56	288	7
NMHLD	57	0	5	64
NMTAP	57	64	7
NMHLD	57	96	7	64
NMTAP	57	160	0
NMHLD	57	192	0	64
NMTAP	57	256	2
NMTAP	57	288	2
NMSTR	58	0	2
NMSCL	58	0	2	96	48	0
NMSTR	58	0	3
NMSUL	58	0	3	96	48	7
NMSTR	58	192	4
NMSUR	58	192	4	96	48	0
NMSTR	58	192	5
NMSCR	58	192	5	96	48	7
NMTAP	59	0	1
NMTAP	59	64	2
NMTAP	59	64	3
NMSTR	59	96	2
NMSCL	59	96	2	96	96	5
NMTAP	59	96	3
NMTAP	60	0	4
NMTAP	60	0	5
NMTAP	60	64	3
NMTAP	60	64	7
NMTAP	60	96	3
NMTAP	60	96	7
NMTAP	60	192	2
NMTAP	60	192	3
NMTAP	60	256	0
NMTAP	60	256	4
NMTAP	60	288	0
NMTAP	60	288	4
NMHLD	61	0	2	64
NMTAP	61	64	0
NMHLD	61	96	0	64
NMTAP	61	160	7
NMHLD	61	192	7	64
NMTAP	61	256	5
NMTAP	61	288	5
NMSTR	62	0	4
NMSUR	62	0	4	96	48	0
NMSTR	62	0	5
NMSCR	62	0	5	96	48	7
NMSTR	62	192	2
NMSCL	62	192	2	96	48	0
NMSTR	62	192	3
NMSUL	62	192	3	96	48	7
NMTAP	63	0	6
NMTAP	63	64	4
NMTAP	63	64	5
NMSTR	63	96	4
NMSXR	63	96	4	96	96	2
NMSTR	63	96	5
NMSCR	63	96	5	96	96	1
NMTAP	64	0	0
NMTAP	64	0	1
NMTAP	64	64	4
NMTAP	64	64	6
NMTAP	64	96	4
NMTAP	64	96	6
NMTAP	64	192	6
NMTAP	64	192	7
NMTAP	64	256	1
NMTAP	64	256	3
NMTAP	64	288	1
NMTAP	64	288	3
NMHLD	65	0	2	64
NMTAP	65	64	0
NMHLD	65	96	0	64
NMTAP	65	160	7
NMTAP	65	192	7
NMTAP	65	256	4
NMTAP	65	256	6
NMTAP	65	288	4
NMTAP	65	288	6
NMSTR	66	0	2
NMSV_	66	0	2	96	48	7
NMSTR	66	0	6
NMSCL	66	0	6	96	48	3
EXTAP	66	192	0
EXTAP	66	192	4
EXTAP	66	288	1
EXTAP	66	288	5
NMSTR	67	0	3
NMSV_	67	0	3	96	48	0
NMSTR	67	0	7
NMSCL	67	0	7	96	48	4
BXHLD	67	192	1	96
BXHLD	67	192	5	96
NMTAP	68	0	6
NMTAP	68	0	7
NMTAP	68	64	1
NMTAP	68	64	3
NMTAP	68	96	1
NMTAP	68	96	3
NMTAP	68	192	0
NMTAP	68	192	1
NMTAP	68	256	4
NMTAP	68	256	6
NMTAP	68	288	4
NMTAP	68	288	6
NMHLD	69	0	5	64
NMTAP	69	64	7
NMHLD	69	96	7	64
NMTAP	69	160	0
NMTAP	69	192	0
NMTAP	69	256	1
NMTAP	69	256	3
NMTAP	69	288	1
NMTAP	69	288	3
NMTAP	70	0	0
NMTAP	70	0	7
NMTAP	70	64	4
NMTAP	70	64	6
NMTAP	70	96	4
NMTAP	70	96	6
NMTAP	70	192	0
NMTAP	70	192	7
NMTAP	70	256	1
NMTAP	70	256	3
NMSTR	70	288	1
NMSCL	70	288	1	96	192	2
NMTAP	70	288	3
EXTAP	71	192	7
NMSTR	71	288	6
BRSUL	71	288	6	96	192	3
NMTTP	72	0	0	C	1	M1
CNSCL	72	192	3	0	384	4
NMTAP	73	288	3
NMTAP	73	288	4
NMTAP	74	0	2
NMTAP	74	0	3
NMTAP	74	96	6
NMTAP	74	96	7
NMTAP	74	192	3
NMTAP	74	192	5
NMTAP	74	288	0
NMTAP	74	288	1
NMTAP	75	0	2
NMTAP	75	0	3
NMSTR	75	96	1
NMSI_	75	96	1	96	48	3
NMSTR	75	96	4
NMSI_	75	96	4	96	48	0
NMTAP	76	0	5
NMTAP	76	0	7
NMTAP	76	96	0
NMTAP	76	96	1
NMTAP	76	192	0
NMTAP	76	192	2
NMTAP	76	288	6
NMTAP	76	288	7
NMTAP	77	0	4
NMTAP	77	0	6
NMTAP	77	96	2
NMTAP	77	96	3
NMTAP	77	192	1
NMTAP	77	192	3
NMTAP	77	288	4
NMTAP	77	288	5
NMTAP	78	0	6
NMTAP	78	0	7
NMTAP	78	96	0
NMTAP	78	96	1
NMTAP	78	192	2
NMTAP	78	192	3
NMTAP	78	288	4
NMTAP	78	288	5
NMSTR	79	0	6
NMSI_	79	0	6	96	48	2
NMSTR	79	0	7
NMSI_	79	0	7	96	48	3
BXTAP	79	192	1
BXTAP	79	192	4
BXTAP	79	288	3
BXTAP	79	288	6
BRTAP	80	0	4
BRTAP	80	0	5
NMTAP	80	64	0
NMTAP	80	64	1
NMTAP	80	96	0
NMTAP	80	96	1
BRTAP	80	192	2
BRTAP	80	192	3
NMTAP	80	256	6
NMTAP	80	256	7
NMTAP	80	288	6
NMTAP	80	288	7
BRTAP	81	0	4
BRTAP	81	0	5
NMTAP	81	64	0
NMTAP	81	64	1
NMTAP	81	96	0
NMTAP	81	96	1
BRSTR	81	192	2
NMSI_	81	192	2	96	48	6
BRTAP	81	192	3
BRTAP	82	0	4
BRTAP	82	0	5
NMTAP	82	64	0
NMTAP	82	64	2
NMTAP	82	96	0
NMTAP	82	96	2
BRTAP	82	192	2
BRTAP	82	192	3
NMTAP	82	256	5
NMTAP	82	256	7
NMTAP	82	288	5
NMTAP	82	288	7
BRTAP	83	0	4
BRTAP	83	0	5
NMTAP	83	64	2
NMTAP	83	64	7
NMSTR	83	96	2
BRSCL	83	96	2	96	48	7
NMSTR	83	96	7
BRSCL	83	96	7	96	48	4

T_REC_TAP	357
T_REC_BRK	20
T_REC_XTP	21
T_REC_BXX	6
T_REC_HLD	54
T_REC_XHO	6
T_REC_BHO	0
T_REC_BXH	2
T_REC_STR	47
T_REC_BST	1
T_REC_XST	0
T_REC_XBS	0
T_REC_TTP	2
T_REC_THO	0
T_REC_SLD	43
T_REC_BSL	5
T_REC_ALL	564
T_NUM_TAP	427
T_NUM_BRK	34
T_NUM_HLD	60
T_NUM_SLD	43
T_NUM_ALL	564
T_JUDGE_TAP	454
T_JUDGE_HLD	140
T_JUDGE_SLD	48
T_JUDGE_ALL	642
TTM_EACHPAIRS	188
TTM_SCR_TAP	213500
TTM_SCR_BRK	88400
TTM_SCR_HLD	60000
TTM_SCR_SLD	64500
TTM_SCR_ALL	426400
TTM_SCR_S	410350
TTM_SCR_SS	423000
TTM_RAT_ACV	10080

