VERSION	0.00.00	1.04.00
FES_MODE	0
BPM_DEF	140.000	140.000	140.000	140.000
MET_DEF	4	4
RESOLUTION	384
CLK_DEF	384
COMPATIBLE_CODE	MA2

BPM	0	0	140.000
MET	0	0	4	4

NMTAP	2	0	1
NMTAP	2	96	1
NMTAP	2	192	1
NMTAP	3	0	2
NMTAP	3	96	2
NMTAP	3	192	2
NMTAP	4	0	3
NMTAP	4	96	3
NMTAP	4	192	3
NMTAP	5	0	4
NMTAP	5	0	5
NMTAP	5	192	4
NMTAP	5	192	5
NMTAP	6	0	6
NMTAP	6	96	6
NMTAP	6	192	6
NMTAP	7	0	5
NMTAP	7	96	5
NMTAP	7	192	5
NMTAP	8	0	4
NMTAP	8	96	4
NMTAP	8	192	4
NMTAP	9	0	2
NMTAP	9	0	3
NMTAP	9	192	2
NMTAP	9	192	3
NMTAP	10	0	1
NMTAP	10	96	1
NMTAP	10	192	0
NMTAP	10	192	1
NMTAP	11	0	2
NMTAP	11	96	2
NMTAP	11	192	2
NMTAP	11	192	3
NMTAP	12	0	4
NMTAP	12	96	4
NMTAP	12	192	4
NMTAP	12	192	5
NMTAP	13	0	6
NMTAP	13	0	7
NMTAP	13	96	6
NMTAP	13	96	7
NMTAP	13	192	6
NMTAP	13	192	7
NMTAP	14	0	6
NMTAP	14	96	6
NMTAP	14	192	6
NMTAP	14	192	7
NMTAP	15	0	5
NMTAP	15	96	5
NMTAP	15	192	4
NMTAP	15	192	5
NMTAP	16	0	3
NMTAP	16	96	3
NMTAP	16	192	2
NMTAP	16	192	3
NMTAP	17	0	0
NMTAP	17	0	1
NMTAP	17	96	0
NMTAP	17	96	1
NMTAP	17	192	0
NMTAP	17	192	1
NMHLD	18	0	2	192
NMHLD	18	192	3	192
NMHLD	19	0	4	192
NMTAP	19	192	5
NMHLD	20	0	5	192
NMHLD	20	192	4	192
NMHLD	21	0	3	192
NMTAP	21	192	2
NMHLD	22	0	1	192
NMHLD	22	192	2	192
NMHLD	23	0	3	192
NMTAP	23	192	4
NMHLD	24	0	6	192
NMHLD	24	192	5	192
NMHLD	25	0	4	192
NMTAP	25	192	3
NMHLD	26	0	2	192
NMTAP	26	192	3
NMHLD	27	0	4	192
NMTAP	27	192	3
NMTAP	28	0	5
NMTAP	28	96	5
NMTAP	28	192	6
NMTAP	28	288	6
NMTAP	29	0	7
NMTAP	29	96	7
NMTAP	29	192	0
NMTAP	29	192	1
NMTAP	30	0	2
NMTAP	30	96	2
NMTAP	30	192	1
NMTAP	30	288	1
NMTAP	31	0	0
NMTAP	31	96	0
NMTAP	31	192	6
NMTAP	31	192	7
NMTAP	32	0	6
NMTAP	32	96	6
NMTAP	32	192	5
NMTAP	32	288	5
NMTAP	33	0	4
NMTAP	33	96	4
NMTAP	33	192	2
NMTAP	33	192	3
NMTAP	34	0	1
NMTAP	34	96	1
NMTAP	34	192	2
NMTAP	34	288	2
NMTAP	35	0	3
NMTAP	35	96	3
NMTAP	35	192	4
NMTAP	35	192	5
NMTTP	36	0	6	B	0	L1
NMTTP	36	96	5	B	0	L1
NMTTP	36	192	4	B	0	L1
NMTTP	37	0	1	B	0	L1
NMTTP	37	96	2	B	0	L1
NMTTP	37	192	3	B	0	L1
NMTTP	38	0	6	B	0	L1
NMTTP	38	96	5	B	0	L1
NMTTP	38	192	4	B	0	L1
NMTTP	38	288	3	B	0	L1
NMTTP	39	0	2	B	0	L1
NMTTP	39	96	1	B	0	L1
NMTTP	39	192	0	C	0	L1
NMTAP	40	0	0
NMTAP	40	96	0
NMTAP	40	192	1
NMTAP	40	288	1
NMTAP	41	0	2
NMTAP	41	96	2
NMTAP	41	192	3
NMTAP	41	288	3
NMTAP	42	0	4
NMTAP	42	96	4
NMTAP	42	192	5
NMTAP	42	288	5
NMTAP	43	0	6
NMTAP	43	96	6
NMTAP	43	192	0
NMTAP	43	192	7
NMTAP	44	0	7
NMTAP	44	96	7
NMTAP	44	192	6
NMTAP	44	288	6
NMTAP	45	0	5
NMTAP	45	96	5
NMTAP	45	192	4
NMTAP	45	288	4
NMTAP	46	0	3
NMTAP	46	96	3
NMTAP	46	192	2
NMTAP	46	288	2
NMTAP	47	0	1
NMTAP	47	96	1
BXTAP	47	192	0
BXTAP	47	192	7
NMSTR	48	0	6
NMSI_	48	0	6	96	192	3
NMSTR	49	0	1
NMSI_	49	0	1	96	192	4
NMSTR	50	0	6
NMSI_	50	0	6	96	192	2
NMSTR	51	0	0
NMSI_	51	0	0	96	192	4
NMSTR	52	0	6
NMSCL	52	0	6	96	192	3
NMSTR	53	0	2
NMSCL	53	0	2	96	192	7
NMSTR	54	0	6
NMSI_	54	0	6	96	192	3
NMTAP	55	0	2
NMTAP	55	192	3
NMTAP	55	192	4
NMTAP	56	0	5
NMTAP	56	96	5
NMTAP	56	192	6
NMTAP	56	192	7
NMTAP	56	288	6
NMTAP	56	288	7
NMTAP	57	0	0
NMTAP	57	96	0
NMTAP	57	192	0
NMTAP	57	192	1
NMTAP	58	0	2
NMTAP	58	96	2
NMTAP	58	192	0
NMTAP	58	192	1
NMTAP	58	288	0
NMTAP	58	288	1
NMTAP	59	0	7
NMTAP	59	96	7
NMTAP	59	192	6
NMTAP	59	192	7
NMTAP	60	0	6
NMTAP	60	96	6
NMTAP	60	192	4
NMTAP	60	192	5
NMTAP	60	288	4
NMTAP	60	288	5
NMTAP	61	0	3
NMTAP	61	96	3
NMTAP	61	192	2
NMTAP	61	192	3
NMTAP	62	0	1
NMTAP	62	96	1
NMTAP	62	192	2
NMTAP	62	192	3
NMTAP	62	288	2
NMTAP	62	288	3
NMTAP	63	0	4
NMTAP	63	96	4
BRTAP	63	192	4
BRTAP	63	192	5
NMTAP	64	0	6
NMTAP	64	96	6
NMTAP	64	192	6
NMTAP	64	288	6
NMTAP	64	288	7
NMTAP	65	0	5
NMTAP	65	96	5
NMTAP	65	192	5
NMTAP	65	288	4
NMTAP	65	288	5
NMTAP	66	0	3
NMTAP	66	96	3
NMTAP	66	192	3
NMTAP	66	288	2
NMTAP	66	288	3
NMTAP	67	0	0
NMTAP	67	0	1
NMTAP	67	96	0
NMTAP	67	96	1
NMTAP	67	192	0
NMTAP	67	192	1
NMTAP	68	0	1
NMTAP	68	96	1
NMTAP	68	192	1
NMTAP	68	288	0
NMTAP	68	288	1
NMTAP	69	0	2
NMTAP	69	96	2
NMTAP	69	192	2
NMTAP	69	288	2
NMTAP	69	288	3
NMTAP	70	0	4
NMTAP	70	96	4
NMTAP	70	192	4
NMTAP	70	288	4
NMTAP	70	288	5
NMTAP	71	0	6
NMTAP	71	0	7
NMTAP	71	96	6
NMTAP	71	96	7
NMTAP	71	192	6
NMTAP	71	192	7
NMTAP	72	0	7
NMTAP	72	96	6
NMTAP	72	192	5
NMTAP	72	288	4
NMTAP	73	0	3
NMTAP	73	96	2
NMTAP	73	192	0
NMTAP	73	192	1
NMTAP	74	0	0
NMTAP	74	96	1
NMTAP	74	192	2
NMTAP	74	288	3
NMTAP	75	0	4
NMTAP	75	96	5
NMTAP	75	192	6
NMTAP	75	192	7
NMTAP	76	0	6
NMTAP	76	0	7
NMTAP	76	96	6
NMTAP	76	96	7
NMTAP	76	192	0
NMTAP	76	192	5
NMTAP	77	0	4
NMTAP	77	0	5
NMTAP	77	96	4
NMTAP	77	96	5
NMTAP	77	192	3
NMTAP	77	192	6
NMTAP	78	0	2
NMTAP	78	0	3
NMTAP	78	96	2
NMTAP	78	96	3
NMTAP	78	192	1
NMTAP	78	192	4
NMTAP	79	0	0
NMTAP	79	0	1
NMTAP	79	96	0
NMTAP	79	96	1
NMTAP	79	192	2
NMTAP	79	192	7
NMTAP	80	0	0
NMTAP	80	0	1
NMTAP	80	96	0
NMTAP	80	96	1
NMTAP	80	192	2
NMTAP	80	192	7
NMTAP	81	0	2
NMTAP	81	0	3
NMTAP	81	96	2
NMTAP	81	96	3
NMTAP	81	192	1
NMTAP	81	192	4
NMTAP	82	0	4
NMTAP	82	0	5
NMTAP	82	96	4
NMTAP	82	96	5
NMTAP	82	192	3
NMTAP	82	192	6
NMTAP	83	0	6
NMTAP	83	0	7
NMTAP	83	96	6
NMTAP	83	96	7
BRTAP	83	192	0
BRTAP	83	192	5

T_REC_TAP	275
T_REC_BRK	4
T_REC_XTP	0
T_REC_BXX	2
T_REC_HLD	14
T_REC_XHO	0
T_REC_BHO	0
T_REC_BXH	0
T_REC_STR	7
T_REC_BST	0
T_REC_XST	0
T_REC_XBS	0
T_REC_TTP	13
T_REC_THO	0
T_REC_SLD	7
T_REC_BSL	0
T_REC_ALL	322
T_NUM_TAP	295
T_NUM_BRK	6
T_NUM_HLD	14
T_NUM_SLD	7
T_NUM_ALL	322
T_JUDGE_TAP	301
T_JUDGE_HLD	56
T_JUDGE_SLD	7
T_JUDGE_ALL	364
TTM_EACHPAIRS	73
TTM_SCR_TAP	147500
TTM_SCR_BRK	15600
TTM_SCR_HLD	14000
TTM_SCR_SLD	10500
TTM_SCR_ALL	187600
TTM_SCR_S	181400
TTM_SCR_SS	187000
TTM_RAT_ACV	10032

