VERSION	0.00.00	1.04.00
FES_MODE	0
BPM_DEF	140.000	140.000	140.000	140.000
MET_DEF	4	4
RESOLUTION	384
CLK_DEF	384
COMPATIBLE_CODE	MA2

BPM	0	0	140.000
MET	0	0	4	4

NMTAP	2	0	7
NMTAP	2	192	7
NMTAP	3	0	6
NMTAP	4	0	5
NMTAP	4	192	5
NMTAP	5	0	4
NMTAP	6	0	3
NMTAP	6	192	3
NMTAP	7	0	2
NMTAP	8	0	1
NMTAP	8	192	1
NMTAP	9	0	0
NMTAP	9	0	7
NMTAP	10	0	0
NMTAP	10	192	0
NMTAP	11	0	1
NMTAP	11	192	1
NMTAP	12	0	2
NMTAP	12	192	2
NMTAP	13	0	2
NMTAP	13	0	3
NMTAP	14	0	4
NMTAP	14	192	4
NMTAP	15	0	5
NMTAP	15	192	5
NMTAP	16	0	6
NMTAP	16	192	6
NMTAP	17	0	6
NMTAP	17	0	7
NMSTR	18	0	0
NMSI_	18	0	0	96	288	4
NMSTR	20	0	7
NMSI_	20	0	7	96	288	3
NMSTR	22	0	2
NMSI_	22	0	2	96	288	5
NMSTR	24	0	6
NMSI_	24	0	6	96	288	2
NMSTR	26	0	1
NMSI_	26	0	1	96	288	5
BRTAP	28	0	7
NMTAP	28	96	7
NMTAP	28	192	7
NMTAP	29	0	6
NMTAP	29	192	6
NMTAP	30	0	5
NMTAP	30	96	5
NMTAP	30	192	5
NMTAP	31	0	4
NMTAP	31	0	5
NMTAP	32	0	3
NMTAP	32	96	3
NMTAP	32	192	3
NMTAP	33	0	2
NMTAP	33	192	2
NMTAP	34	0	1
NMTAP	34	96	1
NMTAP	34	192	1
NMTAP	35	0	0
NMTAP	35	0	1
NMTAP	36	0	7
NMTAP	36	96	7
NMTAP	36	192	6
NMTAP	36	192	7
NMTAP	37	0	0
NMTAP	37	96	0
NMTAP	37	192	0
NMTAP	37	192	1
NMTAP	38	0	7
NMTAP	38	96	7
NMTAP	38	192	0
NMTAP	38	192	7
BRTAP	39	0	0
BRTAP	39	0	7
NMHLD	40	0	0	192
NMHLD	40	0	1	192
NMTAP	41	0	0
NMTAP	41	0	1
NMTAP	41	192	0
NMTAP	41	192	1
NMHLD	42	0	2	192
NMHLD	42	0	3	192
NMTAP	43	0	2
NMTAP	43	0	3
NMTAP	43	192	2
NMTAP	43	192	3
NMHLD	44	0	4	192
NMHLD	44	0	5	192
NMTAP	45	0	4
NMTAP	45	0	5
NMTAP	45	192	4
NMTAP	45	192	5
NMHLD	46	0	6	192
NMHLD	46	0	7	192
NMTAP	47	0	6
NMTAP	47	0	7
NMTTP	48	0	7	B	0	L1
NMTTP	49	0	0	B	0	L1
NMTTP	50	0	6	B	0	L1
NMTTP	51	0	1	B	0	L1
NMTTP	52	0	5	B	0	L1
NMTTP	53	0	2	B	0	L1
NMTHO	54	0	0	384	C	1	L1
NMTAP	56	0	7
NMTAP	56	96	7
NMTAP	56	192	7
NMTAP	57	0	6
NMTAP	57	96	6
NMTAP	57	192	6
NMTAP	58	0	5
NMTAP	58	96	5
NMTAP	58	192	5
NMTAP	59	0	4
NMTAP	59	0	5
NMTAP	59	192	4
NMTAP	59	192	5
NMTAP	60	0	3
NMTAP	60	96	3
NMTAP	60	192	3
NMTAP	61	0	2
NMTAP	61	96	2
NMTAP	61	192	2
NMTAP	62	0	1
NMTAP	62	96	1
NMTAP	62	192	1
NMTAP	63	0	0
NMTAP	63	0	1
NMTAP	63	192	0
NMTAP	63	192	1
BRTAP	64	0	0
NMTAP	64	96	0
NMTAP	64	192	0
NMTAP	65	0	1
NMTAP	65	96	1
NMTAP	65	192	1
NMTAP	66	0	2
NMTAP	66	96	2
NMTAP	66	192	2
NMTAP	67	0	3
NMTAP	67	96	3
NMTAP	67	192	3
NMTAP	67	192	4
NMTAP	68	0	4
NMTAP	68	96	4
NMTAP	68	192	4
NMTAP	69	0	5
NMTAP	69	96	5
NMTAP	69	192	5
NMTAP	70	0	6
NMTAP	70	96	6
NMTAP	70	192	6
BRTAP	71	0	0
BRTAP	71	0	7
NMTAP	72	0	7
NMTAP	72	96	7
NMTAP	72	192	7
NMTAP	73	0	6
NMTAP	73	0	7
NMTAP	73	96	6
NMTAP	73	96	7
NMTAP	73	192	6
NMTAP	73	192	7
NMTAP	74	0	5
NMTAP	74	96	5
NMTAP	74	192	5
NMTAP	75	0	3
NMTAP	75	0	4
NMTAP	75	96	3
NMTAP	75	96	4
NMTAP	75	192	3
NMTAP	75	192	4
NMTAP	76	0	3
NMTAP	76	96	3
NMTAP	76	192	3
NMTAP	77	0	2
NMTAP	77	0	3
NMTAP	77	96	2
NMTAP	77	96	3
NMTAP	77	192	2
NMTAP	77	192	3
NMTAP	78	0	1
NMTAP	78	96	1
NMTAP	78	192	1
NMTAP	79	0	0
NMTAP	79	0	7
NMTTP	80	0	0	B	0	L1
NMTTP	80	0	7	B	0	L1
NMTTP	81	0	1	B	0	L1
NMTTP	81	0	6	B	0	L1
NMTTP	82	0	2	B	0	L1
NMTTP	82	0	5	B	0	L1
NMTHO	83	0	0	192	C	1	L1
NMTTP	83	0	3	B	0	L1
NMTTP	83	0	4	B	0	L1

T_REC_TAP	153
T_REC_BRK	6
T_REC_XTP	0
T_REC_BXX	0
T_REC_HLD	8
T_REC_XHO	0
T_REC_BHO	0
T_REC_BXH	0
T_REC_STR	5
T_REC_BST	0
T_REC_XST	0
T_REC_XBS	0
T_REC_TTP	14
T_REC_THO	2
T_REC_SLD	5
T_REC_BSL	0
T_REC_ALL	193
T_NUM_TAP	172
T_NUM_BRK	6
T_NUM_HLD	10
T_NUM_SLD	5
T_NUM_ALL	193
T_JUDGE_TAP	178
T_JUDGE_HLD	44
T_JUDGE_SLD	5
T_JUDGE_ALL	227
TTM_EACHPAIRS	36
TTM_SCR_TAP	86000
TTM_SCR_BRK	15600
TTM_SCR_HLD	10000
TTM_SCR_SLD	7500
TTM_SCR_ALL	119100
TTM_SCR_S	114950
TTM_SCR_SS	118500
TTM_RAT_ACV	10050

