VERSION	0.00.00	1.04.00
FES_MODE	0
BPM_DEF	133.000	133.000	133.000	133.000
MET_DEF	4	4
RESOLUTION	384
CLK_DEF	384
COMPATIBLE_CODE	MA2

BPM	0	0	133.000
MET	0	0	4	4

NMTAP	1	272	4
NMTAP	1	288	3
EXHLD	1	304	4	1616
NMHLD	6	0	3	32
NMTTP	6	96	5	E	0	M1
NMTTP	6	176	4	E	0	M1
NMHLD	7	0	3	32
NMHLD	7	96	4	192
NMHLD	8	0	4	32
NMTTP	8	96	3	E	0	M1
NMTTP	8	176	4	E	0	M1
NMHLD	9	0	4	32
NMHLD	9	96	3	192
NMTTP	9	192	6	E	0	M1
NMTTP	9	240	5	E	0	M1
NMTTP	9	288	0	C	0	M1
NMTTP	9	336	3	E	0	M1
NMTTP	10	0	2	E	0	M1
NMTAP	10	96	0
NMTAP	10	96	7
NMTAP	10	192	2
NMTAP	10	192	3
NMTAP	10	240	5
NMTAP	10	272	5
NMTAP	10	288	4
NMTAP	11	0	1
NMTAP	11	0	3
NMTAP	11	48	2
NMTAP	11	96	3
NMTAP	11	96	5
NMTAP	11	144	4
NMTAP	11	192	1
NMTAP	11	192	3
NMTAP	11	240	2
NMTAP	11	272	2
NMSTR	11	288	3
NMSI_	11	288	3	96	32	5
NMSTR	12	0	1
NMSI_	12	0	1	96	32	3
NMTAP	12	96	7
NMTAP	12	192	4
NMTAP	12	192	5
NMTAP	12	240	2
NMTAP	12	272	2
NMTAP	12	288	3
NMTAP	13	0	4
NMTAP	13	0	6
NMTAP	13	48	5
NMTAP	13	96	2
NMTAP	13	96	4
NMTAP	13	144	3
NMTAP	13	176	3
NMTAP	13	192	4
NMTAP	13	240	5
EXHLD	13	288	6	48
EXHLD	13	336	2	48
NMHLD	14	0	4	96
NMTAP	14	96	3
NMSTR	14	144	1
NMSI_	14	144	1	96	32	7
NMSTR	14	240	5
NMSI_	14	240	5	96	32	3
NMTAP	14	336	2
NMTAP	15	48	3
NMTAP	15	96	4
NMHLD	15	144	5	96
NMTAP	15	240	2
NMTAP	15	288	3
NMTAP	15	336	4
NMHLD	16	0	1	96
NMTAP	16	96	3
NMSTR	16	144	2
NMSI_	16	144	2	96	32	4
NMSTR	16	240	6
NMSI_	16	240	6	96	32	0
NMTAP	16	336	1
NMTTP	17	48	2	A	0	M1
NMTTP	17	96	4	E	0	M1
NMTTP	17	144	5	A	0	M1
NMTTP	17	288	3	E	0	M1
EXTAP	17	288	6
EXTAP	17	336	1
NMTTP	17	336	5	E	0	M1
BRSTR	18	0	0
NMSI_	18	0	0	96	48	3
BRSTR	18	0	7
NMSI_	18	0	7	96	48	4
NMTAP	18	192	1
NMTAP	18	192	6
NMTAP	18	240	2
NMTAP	18	240	5
NMTAP	18	272	0
NMTAP	18	288	7
NMTAP	19	0	2
NMTAP	19	0	4
NMTAP	19	48	3
NMTAP	19	96	4
NMTAP	19	96	6
NMTAP	19	144	5
NMTAP	19	176	5
NMSTR	19	192	4
NMSI_	19	192	4	96	48	0
NMTAP	19	240	7
NMSTR	19	288	6
NMSCL	19	288	6	96	48	3
NMTAP	20	0	2
NMTAP	20	96	1
NMTAP	20	96	5
NMTAP	20	192	2
NMTAP	20	192	4
NMTAP	20	240	3
NMTAP	20	288	4
NMTAP	20	288	6
NMTAP	20	336	5
NMTAP	20	368	5
NMTAP	21	0	4
NMTAP	21	32	4
NMTAP	21	48	6
NMTAP	21	80	6
NMTAP	21	96	0
NMTAP	21	128	0
NMTAP	21	144	7
NMTAP	21	176	7
NMTAP	21	192	1
NMTAP	21	224	1
NMTAP	21	240	3
NMTAP	21	272	3
NMTAP	21	288	2
NMTAP	21	336	1
NMTAP	21	336	4
NMTAP	22	0	0
NMHLD	22	0	5	192
NMTAP	22	48	1
NMTAP	22	96	2
NMTAP	22	144	3
NMHLD	22	192	4	192
NMTTP	22	240	7	A	0	M1
NMTTP	22	288	1	B	0	M1
NMTTP	22	336	5	B	0	M1
NMTTP	23	0	3	A	0	M1
NMTAP	23	48	4
NMTAP	23	96	5
NMTAP	23	144	6
NMTAP	23	192	2
NMTAP	23	240	3
NMTAP	23	288	4
NMTAP	23	288	5
NMHLD	24	0	2	192
NMTAP	24	0	7
NMTAP	24	48	6
NMTAP	24	96	5
NMTAP	24	144	4
NMHLD	24	192	3	192
NMTTP	24	240	0	A	0	M1
NMTTP	24	288	6	B	0	M1
NMTTP	24	336	2	B	0	M1
NMTTP	25	0	4	A	0	M1
NMTAP	25	48	3
NMTAP	25	96	2
NMTAP	25	144	1
NMTAP	25	192	0
NMTAP	25	192	6
NMTAP	25	240	0
NMTAP	25	240	6
NMTAP	25	288	1
NMTAP	25	288	5
NMTAP	26	0	0
NMSTR	26	0	6
NMSI_	26	0	6	96	48	3
NMTAP	26	48	0
NMTAP	26	96	1
NMTAP	26	144	1
NMTAP	26	192	2
NMTAP	26	192	3
NMTAP	26	240	3
NMTAP	26	240	4
NMTAP	26	288	4
NMTAP	26	288	5
NMSTR	27	0	1
NMSI_	27	0	1	96	48	4
NMTAP	27	0	7
NMTAP	27	48	7
NMTAP	27	96	6
NMTAP	27	144	6
NMTAP	27	192	3
NMTAP	27	192	5
NMTAP	27	240	2
NMTAP	27	240	4
NMTAP	27	288	1
NMTAP	27	288	3
EXSTR	28	0	4
BRSUL	28	0	4	96	240	3
EXTAP	28	0	6
EXTAP	28	32	4
EXHLD	28	32	6	640
BRHLD	29	0	2	288
EXTAP	30	0	1
BXTAP	30	0	5
NMTAP	30	48	2
NMTAP	30	48	3
NMTAP	30	96	4
NMTAP	30	96	7
NMTAP	30	144	0
NMTAP	30	144	1
NMSTR	30	192	2
NMSCR	30	192	2	96	16	3
NMSTR	30	192	6
NMSCR	30	192	6	96	16	7
NMTAP	30	272	2
NMTAP	30	272	6
CNSV_	30	304	3	0	48	0
CNSV_	30	304	7	0	48	4
BXTAP	31	0	1
EXTAP	31	0	5
NMTAP	31	48	2
NMTAP	31	48	3
NMTAP	31	96	4
NMSTR	31	96	7
NMSCL	31	96	7	96	48	4
NMTAP	31	144	0
NMTAP	31	144	1
NMHLD	31	192	2	80
NMTAP	31	272	3
NMHLD	31	336	1	32
NMHLD	31	336	5	32
NMTAP	32	0	2
NMTAP	32	0	6
NMTAP	32	48	1
NMTAP	32	48	5
NMSTR	32	96	2
NMSI_	32	96	2	96	48	7
NMSTR	32	96	6
NMSI_	32	96	6	96	48	3
NMTAP	32	144	1
NMTAP	32	144	5
NMTAP	32	192	2
NMTAP	32	192	6
BRTAP	32	272	1
BRTAP	32	272	5
NMTAP	32	320	6
NMTAP	32	336	7
NMTAP	32	368	7
NMSTR	33	0	5
NMSCL	33	0	5	96	48	3
NMSTR	33	48	3
NMSCL	33	48	3	96	48	1
NMSTR	33	96	1
NMSCL	33	96	1	96	48	7
NMSTR	33	144	7
NMSCL	33	144	7	96	48	5
NMTAP	33	192	5
EXTAP	33	288	3
EXTAP	33	320	3
EXTAP	33	336	4
EXTAP	33	368	4
EXSTR	34	0	3
NMSF_	34	0	3	96	32	7
NMTTP	34	96	0	C	1	M1
NMHLD	34	192	1	48
NMHLD	34	192	5	48
NMTAP	34	272	6
NMTAP	34	272	7
NMTAP	34	320	0
NMTAP	34	336	7
NMTAP	35	0	1
NMTAP	35	0	5
NMTAP	35	48	3
NMTAP	35	48	7
NMSTR	35	96	0
NMSUR	35	96	0	96	48	4
NMSTR	35	96	4
NMSUR	35	96	4	96	48	0
NMTAP	35	144	2
NMTAP	35	144	6
NMTAP	35	192	0
NMTAP	35	192	4
EXTAP	35	272	2
EXTAP	35	272	6
NMHLD	35	336	1	32
NMHLD	35	336	5	32
NMTAP	36	0	2
NMTAP	36	0	6
NMTAP	36	48	4
NMTAP	36	48	5
NMTAP	36	96	0
NMTAP	36	96	3
NMTAP	36	144	6
NMTAP	36	144	7
NMSTR	36	192	1
NMSCL	36	192	1	96	16	0
NMSTR	36	192	5
NMSCL	36	192	5	96	16	4
EXTAP	36	272	1
EXTAP	36	272	5
CNSV_	36	304	0	0	48	3
CNSV_	36	304	4	0	48	7
EXTAP	37	0	2
EXTAP	37	0	6
NMTAP	37	48	3
NMTAP	37	96	1
NMTAP	37	96	5
NMTAP	37	144	6
NMSTR	37	192	0
NMSI_	37	192	0	96	48	2
NMSTR	37	192	7
NMSI_	37	192	7	96	48	3
NMSTR	37	288	0
NMSI_	37	288	0	96	48	4
NMSTR	37	288	7
NMSI_	37	288	7	96	48	5
BRTAP	38	0	0
BRTAP	38	0	7
NMHLD	38	96	2	32
NMTAP	38	128	3
NMTAP	38	144	2
NMHLD	38	192	4	32
NMTAP	38	224	3
NMTAP	38	240	4
NMHLD	38	288	2	32
NMTAP	38	320	3
NMTAP	38	336	2
EXTAP	39	0	1
NMTAP	39	0	4
NMTAP	39	48	3
EXTAP	39	48	6
NMHLD	39	96	2	32
NMTAP	39	128	3
NMTAP	39	144	2
NMHLD	39	192	4	32
NMTAP	39	224	3
NMTAP	39	240	4
NMHLD	39	288	2	32
NMTAP	39	320	3
NMTAP	39	336	2
EXHLD	40	0	0	48
EXHLD	40	0	4	48
NMHLD	40	96	5	32
NMTAP	40	128	4
NMTAP	40	144	5
NMHLD	40	192	3	32
NMTAP	40	224	4
NMTAP	40	240	3
NMHLD	40	288	5	32
NMTAP	40	320	4
NMTAP	40	336	5
NMTAP	41	0	3
EXTAP	41	0	6
EXTAP	41	48	1
NMTAP	41	48	4
NMHLD	41	96	5	32
NMTAP	41	128	4
NMTAP	41	144	5
NMSTR	41	192	3
NMSUR	41	192	3	96	96	4
NMTAP	41	240	3
NMTAP	42	0	5
NMHLD	42	48	5	288
NMTAP	42	144	4
NMTAP	42	240	4
NMTAP	42	336	4
NMTAP	43	0	4
NMTAP	43	0	5
NMHLD	43	48	3	288
NMTAP	43	144	4
NMTAP	43	240	4
NMTAP	43	336	4
NMTAP	44	0	3
NMTAP	44	0	4
NMHLD	44	48	2	288
NMTAP	44	144	3
NMTAP	44	240	3
NMTAP	44	336	3
NMTAP	45	0	2
NMTAP	45	0	3
NMHLD	45	48	4	240
NMTAP	45	144	3
NMTTP	45	192	2	E	0	M1
NMTTP	45	240	3	E	0	M1
NMTTP	45	288	0	C	0	M1
NMTTP	45	336	5	E	0	M1
NMTTP	46	0	6	E	0	M1
NMTAP	46	96	0
NMTAP	46	96	7
NMTAP	46	192	2
NMTAP	46	192	3
NMTAP	46	240	5
NMTAP	46	272	5
NMTAP	46	288	4
NMTAP	47	0	1
NMTAP	47	0	3
NMTAP	47	48	2
NMTAP	47	96	3
NMTAP	47	96	5
NMTAP	47	144	4
NMTAP	47	192	1
NMTAP	47	192	3
NMTAP	47	240	2
NMTAP	47	272	2
NMSTR	47	288	3
NMSI_	47	288	3	96	48	7
NMSTR	48	0	1
NMSCR	48	0	1	96	48	4
NMTAP	48	96	5
NMTAP	48	192	6
NMTAP	48	240	3
NMTAP	48	272	3
NMTAP	48	288	4
NMTAP	49	0	4
NMTAP	49	0	6
NMTAP	49	48	5
NMTAP	49	80	5
NMTAP	49	96	4
NMTAP	49	144	2
NMTAP	49	176	2
NMTAP	49	192	3
NMTAP	49	240	4
EXHLD	49	288	2	48
EXHLD	49	336	6	48
NMHLD	50	0	4	96
NMTAP	50	96	5
NMSTR	50	144	2
NMSI_	50	144	2	96	32	4
NMSTR	50	240	6
NMSI_	50	240	6	96	48	2
NMTAP	50	336	3
NMTAP	51	48	4
NMTAP	51	96	3
NMHLD	51	144	2	96
NMTAP	51	240	5
NMTAP	51	288	4
NMTAP	51	336	3
NMHLD	52	0	6	96
NMTAP	52	96	4
NMSTR	52	144	5
NMSI_	52	144	5	96	32	3
NMSTR	52	240	1
NMSI_	52	240	1	96	48	5
NMTAP	52	336	6
NMTTP	53	48	7	E	0	M1
NMTTP	53	96	6	E	0	M1
NMTTP	53	144	5	E	0	M1
NMTTP	53	192	4	E	0	M1
NMTTP	53	240	3	E	0	M1
NMTTP	53	288	2	E	0	M1
NMTTP	53	336	1	E	0	M1
NMHLD	54	48	1	48
NMHLD	54	96	2	48
NMHLD	54	144	3	48
NMHLD	54	192	4	48
NMHLD	54	240	5	48
NMSTR	54	288	6
NMSXL	54	288	6	96	768	1
NMTAP	57	0	2
NMHLD	57	48	2	96
NMTAP	57	192	3
NMHLD	57	240	3	96
NMTAP	58	0	4
NMHLD	58	48	4	96
NMTAP	58	192	3
NMSTR	58	192	5
NMSI_	58	192	5	96	32	3
NMTAP	58	288	1
NMTAP	58	288	5
NMTAP	59	0	2
NMHLD	59	48	2	272
NMTTP	59	144	3	A	0	M1
NMTTP	59	240	1	A	0	M1
NMHLD	59	336	3	368
NMTTP	60	48	3	D	0	M1
NMTTP	60	144	4	A	0	M1
NMTTP	60	240	2	A	0	M1
NMHLD	60	336	4	368
NMTTP	61	48	4	D	0	M1
NMTTP	61	144	5	A	0	M1
NMTTP	61	240	3	A	0	M1
NMHLD	61	336	5	192
NMTTP	62	48	6	D	0	M1
NMSTR	62	144	4
NMSXL	62	144	4	96	64	4
NMSXR	62	144	4	96	64	4
EXTAP	63	0	2
BXTAP	63	0	6
NMTAP	63	48	4
NMTAP	63	48	5
NMTAP	63	96	0
NMTAP	63	96	3
NMTAP	63	144	6
NMTAP	63	144	7
NMSTR	63	192	1
NMSCL	63	192	1	96	16	0
NMSTR	63	192	5
NMSCL	63	192	5	96	16	4
NMTAP	63	272	1
NMTAP	63	272	5
CNSV_	63	304	0	0	48	3
CNSV_	63	304	4	0	48	7
BXTAP	64	0	2
EXTAP	64	0	6
NMTAP	64	48	0
NMTAP	64	48	1
NMSTR	64	96	4
NMSCR	64	96	4	96	48	7
NMTAP	64	96	7
NMTAP	64	144	2
NMTAP	64	144	3
NMHLD	64	192	1	80
NMTAP	64	272	0
NMTAP	64	336	3
NMTAP	64	368	3
NMTAP	65	0	4
NMTAP	65	48	2
NMTAP	65	48	6
NMSTR	65	96	1
NMSI_	65	96	1	96	48	4
NMSTR	65	96	5
NMSV_	65	96	5	96	48	0
NMTAP	65	144	3
NMTAP	65	144	7
NMTAP	65	192	1
NMTAP	65	192	5
BRTAP	65	272	2
BRTAP	65	272	6
NMTAP	65	336	0
NMTAP	65	336	1
NMTAP	66	0	6
NMTAP	66	0	7
NMTAP	66	48	1
NMTAP	66	48	5
NMSTR	66	96	0
NMSI_	66	96	0	96	48	4
NMSTR	66	96	6
NMSCL	66	96	6	96	48	4
NMTAP	66	144	7
BRSTR	66	192	0
NMSCR	66	192	0	96	48	2
BRSTR	66	192	6
NMSI_	66	192	6	96	48	2
BRTAP	66	288	0
BRTAP	66	288	6
EXSTR	67	0	3
BRSCL	67	0	3	96	80	5
EXTAP	67	0	5
NMTTP	67	96	0	C	1	M1
EXHLD	67	192	0	48
EXHLD	67	192	4	48
NMTAP	67	272	2
NMTAP	67	272	6
NMTAP	67	320	0
NMTAP	67	336	7
NMSTR	68	0	7
NMSCL	68	0	7	96	48	5
NMSTR	68	48	5
NMSI_	68	48	5	96	48	1
NMSTR	68	96	1
NMSCR	68	96	1	96	48	3
NMTAP	68	144	3
NMSTR	68	192	7
NMSI_	68	192	7	96	48	3
NMTAP	68	272	0
NMTAP	68	272	7
NMTAP	68	336	2
NMTAP	68	368	2
NMTAP	69	0	3
NMTAP	69	48	1
NMTAP	69	48	3
NMTAP	69	96	5
NMTAP	69	96	6
NMTAP	69	144	0
NMTAP	69	144	1
NMSTR	69	192	3
NMSXR	69	192	3	96	64	3
NMSTR	69	192	7
NMSXR	69	192	7	96	64	7
NMTAP	69	272	3
NMTAP	69	272	7
NMSTR	70	0	0
NMSI_	70	0	0	96	48	4
NMSTR	70	48	7
NMSI_	70	48	7	96	48	3
NMSTR	70	96	0
NMSCR	70	96	0	96	48	3
NMSTR	70	144	7
NMSCL	70	144	7	96	48	4
NMTAP	70	192	0
NMTAP	70	240	7
BRSTR	70	288	1
NMSI_	70	288	1	96	720	5
NMTTP	71	0	0	E	0	M1
NMTTP	71	0	7	B	1	M1
NMTTP	71	0	7	E	0	M1
NMTTP	71	0	7	A	0	M1
NMTAP	73	0	6
NMTAP	73	32	6
NMTAP	73	48	7
NMTAP	73	96	0
NMSTR	73	96	5
NMSCL	73	96	5	96	48	2
NMTAP	73	144	2
NMTAP	73	192	1
NMHLD	73	272	0	48
NMHLD	73	272	1	48
NMTAP	73	336	2
NMTAP	73	336	7
NMTAP	74	0	5
NMTAP	74	32	5
NMTAP	74	48	4
NMTAP	74	80	4
NMTAP	74	96	6
NMTAP	74	128	6
NMTAP	74	144	0
NMTAP	74	176	0
NMTAP	74	192	7
NMTAP	74	224	7
NMTAP	74	240	1
NMTAP	74	272	1
NMTAP	74	288	3
NMTAP	74	320	3
NMTAP	74	336	2
NMSTR	75	0	6
NMSI_	75	0	6	96	32	4
NMSTR	75	0	7
NMSI_	75	0	7	96	32	3
BRTAP	75	96	6
BRTAP	75	96	7
CNSI_	75	128	3	0	32	1
CNSI_	75	128	4	0	32	0
NMHLD	75	192	7	96
NMTAP	75	240	5
NMHLD	75	288	1	96
NMTAP	75	336	3
NMTAP	76	0	5
NMTAP	76	48	5
NMTAP	76	64	3
NMTAP	76	80	4
NMSTR	76	96	2
NMSCR	76	96	2	96	48	5
NMTAP	76	144	1
NMTAP	76	144	6
NMHLD	76	192	7	96
NMTAP	76	288	0
NMTAP	76	336	1
NMTAP	76	368	1
NMTAP	77	0	0
NMTAP	77	48	1
NMTAP	77	48	2
NMTAP	77	96	3
NMTAP	77	96	4
NMTAP	77	144	5
NMTAP	77	144	6
NMSTR	77	192	0
NMSXL	77	192	0	96	96	3
NMSTR	77	192	7
NMSXR	77	192	7	96	96	4
NMTAP	77	272	0
NMTAP	77	272	7
NMTAP	78	48	1
NMTAP	78	48	6
NMTAP	78	96	3
NMTAP	78	128	3
NMTAP	78	144	4
NMTAP	78	192	2
NMSTR	78	192	5
NMSI_	78	192	5	96	48	2
NMSTR	78	240	1
NMSI_	78	240	1	96	48	6
NMTAP	78	240	6
NMHLD	79	0	4	32
NMTTP	79	96	3	E	0	M1
NMTTP	79	176	4	E	0	M1
NMTAP	80	0	4
NMTAP	80	0	5
NMTAP	80	32	4
NMTAP	80	32	5
NMHLD	80	96	3	192
NMHLD	81	0	3	32
NMTTP	81	96	5	E	0	M1
NMTTP	81	176	4	E	0	M1
NMTAP	82	0	2
NMTAP	82	0	3
NMTAP	82	32	2
NMTAP	82	32	3
NMHLD	82	96	4	192
NMTTP	82	192	2	D	0	M1
NMTTP	82	240	3	E	0	M1
NMTTP	82	288	5	E	0	M1
NMTTP	82	336	6	D	0	M1

T_REC_TAP	373
T_REC_BRK	10
T_REC_XTP	23
T_REC_BXX	4
T_REC_HLD	59
T_REC_XHO	10
T_REC_BHO	1
T_REC_BXH	0
T_REC_STR	62
T_REC_BST	5
T_REC_XST	3
T_REC_XBS	0
T_REC_TTP	57
T_REC_THO	0
T_REC_SLD	69
T_REC_BSL	2
T_REC_ALL	678
T_NUM_TAP	518
T_NUM_BRK	22
T_NUM_HLD	69
T_NUM_SLD	69
T_NUM_ALL	678
T_JUDGE_TAP	537
T_JUDGE_HLD	200
T_JUDGE_SLD	71
T_JUDGE_ALL	808
TTM_EACHPAIRS	134
TTM_SCR_TAP	259000
TTM_SCR_BRK	57200
TTM_SCR_HLD	69000
TTM_SCR_SLD	103500
TTM_SCR_ALL	488700
TTM_SCR_S	471950
TTM_SCR_SS	486500
TTM_RAT_ACV	10045

