VERSION	0.00.00	1.04.00
FES_MODE	0
BPM_DEF	133.000	133.000	133.000	133.000
MET_DEF	4	4
RESOLUTION	384
CLK_DEF	384
COMPATIBLE_CODE	MA2

BPM	0	0	133.000
MET	0	0	4	4

NMSTR	6	0	0
NMSCR	6	0	0	96	192	4
NMHLD	6	0	6	576
NMHLD	7	0	4	192
NMHLD	8	0	1	576
NMSTR	8	0	7
NMSCL	8	0	7	96	192	3
NMHLD	9	0	3	192
NMTAP	10	0	2
NMTAP	10	0	4
EXTAP	10	96	2
EXTAP	10	96	4
NMTAP	10	192	1
NMTAP	10	240	1
NMTAP	10	288	3
NMTAP	11	0	5
NMTAP	11	48	5
NMTAP	11	96	3
NMTAP	11	144	3
NMTAP	11	192	6
NMTAP	11	240	6
NMTAP	11	288	4
NMTAP	12	0	2
NMTAP	12	0	4
EXTAP	12	96	2
EXTAP	12	96	4
NMTAP	12	192	1
NMTAP	12	240	1
NMTAP	12	288	3
NMTAP	13	0	5
NMTAP	13	48	5
NMTAP	13	96	3
NMTAP	13	144	3
NMHLD	13	192	6	96
EXTAP	13	288	4
EXTAP	13	336	4
NMSTR	14	0	7
NMSCL	14	0	7	96	96	4
NMSTR	14	192	1
NMSCR	14	192	1	96	96	4
NMSTR	15	0	5
NMSUL	15	0	5	96	192	3
NMSTR	16	0	0
NMSCR	16	0	0	96	96	3
NMSTR	16	192	6
NMSCL	16	192	6	96	96	3
NMHLD	17	0	2	288
EXTAP	17	288	3
EXTAP	17	336	3
NMTAP	18	0	1
NMTAP	18	0	4
NMTAP	18	96	2
NMTAP	18	96	3
NMTAP	18	192	1
NMTAP	18	240	1
NMTAP	18	288	0
NMTAP	19	0	6
NMTAP	19	48	6
NMTAP	19	96	7
NMTAP	19	192	4
NMTAP	19	192	5
NMTAP	19	288	3
NMTAP	19	288	6
NMTAP	20	0	3
NMTAP	20	0	6
NMTAP	20	96	4
NMTAP	20	96	5
NMTAP	20	192	6
NMTAP	20	240	6
NMTAP	20	288	0
NMTAP	20	336	0
NMTAP	21	0	4
NMTAP	21	48	4
NMTAP	21	96	2
NMTAP	21	144	2
NMTAP	21	192	3
NMTAP	21	192	5
NMTAP	21	240	3
NMTAP	21	240	5
NMTAP	21	288	2
NMTAP	21	288	6
EXHLD	22	0	0	768
NMTTP	23	0	3	E	0	M1
NMTTP	23	96	4	E	0	M1
NMTTP	23	192	5	E	0	M1
NMTTP	23	288	6	E	0	M1
NMHLD	24	0	7	672
NMTTP	25	0	5	E	0	M1
NMTTP	25	96	4	E	0	M1
NMTTP	25	192	3	E	0	M1
NMTTP	25	288	2	E	0	M1
NMTAP	26	0	1
NMTAP	26	48	1
NMTAP	26	96	3
NMTAP	26	144	3
NMTAP	26	192	2
NMTAP	26	240	2
NMTAP	26	288	1
NMTAP	26	288	4
NMTAP	27	0	6
NMTAP	27	48	6
NMTAP	27	96	4
NMTAP	27	144	4
NMTAP	27	192	5
NMTAP	27	240	5
NMTAP	27	288	3
NMTAP	27	288	6
NMHLD	28	0	1	96
NMHLD	28	96	3	96
NMTAP	28	192	2
NMTAP	28	288	1
NMSTR	28	288	4
BRSCL	28	288	4	96	288	5
BRTAP	30	0	1
BRTAP	30	0	7
NMTAP	30	48	1
NMTAP	30	48	7
NMSTR	30	96	2
NMSCR	30	96	2	96	96	5
NMSTR	30	96	6
NMSCR	30	96	6	96	96	1
NMTAP	31	0	2
NMTAP	31	0	4
NMTAP	31	48	2
NMTAP	31	48	4
NMTAP	31	96	1
NMTAP	31	96	5
NMTAP	31	192	6
NMTAP	31	240	6
NMTAP	31	288	4
NMTAP	31	336	4
NMTAP	32	0	5
NMTAP	32	96	0
NMTAP	32	96	6
NMTAP	32	192	1
NMTAP	32	240	1
NMTAP	32	288	3
NMTAP	32	336	3
NMTAP	33	0	2
NMTAP	33	96	0
NMTAP	33	96	1
NMTAP	33	192	6
NMTAP	33	192	7
NMTAP	33	240	6
NMTAP	33	240	7
BRTAP	33	288	0
BRTAP	33	288	5
NMTAP	34	0	2
NMTAP	34	0	4
BRSTR	34	96	1
NMSCL	34	96	1	96	96	6
BRSTR	34	96	5
NMSCL	34	96	5	96	96	2
NMTAP	35	0	1
NMTAP	35	0	7
NMTAP	35	48	1
NMTAP	35	48	7
NMTAP	35	96	2
NMTAP	35	96	6
NMTAP	35	192	1
NMTAP	35	240	1
NMTAP	35	288	3
NMTAP	35	336	3
NMTAP	36	0	2
NMTAP	36	96	3
NMTAP	36	96	5
NMTAP	36	192	6
NMTAP	36	240	6
NMTAP	36	288	4
NMTAP	36	336	4
NMTAP	37	0	5
NMTAP	37	96	2
NMTAP	37	96	4
NMTAP	37	192	0
NMTAP	37	192	6
NMTAP	37	240	0
NMTAP	37	240	6
NMHLD	37	288	1	192
NMSTR	37	288	5
NMSCL	37	288	5	96	96	2
NMHLD	38	192	2	48
NMHLD	38	192	3	48
NMHLD	38	288	1	48
NMHLD	38	288	3	48
EXTAP	39	0	0
EXTAP	39	48	0
NMTAP	39	96	6
NMTAP	39	144	6
NMHLD	39	192	4	48
NMHLD	39	192	5	48
NMHLD	39	288	4	48
NMHLD	39	288	6	48
EXHLD	40	0	7	96
NMTAP	40	96	1
NMTAP	40	144	1
NMHLD	40	192	2	48
NMHLD	40	192	3	48
NMHLD	40	288	1	48
NMHLD	40	288	3	48
EXTAP	41	0	0
EXTAP	41	48	0
NMTAP	41	96	6
NMTAP	41	144	6
NMHLD	41	192	4	48
NMHLD	41	192	5	48
NMHLD	41	288	4	48
NMHLD	41	288	6	48
NMSTR	42	0	7
NMSI_	42	0	7	96	96	1
CNSI_	42	192	1	0	192	5
CNSI_	43	0	5	0	96	3
NMSTR	44	0	3
NMSI_	44	0	3	96	96	5
CNSI_	44	192	5	0	192	1
CNSI_	45	0	1	0	96	7
NMTAP	45	192	5
NMTAP	45	240	4
NMTAP	45	288	3
NMTAP	45	336	2
NMHLD	46	0	1	576
NMTAP	46	96	4
NMTAP	46	192	3
NMTAP	46	240	3
NMTAP	46	288	4
NMTAP	47	0	3
NMTAP	47	48	3
NMTAP	47	96	4
NMTAP	47	192	3
NMTAP	47	288	3
NMTAP	47	288	5
NMHLD	48	0	6	576
NMTAP	48	96	3
NMTAP	48	192	4
NMTAP	48	240	4
NMTAP	48	288	3
NMTAP	49	0	4
NMTAP	49	48	4
NMTAP	49	96	3
NMTAP	49	192	4
EXTAP	49	288	3
EXTAP	49	288	5
EXTAP	49	336	3
EXTAP	49	336	5
NMTAP	50	0	2
NMHLD	50	96	2	96
NMTAP	50	192	0
NMHLD	50	288	0	96
NMTAP	51	0	7
NMHLD	51	96	7	96
NMTAP	51	192	5
NMHLD	51	288	5	96
NMTAP	52	0	4
NMTAP	52	96	3
NMTAP	52	192	2
NMHLD	52	288	1	768
NMSTR	53	0	3
NMSI_	53	0	3	96	96	1
CNSI_	53	192	1	0	96	4
CNSI_	53	288	4	0	96	0
CNSI_	54	0	0	0	96	5
CNSI_	54	96	5	0	96	7
NMTTP	55	0	2	E	0	M1
NMTTP	55	96	3	E	0	M1
NMTTP	55	192	4	E	0	M1
NMTTP	55	288	5	E	0	M1
NMTTP	56	0	5	B	0	M1
NMTTP	56	96	4	B	0	M1
NMTTP	56	192	3	B	0	M1
NMTTP	56	288	2	B	0	M1
NMSTR	57	0	1
NMSCR	57	0	1	96	96	4
NMSTR	57	192	7
NMSCL	57	192	7	96	96	4
NMSTR	58	0	0
NMSCR	58	0	0	96	96	3
NMHLD	58	192	6	96
NMTAP	58	288	4
NMTTP	59	0	6	E	0	M1
NMTTP	59	96	5	E	0	M1
NMTTP	59	192	4	E	0	M1
NMTTP	59	288	3	E	0	M1
NMTTP	60	0	2	B	0	M1
NMTTP	60	96	3	B	0	M1
NMTTP	60	192	4	B	0	M1
NMTTP	60	288	5	B	0	M1
NMSTR	61	0	6
NMSCL	61	0	6	96	96	3
NMSTR	61	192	0
NMSCR	61	192	0	96	96	3
NMHLD	62	0	5	288
NMTHO	62	288	0	1728	C	1	M1
EXTAP	63	0	6
EXTAP	63	48	6
EXTAP	63	96	6
NMTAP	63	192	0
NMTAP	63	288	7
EXTAP	64	0	1
EXTAP	64	48	1
EXTAP	64	96	1
NMTAP	64	192	7
NMTAP	64	288	0
EXTAP	65	0	1
EXTAP	65	48	1
EXSTR	65	96	1
NMSLL	65	96	1	96	96	5
NMTAP	66	0	7
EXTAP	66	96	0
EXTAP	66	144	0
EXTAP	66	192	0
NMSTR	66	288	6
NMSI_	66	288	6	96	48	0
BXTAP	67	96	7
EXTAP	67	192	0
EXTAP	67	240	0
EXTAP	67	288	0
NMHLD	68	0	1	48
NMHLD	68	0	7	48
NMHLD	68	96	1	48
NMHLD	68	96	7	48
NMHLD	68	192	0	48
NMHLD	68	192	6	48
NMHLD	68	288	0	48
NMHLD	68	288	6	48
EXTAP	69	0	7
EXTAP	69	48	7
EXSTR	69	96	7
NMSCL	69	96	7	96	96	4
NMSCR	69	96	7	96	96	2
NMHLD	70	0	5	96
NMHLD	70	96	7	96
NMHLD	70	192	0	96
NMSTR	70	288	2
NMSCL	70	288	2	96	480	4
NMTTP	71	0	0	C	1	M1
NMTAP	72	288	3
NMTAP	72	288	4
NMTAP	73	0	0
NMTAP	73	0	6
NMTAP	73	96	4
NMTAP	73	192	1
NMTAP	73	192	7
NMTAP	73	288	3
NMTAP	74	0	4
NMTAP	74	0	5
NMTAP	74	96	1
NMTAP	74	96	3
NMTAP	74	192	4
NMTAP	74	192	6
NMTAP	74	288	2
NMTAP	74	288	3
NMTAP	75	0	0
NMTAP	75	0	1
BRTAP	75	96	2
BRTAP	75	96	7
NMTAP	75	192	6
NMTAP	75	240	6
NMTAP	75	288	7
NMTAP	76	0	1
NMTAP	76	48	1
NMTAP	76	96	0
NMTAP	76	192	2
NMTAP	76	192	3
NMTAP	76	288	1
NMTAP	76	288	4
NMTAP	77	0	5
NMTAP	77	48	5
NMTAP	77	96	4
NMTAP	77	192	2
NMTAP	77	240	2
NMTAP	77	288	3
NMHLD	78	0	1	96
NMHLD	78	96	3	96
NMHLD	78	192	4	96
NMHLD	78	288	6	96
NMSTR	79	0	7
NMSI_	79	0	7	96	96	1
CNSI_	79	192	1	0	96	5
CNSI_	79	288	5	0	96	3
NMTAP	80	0	7
NMTAP	80	96	5
NMTAP	80	192	2
NMTAP	80	192	4
NMTAP	80	288	2
NMTAP	80	288	4
NMSTR	81	0	3
NMSI_	81	0	3	96	96	5
NMTAP	81	0	5
CNSI_	81	192	5	0	96	1
CNSI_	81	288	1	0	96	7
NMTAP	82	0	6
NMTAP	82	96	6
NMTTP	82	192	6	E	0	M1
NMTTP	82	240	4	B	0	M1
NMTTP	82	288	3	B	0	M1
NMTTP	82	336	2	E	0	M1

T_REC_TAP	207
T_REC_BRK	6
T_REC_XTP	32
T_REC_BXX	1
T_REC_HLD	50
T_REC_XHO	2
T_REC_BHO	0
T_REC_BXH	0
T_REC_STR	23
T_REC_BST	2
T_REC_XST	2
T_REC_XBS	0
T_REC_TTP	29
T_REC_THO	1
T_REC_SLD	27
T_REC_BSL	1
T_REC_ALL	383
T_NUM_TAP	293
T_NUM_BRK	10
T_NUM_HLD	53
T_NUM_SLD	27
T_NUM_ALL	383
T_JUDGE_TAP	302
T_JUDGE_HLD	210
T_JUDGE_SLD	28
T_JUDGE_ALL	540
TTM_EACHPAIRS	68
TTM_SCR_TAP	146500
TTM_SCR_BRK	26000
TTM_SCR_HLD	53000
TTM_SCR_SLD	40500
TTM_SCR_ALL	266000
TTM_SCR_S	257050
TTM_SCR_SS	265000
TTM_RAT_ACV	10037

