VERSION	0.00.00	1.04.00
FES_MODE	0
BPM_DEF	133.000	133.000	133.000	133.000
MET_DEF	4	4
RESOLUTION	384
CLK_DEF	384
COMPATIBLE_CODE	MA2

BPM	0	0	133.000
MET	0	0	4	4

NMSTR	6	0	6
NMSI_	6	0	6	96	288	3
NMSTR	8	0	1
NMSI_	8	0	1	96	288	4
NMTAP	10	0	4
NMTAP	10	96	4
NMTAP	10	192	5
NMTAP	11	0	6
NMTAP	11	96	6
NMTAP	11	192	7
NMTAP	12	0	0
NMTAP	12	96	0
NMTAP	12	192	1
NMTAP	13	0	2
NMTAP	13	96	2
NMTAP	13	192	2
NMTAP	13	192	3
NMTAP	14	0	3
NMTAP	14	96	3
NMTAP	14	192	2
NMTAP	15	0	1
NMTAP	15	96	1
NMTAP	15	192	0
NMTAP	16	0	7
NMTAP	16	96	7
NMTAP	16	192	6
NMTAP	17	0	5
NMTAP	17	96	5
NMTAP	17	192	4
NMTAP	17	192	5
NMTAP	18	0	5
NMTAP	18	96	5
NMTAP	18	192	4
NMTAP	18	192	5
NMTAP	19	0	6
NMTAP	19	96	6
NMTAP	19	192	6
NMTAP	19	192	7
NMTAP	20	0	0
NMTAP	20	96	0
NMTAP	20	192	0
NMTAP	20	192	1
NMTAP	21	0	2
NMTAP	21	0	3
NMTAP	21	96	2
NMTAP	21	96	3
NMTAP	21	192	2
NMTAP	21	192	3
NMHLD	22	0	2	192
NMHLD	22	192	3	192
NMHLD	23	0	4	192
NMTAP	23	192	5
NMHLD	24	0	5	192
NMHLD	24	192	4	192
NMHLD	25	0	3	192
NMTAP	25	192	2
NMHLD	26	0	1	192
NMHLD	26	192	2	192
NMHLD	27	0	3	192
NMTAP	27	192	4
NMHLD	28	0	6	192
NMHLD	28	192	5	192
NMHLD	29	0	4	192
NMTAP	29	192	3
NMTAP	30	0	2
NMTAP	30	96	2
NMTAP	30	192	1
NMTAP	30	288	1
NMTAP	31	0	0
NMTAP	31	96	0
NMTAP	31	192	6
NMTAP	31	192	7
NMTAP	32	0	5
NMTAP	32	96	5
NMTAP	32	192	6
NMTAP	32	288	6
NMTAP	33	0	7
NMTAP	33	96	7
NMTAP	33	192	0
NMTAP	33	192	1
NMTAP	34	0	1
NMTAP	34	96	1
NMTAP	34	192	2
NMTAP	34	288	2
NMTAP	35	0	3
NMTAP	35	96	3
NMTAP	35	192	4
NMTAP	35	192	5
NMTAP	36	0	6
NMTAP	36	96	6
NMTAP	36	192	5
NMTAP	36	288	5
NMTAP	37	0	4
NMTAP	37	96	4
BRTAP	37	192	2
BRTAP	37	192	3
NMSTR	38	0	1
NMSI_	38	0	1	96	192	4
NMSTR	39	0	6
NMSI_	39	0	6	96	192	3
NMSTR	40	0	1
NMSI_	40	0	1	96	192	5
NMSTR	41	0	6
NMSI_	41	0	6	96	192	2
NMSTR	42	0	0
NMSI_	42	0	0	96	192	4
NMSTR	43	0	6
NMSI_	43	0	6	96	192	3
NMSTR	44	0	1
NMSI_	44	0	1	96	192	4
NMTAP	45	0	5
NMTAP	45	192	3
NMTAP	45	192	4
NMTAP	46	0	5
NMTAP	46	96	5
NMTAP	46	192	4
NMTAP	46	192	5
NMTAP	47	0	6
NMTAP	47	96	6
NMTAP	47	192	6
NMTAP	47	192	7
NMTAP	48	0	0
NMTAP	48	96	0
NMTAP	48	192	0
NMTAP	48	192	1
NMTAP	49	0	2
NMTAP	49	0	3
NMTAP	49	96	2
NMTAP	49	96	3
NMTAP	49	192	2
NMTAP	49	192	3
NMTAP	50	0	2
NMTAP	50	96	2
NMTAP	50	192	2
NMTAP	50	192	3
NMTAP	51	0	1
NMTAP	51	96	1
NMTAP	51	192	0
NMTAP	51	192	1
NMTAP	52	0	7
NMTAP	52	96	7
NMTAP	52	192	6
NMTAP	52	192	7
NMTAP	53	0	4
NMTAP	53	0	5
NMTAP	53	96	4
NMTAP	53	96	5
NMTAP	53	192	4
NMTAP	53	192	5
NMHLD	54	0	3	192
NMHLD	54	0	4	192
NMTTP	55	0	6	B	0	L1
NMTTP	55	96	5	B	0	L1
NMTTP	55	192	4	B	0	L1
NMTTP	56	0	1	B	0	L1
NMTTP	56	96	2	B	0	L1
NMTTP	56	192	3	B	0	L1
NMTTP	57	0	6	B	0	L1
NMTTP	57	96	5	B	0	L1
NMTTP	57	192	4	B	0	L1
NMTTP	57	288	3	B	0	L1
NMTTP	58	0	2	B	0	L1
NMTTP	58	96	1	B	0	L1
NMTTP	58	192	0	C	0	L1
NMTTP	59	0	0	B	0	L1
NMTTP	59	96	1	B	0	L1
NMTTP	59	192	2	B	0	L1
NMTTP	59	192	3	B	0	L1
NMTTP	60	0	7	B	0	L1
NMTTP	60	96	6	B	0	L1
NMTTP	60	192	4	B	0	L1
NMTTP	60	192	5	B	0	L1
NMTTP	61	0	1	B	0	L1
NMTTP	61	96	2	B	0	L1
NMTTP	61	192	3	B	0	L1
NMTTP	61	288	4	B	0	L1
NMTTP	62	0	5	B	0	L1
NMTTP	62	96	6	B	0	L1
NMTTP	62	192	0	C	0	L1
EXTAP	63	0	1
EXTAP	63	96	1
NMTAP	63	192	0
NMTAP	63	192	1
NMTAP	63	288	0
NMTAP	63	288	1
NMTAP	64	0	7
NMTAP	64	96	7
NMTAP	64	192	6
NMTAP	64	192	7
NMTAP	65	0	5
NMTAP	65	96	5
NMTAP	65	192	6
NMTAP	65	192	7
NMTAP	65	288	6
NMTAP	65	288	7
NMTAP	66	0	0
NMTAP	66	96	0
NMTAP	66	192	0
NMTAP	66	192	1
NMTAP	67	0	1
BXTAP	67	96	1
NMTAP	67	192	2
NMTAP	67	192	3
NMTAP	67	288	2
NMTAP	67	288	3
NMTAP	68	0	4
NMTAP	68	96	4
NMTAP	68	192	4
NMTAP	68	192	5
NMTAP	69	0	6
NMTAP	69	96	6
NMTAP	69	192	4
NMTAP	69	192	5
NMTAP	69	288	4
NMTAP	69	288	5
NMTAP	70	0	3
NMTAP	70	96	3
NMTAP	70	192	2
NMTAP	70	192	3
NMTAP	71	0	1
NMTAP	71	96	1
NMTAP	71	192	1
NMTAP	71	288	0
NMTAP	71	288	1
NMTAP	72	0	2
NMTAP	72	96	2
NMTAP	72	192	2
NMTAP	72	288	2
NMTAP	72	288	3
NMTAP	73	0	4
NMTAP	73	96	4
NMTAP	73	192	4
NMTAP	73	288	4
NMTAP	73	288	5
NMTAP	74	0	6
NMTAP	74	0	7
NMTAP	74	96	6
NMTAP	74	96	7
NMTAP	74	192	6
NMTAP	74	192	7
NMTAP	75	0	6
NMTAP	75	96	6
NMTAP	75	192	6
NMTAP	75	288	6
NMTAP	75	288	7
NMTAP	76	0	5
NMTAP	76	96	5
NMTAP	76	192	5
NMTAP	76	288	4
NMTAP	76	288	5
NMTAP	77	0	3
NMTAP	77	96	3
NMTAP	77	192	3
NMTAP	77	288	2
NMTAP	77	288	3
NMTAP	78	0	0
NMTAP	78	0	1
NMTAP	78	96	0
NMTAP	78	96	1
NMTAP	78	192	0
NMTAP	78	192	1
NMSTR	79	0	1
NMSUR	79	0	1	96	480	4
NMSTR	81	0	6
NMSUL	81	0	6	96	480	3

T_REC_TAP	196
T_REC_BRK	2
T_REC_XTP	2
T_REC_BXX	1
T_REC_HLD	14
T_REC_XHO	0
T_REC_BHO	0
T_REC_BXH	0
T_REC_STR	11
T_REC_BST	0
T_REC_XST	0
T_REC_XBS	0
T_REC_TTP	28
T_REC_THO	0
T_REC_SLD	11
T_REC_BSL	0
T_REC_ALL	265
T_NUM_TAP	237
T_NUM_BRK	3
T_NUM_HLD	14
T_NUM_SLD	11
T_NUM_ALL	265
T_JUDGE_TAP	240
T_JUDGE_HLD	56
T_JUDGE_SLD	11
T_JUDGE_ALL	307
TTM_EACHPAIRS	50
TTM_SCR_TAP	118500
TTM_SCR_BRK	7800
TTM_SCR_HLD	14000
TTM_SCR_SLD	16500
TTM_SCR_ALL	156800
TTM_SCR_S	151850
TTM_SCR_SS	156500
TTM_RAT_ACV	10019

